G.I. Joe: Бросок кобры 2 / G.I. Joe: Retaliation (2013) BDRip 1080p | Theatrical Cut

 
Автор Сообщение

sergej644 ®

Пол:

Стаж: 4 года 11 месяцев

Сообщений: 6045

Откуда: Soviet Union



Награды: Нет

Торрент-статистика

Создавать темы 21-Янв-2015 00:55

[Цитировать]

Информация о фильме
Название: G.I. Joe: Бросок кобры 2
Оригинальное название: G.I. Joe: Retaliation
Год выхода: 2013
Жанр: фантастика, боевик, триллер, приключения
Режиссер: Джон М. Чу
В ролях: Дуэйн Джонсон, Эдрианн Палики, Брюс Уиллис, Рэй Парк, Ли Бён Хон, Д.Дж. Котрона, Джонатан Прайс, Элоди Юнг, Ченнинг Татум, Люк Брейси
О фильме:
Во второй части отряд «G.I. Joe» вновь объявит вызов группировке «Кобра» и вступит в противостояние с правительством.

Выпущено: США
Студия: Paramount Pictures, Metro-Goldwyn-Mayer
Продолжительность: 01:50:14
Перевод: Дублированный + Оригинал
Файл
Кодек: x264
Качество: BDRip (источник: Blu-ray Disc)
Видео: 1920x800 (2,40:1), 23.976 fps, 8792 kbps
Аудио #1: AC-3, 6 ch, 640 kbps (Rus)
Аудио #2: AC-3, 6 ch, 640 kbps (Eng)
Субтитры: Русские, Английские
Скачать: семпл

Скриншоты

MI

Общее
Уникальный идентификатор : 220100844497571589886398313868733091274 (0xA595E176E25BF560A254E8987C2A8DCA)
Полное имя : E:G.I.Joe.Retaliation.2013.BDRip.1080p.Rus.Eng.mkv
Формат : Matroska
Версия формата : Version 4 / Version 2
Размер файла : 7,75 Гбайт
Продолжительность : 1 ч. 50 м.
Общий поток : 10,1 Мбит/сек
Название фильма : G.I. Joe: Бросок кобры 2 / G.I. Joe: Retaliation (2013)
Дата кодирования : UTC 2013-07-16 16:14:36
Программа кодирования : mkvmerge v6.3.0 ('You can't stop me!') built on Jun 28 2013 20:09:41
Библиотека кодирования : libebml v1.3.0 + libmatroska v1.4.0
Видео
Идентификатор : 1
Формат : AVC
Формат/Информация : Advanced Video Codec
Профиль формата : High@L4.1
Параметр CABAC формата : Да
Параметр ReFrames формата : 5 кадров
Идентификатор кодека : V_MPEG4/ISO/AVC
Продолжительность : 1 ч. 50 м.
Битрейт : 8792 Кбит/сек
Ширина : 1920 пикселей
Высота : 800 пикселей
Соотношение сторон : 2,40:1
Режим частоты кадров : Постоянный
Частота кадров : 23,976 кадра/сек
Цветовое пространство : YUV
Субдискретизация насыщенности : 4:2:0
Битовая глубина : 8 бит
Тип развёртки : Прогрессивная
Бит/(Пиксели*Кадры) : 0.239
Размер потока : 6,61 Гбайт (85%)
Заголовок : Release by N1NT3NDO
Библиотека кодирования : x264 core 133 r2334 a3ac64b
Настройки программы : cabac=1 / ref=5 / deblock=1:-3:-3 / analyse=0x3:0x133 / me=umh / subme=11 / psy=1 / psy_rd=1.00:0.00 / mixed_ref=1 / me_range=32 / chroma_me=1 / trellis=2 / 8x8dct=1 / cqm=0 / deadzone=21,11 / fast_pskip=0 / chroma_qp_offset=-2 / threads=12 / lookahead_threads=1 / sliced_threads=0 / nr=0 / decimate=0 / interlaced=0 / bluray_compat=0 / constrained_intra=0 / bframes=5 / b_pyramid=2 / b_adapt=2 / b_bias=0 / direct=3 / weightb=1 / open_gop=0 / weightp=2 / keyint=240 / keyint_min=23 / scenecut=40 / intra_refresh=0 / rc=2pass / mbtree=0 / bitrate=8792 / ratetol=1.0 / qcomp=0.60 / qpmin=0 / qpmax=69 / qpstep=4 / cplxblur=20.0 / qblur=0.5 / ip_ratio=1.40 / pb_ratio=1.30 / aq=1:0.70
Язык : English
Default : Да
Forced : Нет
Аудио #1
Идентификатор : 2
Формат : AC-3
Формат/Информация : Audio Coding 3
Расширение режима : CM (complete main)
Параметр Endianness формата : Big
Идентификатор кодека : A_AC3
Продолжительность : 1 ч. 50 м.
Вид битрейта : Постоянный
Битрейт : 640 Кбит/сек
Каналы : 6 каналов
Расположение каналов : Front: L C R, Side: L R, LFE
Частота : 48,0 КГц
Битовая глубина : 16 бит
Метод сжатия : С потерями
Размер потока : 505 Мбайт (6%)
Заголовок : Rus
Язык : Russian
Default : Да
Forced : Нет
Аудио #2
Идентификатор : 3
Формат : AC-3
Формат/Информация : Audio Coding 3
Расширение режима : CM (complete main)
Параметр Endianness формата : Big
Идентификатор кодека : A_AC3
Продолжительность : 1 ч. 50 м.
Вид битрейта : Постоянный
Битрейт : 640 Кбит/сек
Каналы : 6 каналов
Расположение каналов : Front: L C R, Side: L R, LFE
Частота : 48,0 КГц
Битовая глубина : 16 бит
Метод сжатия : С потерями
Размер потока : 505 Мбайт (6%)
Заголовок : Eng
Язык : English
Default : Нет
Forced : Нет
Текст #1
Идентификатор : 4
Формат : UTF-8
Идентификатор кодека : S_TEXT/UTF8
Идентификатор кодека/Информация : UTF-8 Plain Text
Заголовок : Rus
Язык : Russian
Default : Нет
Forced : Нет
Текст #2
Идентификатор : 5
Формат : UTF-8
Идентификатор кодека : S_TEXT/UTF8
Идентификатор кодека/Информация : UTF-8 Plain Text
Заголовок : Eng
Язык : English
Default : Нет
Forced : Нет
Меню
00:00:00.000 : :Chapter 01
00:06:08.242 : :Chapter 02
00:12:52.313 : :Chapter 03
00:17:35.471 : :Chapter 04
00:25:37.369 : :Chapter 05
00:30:56.187 : :Chapter 06
00:39:00.880 : :Chapter 07
00:42:40.975 : :Chapter 08
00:48:31.241 : :Chapter 09
00:54:02.989 : :Chapter 10
01:01:46.536 : :Chapter 11
01:07:34.675 : :Chapter 12
01:13:56.807 : :Chapter 13
01:17:54.461 : :Chapter 14
01:23:45.979 : :Chapter 15
01:31:12.758 : :Chapter 16
01:41:13.358 : :Chapter 17

x264

x264 [info]: frame I:1496 Avg QP:19.10 size:235172
x264 [info]: frame P:44699 Avg QP:21.95 size: 72297
x264 [info]: frame B:112406 Avg QP:23.93 size: 32719

Дополнительная информация о релизе

1-я часть фильма находиться здесь: Бросок кобры / G.I. Joe: The Rise of Cobra (2009) BDRip 1080p
[Профиль] [ЛС]
Кто просматривает тему:

Форум Тема Автор Размер
Фильмы (HD Rips | 720p, 1080p) G.I. Joe: Бросок кобры 2 / G.I. Joe: Retaliation (2013) BDRip 720p от HQ-ViDEO | Лицензия | Theatrical Cut sergej644 7.66 GB
Зарубежные G.I. Joe: Бросок кобры 2 3Д / G.I. Joe: Retaliation 3D (Джон М. Чу / Jon Chu) [2013, США, фантастика, боевик, триллер, приключения, BDRemux 2D/3D] [Theatrical Cut] Dub + AVO (А.Гаврилов) + Dub (Ukr)... TorrentFilm 45.27 GB
Зарубежные G.I. Joe: Бросок кобры 2 в 3Д / G.I. Joe: Retaliation 3D (Джон М. Чу / Jon Chu) [2013, фантастика, боевик, триллер, приключения, BDRip-AVC, 1080p] OverUnder / Вертикальная стереопара TorrentFilm 26.23 GB
Зарубежные G.I. Joe: Бросок кобры 2 в 3Д / G.I. Joe: Retaliation 3D (Джон М. Чу / Jon Chu) [2013, фантастика, боевик, триллер, приключения, BDRip-AVC] Dub + Original Eng + Sub Rus, Eng Half Side... TorrentFilm 11.11 GB
Зарубежные G.I. Joe: Бросок кобры 2 в 3Д / G.I. Joe: Retaliation 3D (Джон М. Чу / Jon Chu) [2013, фантастика, боевик, триллер, приключения, BDRip-AVC] Half OverUnder / Вертикальная анаморфная стереопара TorrentFilm 10.48 GB
Зарубежные G.I. Joe: Бросок кобры 2 в 3Д / G.I. Joe: Retaliation 3D (Джон М. Чу / Jon Chu) [2013, фантастика, боевик, триллер, приключения, Blu-ray disc Custom 1080p] [Theatrical Cut] BD3D TorrentFilm 46.02 GB
Показать сообщения:    

Текущее время: Сегодня 00:12

Часовой пояс: GMT



Вы не можете начинать темы
Вы не можете отвечать на сообщения
Вы не можете редактировать свои сообщения
Вы не можете удалять свои сообщения
Вы не можете голосовать в опросах
Вы не можете прикреплять файлы к сообщениям
Вы не можете скачивать файлы