(Hard Rock)Geordie - The Best Of Geordie - 1997 [FLAC, Image+cue, lossless]

 
Автор Сообщение

sergej644 ®

Пол:

Стаж: 4 года 11 месяцев

Сообщений: 6038

Откуда: Soviet Union



Награды: Нет

Торрент-статистика

Создавать темы 26-Июл-2016 15:50

[Цитировать]

-Geordie - The Best Of Geordie--
Год издания: 1997
Страна: UK
Жанр: Hard Rock
Продолжительность: 00:49:27-Лейбл издания: rism Leisure Corporation
Страна-выпуска диска: EU
Номер по каталогу: PLATCD 240-Формат: FLAC
Битрейт аудио: Lossless
Тип рипа: image +.cue
Наличие сканов в содержимом раздачи: да
-

Трэклист


01. Can You Do It (4:31)
02. House of the Rising Sun (4:59)
03. Don't Do That (3:12)
04. Natural Born Losers (4:13)
05. All Because of You (2:44)
06. Strange Man (3:30)
07. Electric Lady (2:56)
08. Geordies Stomp (2:44)
09. Black Cat Woman (4:15)
10. Rockin' With the Boys Tonite (2:54)
11. We're All Right Now (3:15)
12. Rock 'n' Roll Fever (3:26)
13. I Cried Today (3:36)
14. You Do This to Me (3:09)
-

Лог создания рипа

Exact Audio Copy V1.1 from 23. June 2015
EAC extraction logfile from 15. March 2016, 18:05
Geordie / The Best of Geordie
Used drive  : hp      CDDVDW SH-216BB   Adapter: 1  ID: 0
Read mode               : Secure
Utilize accurate stream : Yes
Defeat audio cache      : Yes
Make use of C2 pointers : No
Read offset correction                      : 6
Overread into Lead-In and Lead-Out          : No
Fill up missing offset samples with silence : Yes
Delete leading and trailing silent blocks   : No
Null samples used in CRC calculations       : Yes
Used interface                              : Native Win32 interface for Win NT & 2000
Used output format : Internal WAV Routines
Sample format      : 44.100 Hz; 16 Bit; Stereo
TOC of the extracted CD
     Track |   Start  |  Length  | Start sector | End sector
    ---------------------------------------------------------
        1  |  0:00.00 |  4:30.50 |         0    |    20299
        2  |  4:30.50 |  4:59.32 |     20300    |    42756
        3  |  9:30.07 |  3:12.15 |     42757    |    57171
        4  | 12:42.22 |  4:12.65 |     57172    |    76136
        5  | 16:55.12 |  2:44.33 |     76137    |    88469
        6  | 19:39.45 |  3:29.67 |     88470    |   104211
        7  | 23:09.37 |  2:56.23 |    104212    |   117434
        8  | 26:05.60 |  2:44.17 |    117435    |   129751
        9  | 28:50.02 |  4:15.35 |    129752    |   148911
       10  | 33:05.37 |  2:53.65 |    148912    |   161951
       11  | 35:59.27 |  3:15.28 |    161952    |   176604
       12  | 39:14.55 |  3:26.02 |    176605    |   192056
       13  | 42:40.57 |  3:36.35 |    192057    |   208291
       14  | 46:17.17 |  3:09.28 |    208292    |   222494
Range status and errors
Selected range
     Filename C:\Users\Arturs\Desktop\Geordie - The Best of Geordie.wav
     Peak level 99.8 %
     Extraction speed 7.3 X
     Range quality 100.0 %
     Test CRC 00651207
     Copy CRC 00651207
     Copy OK
No errors occurred
AccurateRip summary
Track  1  accurately ripped (confidence 4)  [D1F9BD9A]  (AR v2)
Track  2  accurately ripped (confidence 4)  [6F4BD760]  (AR v2)
Track  3  accurately ripped (confidence 4)  [7BCE2F4A]  (AR v2)
Track  4  accurately ripped (confidence 4)  [36B557FB]  (AR v2)
Track  5  accurately ripped (confidence 4)  [781BD291]  (AR v2)
Track  6  accurately ripped (confidence 4)  [A3327958]  (AR v2)
Track  7  accurately ripped (confidence 4)  [C7123725]  (AR v2)
Track  8  accurately ripped (confidence 4)  [09A71074]  (AR v2)
Track  9  accurately ripped (confidence 4)  [FDF987C2]  (AR v2)
Track 10  accurately ripped (confidence 4)  [AF362D4B]  (AR v2)
Track 11  accurately ripped (confidence 4)  [C202BD76]  (AR v2)
Track 12  accurately ripped (confidence 4)  [552B6A7E]  (AR v2)
Track 13  accurately ripped (confidence 4)  [AA137138]  (AR v2)
Track 14  accurately ripped (confidence 4)  [F65F18A6]  (AR v2)
All tracks accurately ripped
End of status report
---- CUETools DB Plugin V2.1.6
[CTDB TOCID: COSkX87TXUGiiLz34_u4fubVrg8-] found
Submit result: COSkX87TXUGiiLz34_u4fubVrg8- has been confirmed
Track | CTDB Status
  1   | (3/3) Accurately ripped
  2   | (3/3) Accurately ripped
  3   | (3/3) Accurately ripped
  4   | (3/3) Accurately ripped
  5   | (3/3) Accurately ripped
  6   | (3/3) Accurately ripped
  7   | (3/3) Accurately ripped
  8   | (3/3) Accurately ripped
  9   | (3/3) Accurately ripped
10   | (3/3) Accurately ripped
11   | (3/3) Accurately ripped
12   | (3/3) Accurately ripped
13   | (3/3) Accurately ripped
14   | (3/3) Accurately ripped

Индексная карта (non-compilant .cue)

REM DISCID C90B960E
REM COMMENT "ExactAudioCopy v1.1"
PERFORMER "Geordie"
TITLE "The Best of Geordie"
FILE "Geordie - The Best of Geordie.flac" WAVE
  TRACK 01 AUDIO
    TITLE "Can You Do It"
    PERFORMER "Geordie"
    INDEX 01 00:00:00
  TRACK 02 AUDIO
    TITLE "House of the Rising Sun"
    PERFORMER "Geordie"
    INDEX 00 04:29:22
    INDEX 01 04:30:50
  TRACK 03 AUDIO
    TITLE "Don't Do That"
    PERFORMER "Geordie"
    INDEX 00 09:28:55
    INDEX 01 09:30:07
  TRACK 04 AUDIO
    TITLE "Natural Born Losers"
    PERFORMER "Geordie"
    INDEX 00 12:40:70
    INDEX 01 12:42:22
  TRACK 05 AUDIO
    TITLE "All Because of You"
    PERFORMER "Geordie"
    INDEX 00 16:53:60
    INDEX 01 16:55:12
  TRACK 06 AUDIO
    TITLE "Strange Man"
    PERFORMER "Geordie"
    INDEX 00 19:38:17
    INDEX 01 19:39:45
  TRACK 07 AUDIO
    TITLE "Electric Lady"
    PERFORMER "Geordie"
    INDEX 00 23:08:10
    INDEX 01 23:09:37
  TRACK 08 AUDIO
    TITLE "Geordies Stomp"
    PERFORMER "Geordie"
    INDEX 00 26:04:32
    INDEX 01 26:05:60
  TRACK 09 AUDIO
    TITLE "Black Cat Woman"
    PERFORMER "Geordie"
    INDEX 00 28:48:47
    INDEX 01 28:50:02
  TRACK 10 AUDIO
    TITLE "Rockin' With the Boys Tonite"
    PERFORMER "Geordie"
    INDEX 00 33:04:10
    INDEX 01 33:05:37
  TRACK 11 AUDIO
    TITLE "We're All Right Now"
    PERFORMER "Geordie"
    INDEX 00 35:58:00
    INDEX 01 35:59:27
  TRACK 12 AUDIO
    TITLE "Rock 'n' Roll Fever"
    PERFORMER "Geordie"
    INDEX 00 39:13:27
    INDEX 01 39:14:55
  TRACK 13 AUDIO
    TITLE "I Cried Today"
    PERFORMER "Geordie"
    INDEX 00 42:39:30
    INDEX 01 42:40:57
  TRACK 14 AUDIO
    TITLE "You Do This to Me"
    PERFORMER "Geordie"
    INDEX 00 46:15:65
    INDEX 01 46:17:17
--
[Профиль] [ЛС]
Показать сообщения:    

Текущее время: Сегодня 20:02

Часовой пояс: GMT



Вы не можете начинать темы
Вы не можете отвечать на сообщения
Вы не можете редактировать свои сообщения
Вы не можете удалять свои сообщения
Вы не можете голосовать в опросах
Вы не можете прикреплять файлы к сообщениям
Вы не можете скачивать файлы