(Classic Rock, Glam Rock, Hard Rock) Geordie - Save The World (Remastered 2012) - 1976 [FLAC, image+.cue, lossless]

 
Автор Сообщение

sergej644 ®

Пол:

Стаж: 4 года 11 месяцев

Сообщений: 6042

Откуда: Soviet Union



Награды: Нет

Торрент-статистика

Создавать темы 07-Июл-2015 10:30

[Цитировать]

-Geordie / Save The World (Remastered 2012)-- Год издания: 1976
Страна: UK
Жанр: Classic Rock, Glam Rock, Hard Rock
Продолжительность: 00:38:28-Лейбл издания: Lilith
Страна-выпуска диска: EU
Номер по каталогу: LR348
Формат: FLAC
Битрейт аудио: lossless
Тип рипа: image+.cue
Наличие сканов в содержимом раздачи: да
-

Трэклист

01. Mama's Gonna Take You Home (02:56)
02. She's A Teaser (03:18)
03. Gooddbye Love (03:24)
04. I Cried Today (03:39)
05. You Do This To Me (03:11)
06. Save The World (03:05)
07. Rocking Horse (03:22)
08. Fire Queen (03:37)
09. She's A Lady (03:04)
10. Light In My Window (03:00)
11. Ride On Baby (02:38)
12. We're All Right Now (03:18)
-

Лог создания рипа

Exact Audio Copy V1.0 beta 3 from 29. August 2011
EAC extraction logfile from 4. July 2015, 10:23
Geordie / Save The World
Used drive  : ASUS    DRW-1814BLT   Adapter: 3  ID: 0
Read mode               : Secure
Utilize accurate stream : Yes
Defeat audio cache      : Yes
Make use of C2 pointers : No
Read offset correction                      : 6
Overread into Lead-In and Lead-Out          : No
Fill up missing offset samples with silence : Yes
Delete leading and trailing silent blocks   : No
Null samples used in CRC calculations       : Yes
Used interface                              : Installed external ASPI interface
Used output format              : User Defined Encoder
Selected bitrate                : 896 kBit/s
Quality                         : High
Add ID3 tag                     : No
Command line compressor         : K:\Programm\eac\Exact Audio Copy\Flac\flac.exe
Additional command line options : -V -8 -T "Date=%year%" -T "Genre=%genre%" %source%
TOC of the extracted CD
     Track |   Start  |  Length  | Start sector | End sector
    ---------------------------------------------------------
        1  |  0:00.00 |  2:55.29 |         0    |    13153
        2  |  2:55.29 |  3:17.70 |     13154    |    27998
        3  |  6:13.24 |  3:23.45 |     27999    |    43268
        4  |  9:36.69 |  3:38.55 |     43269    |    59673
        5  | 13:15.49 |  3:10.45 |     59674    |    73968
        6  | 16:26.19 |  3:04.48 |     73969    |    87816
        7  | 19:30.67 |  3:21.64 |     87817    |   102955
        8  | 22:52.56 |  3:36.16 |    102956    |   119171
        9  | 26:28.72 |  3:03.73 |    119172    |   132969
       10  | 29:32.70 |  2:59.39 |    132970    |   146433
       11  | 32:32.34 |  2:37.46 |    146434    |   158254
       12  | 35:10.05 |  3:17.70 |    158255    |   173099
Range status and errors
Selected range
     Filename F:\EAC\Geordie - Save The World.wav
     Peak level 100.0 %
     Extraction speed 2.7 X
     Range quality 100.0 %
     Test CRC 82D733F1
     Copy CRC 82D733F1
     Copy OK
No errors occurred
AccurateRip summary
Track  1  not present in database
Track  2  not present in database
Track  3  not present in database
Track  4  not present in database
Track  5  not present in database
Track  6  not present in database
Track  7  not present in database
Track  8  not present in database
Track  9  not present in database
Track 10  not present in database
Track 11  not present in database
Track 12  not present in database
None of the tracks are present in the AccurateRip database
End of status report
---- CUETools DB Plugin V2.1.4
[CTDB TOCID: MQN5a2B_yPeGR5RY7Q2ZC0fSCs0-] found
Submit result: MQN5a2B_yPeGR5RY7Q2ZC0fSCs0- has been confirmed
Track | CTDB Status
  1   | (2/2) Accurately ripped
  2   | (2/2) Accurately ripped
  3   | (2/2) Accurately ripped
  4   | (2/2) Accurately ripped
  5   | (2/2) Accurately ripped
  6   | (2/2) Accurately ripped
  7   | (2/2) Accurately ripped
  8   | (2/2) Accurately ripped
  9   | (2/2) Accurately ripped
10   | (2/2) Accurately ripped
11   | (2/2) Accurately ripped
12   | (2/2) Accurately ripped

Индексная карта (non-compilant .cue)

REM GENRE Rock
REM DATE 1976
REM DISCID B909040C
REM COMMENT "ExactAudioCopy v1.0b3"
PERFORMER "Geordie"
TITLE "Save The World"
FILE "Geordie - Save The World.flac" WAVE
  TRACK 01 AUDIO
    TITLE "Mama's Gonna Take You Home"
    PERFORMER "Geordie"
    INDEX 01 00:00:00
  TRACK 02 AUDIO
    TITLE "She's A Teaser"
    PERFORMER "Geordie"
    INDEX 01 02:55:29
  TRACK 03 AUDIO
    TITLE "Gooddbye Love"
    PERFORMER "Geordie"
    INDEX 01 06:13:24
  TRACK 04 AUDIO
    TITLE "I Cried Today"
    PERFORMER "Geordie"
    INDEX 01 09:36:69
  TRACK 05 AUDIO
    TITLE "You Do This To Me"
    PERFORMER "Geordie"
    INDEX 01 13:15:49
  TRACK 06 AUDIO
    TITLE "Save The World"
    PERFORMER "Geordie"
    INDEX 01 16:26:19
  TRACK 07 AUDIO
    TITLE "Rocking Horse"
    PERFORMER "Geordie"
    INDEX 01 19:30:67
  TRACK 08 AUDIO
    TITLE "Fire Queen"
    PERFORMER "Geordie"
    INDEX 01 22:52:56
  TRACK 09 AUDIO
    TITLE "She's A Lady"
    PERFORMER "Geordie"
    INDEX 01 26:28:72
  TRACK 10 AUDIO
    TITLE "Light In My Window"
    PERFORMER "Geordie"
    INDEX 01 29:32:70
  TRACK 11 AUDIO
    TITLE "Ride On Baby"
    PERFORMER "Geordie"
    INDEX 01 32:32:34
  TRACK 12 AUDIO
    TITLE "We're All Right Now"
    PERFORMER "Geordie"
    INDEX 01 35:10:05
--Не забываем говорить
[Профиль] [ЛС]
Показать сообщения:    

Текущее время: Сегодня 10:24

Часовой пояс: GMT



Вы не можете начинать темы
Вы не можете отвечать на сообщения
Вы не можете редактировать свои сообщения
Вы не можете удалять свои сообщения
Вы не можете голосовать в опросах
Вы не можете прикреплять файлы к сообщениям
Вы не можете скачивать файлы