(Glam Rock,Hard Rock) Geordie - House Of The Rising Sun: The Best Of - 1995 [APE, tracks+.cue, lossless]

 
Автор Сообщение

sergej644 ®

Пол:

Стаж: 4 года 11 месяцев

Сообщений: 6043

Откуда: Soviet Union



Награды: Нет

Торрент-статистика

Создавать темы 19-Мар-2015 16:40

[Цитировать]

-Geordie / House Of The Rising Sun: The Best Of-- Год издания: 1995
Страна: UK
Жанр: Glam Rock,Hard Rock
Продолжительность: 01:14:03-Лейбл издания: M*S MegaStop Group
Тип альбома: Compilation
Страна-выпуска диска: Malaysia
Номер по каталогу: PVS 95068
Формат: APE
Битрейт аудио: lossless
Тип рипа: tracks+.cue
Наличие сканов в содержимом раздачи: да

Трэклист

01. House Of The Rising Sun (05:02)
02. Ain't It Just Like A Woman (04:00)
03. So What (04:16)
04. Hope You Like It (03:44)
05. Little Boy (04:46)
06. Got To Know (03:29)
07. Oh Lord (05:13)
08. Mercenary Man (06:20)
09. Ten Feet Tall (06:47)
10. Strange Man (03:35)
11. Goin' Down (03:39)
12. Natural Born Loser (04:18)
13. Look At Me (05:06)
14. Give You Till Monday (04:03)
15. Old Time Rocker (03:27)
16. Goodbye Love (03:26)
17. Light My Window (03:00)

Лог создания рипа

Exact Audio Copy V0.99 prebeta 5 from 4. May 2009
EAC extraction logfile from 13. April 2011, 9:51
Geordie / House Of The Rising Sun: The Best Of
Used drive  : Optiarc DVD RW AD-7200S   Adapter: 4  ID: 0
Read mode               : Secure
Utilize accurate stream : Yes
Defeat audio cache      : Yes
Make use of C2 pointers : No
Read offset correction                      : 48
Overread into Lead-In and Lead-Out          : No
Fill up missing offset samples with silence : Yes
Delete leading and trailing silent blocks   : No
Null samples used in CRC calculations       : Yes
Used interface                              : Installed external ASPI interface
Gap handling                                : Appended to previous track
Used output format : Internal WAV Routines
Sample format      : 44.100 Hz; 16 Bit; Stereo
TOC of the extracted CD
     Track |   Start  |  Length  | Start sector | End sector
    ---------------------------------------------------------
        1  |  0:00.00 |  5:01.38 |         0    |    22612
        2  |  5:01.38 |  4:00.00 |     22613    |    40612
        3  |  9:01.38 |  4:15.30 |     40613    |    59767
        4  | 13:16.68 |  3:43.50 |     59768    |    76542
        5  | 17:00.43 |  4:45.38 |     76543    |    97955
        6  | 21:46.06 |  3:28.25 |     97956    |   113580
        7  | 25:14.31 |  5:12.35 |    113581    |   137015
        8  | 30:26.66 |  6:19.60 |    137016    |   165500
        9  | 36:46.51 |  6:46.62 |    165501    |   196012
       10  | 43:33.38 |  3:34.05 |    196013    |   212067
       11  | 47:07.43 |  3:38.17 |    212068    |   228434
       12  | 50:45.60 |  4:17.50 |    228435    |   247759
       13  | 55:03.35 |  5:05.47 |    247760    |   270681
       14  | 60:09.07 |  4:02.05 |    270682    |   288836
       15  | 64:11.12 |  3:26.40 |    288837    |   304326
       16  | 67:37.52 |  3:25.42 |    304327    |   319743
       17  | 71:03.19 |  2:59.05 |    319744    |   333173
Track  1
     Filename C:\Users\Admin\Desktop\Geordie_The Best\01. Geordie – House Of The Rising Sun.wav
     Pre-gap length  0:00:02.00
     Peak level 82.0 %
     Track quality 99.9 %
     Test CRC F3E70E19
     Copy CRC F3E70E19
     Track not present in AccurateRip database
     Copy OK
Track  2
     Filename C:\Users\Admin\Desktop\Geordie_The Best\02. Geordie – Ain't It Just Like A Woman.wav
     Peak level 97.1 %
     Track quality 100.0 %
     Test CRC 078A2C57
     Copy CRC 078A2C57
     Track not present in AccurateRip database
     Copy OK
Track  3
     Filename C:\Users\Admin\Desktop\Geordie_The Best\03. Geordie – So What.wav
     Peak level 95.8 %
     Track quality 100.0 %
     Test CRC F98A6C12
     Copy CRC F98A6C12
     Track not present in AccurateRip database
     Copy OK
Track  4
     Filename C:\Users\Admin\Desktop\Geordie_The Best\04. Geordie – Hope You Like It.wav
     Peak level 82.2 %
     Track quality 100.0 %
     Test CRC A1A0F817
     Copy CRC A1A0F817
     Track not present in AccurateRip database
     Copy OK
Track  5
     Filename C:\Users\Admin\Desktop\Geordie_The Best\05. Geordie – Little Boy.wav
     Peak level 80.8 %
     Track quality 100.0 %
     Test CRC E3C1B3FB
     Copy CRC E3C1B3FB
     Track not present in AccurateRip database
     Copy OK
Track  6
     Filename C:\Users\Admin\Desktop\Geordie_The Best\06. Geordie – Got To Know.wav
     Peak level 86.4 %
     Track quality 100.0 %
     Test CRC A3681722
     Copy CRC A3681722
     Track not present in AccurateRip database
     Copy OK
Track  7
     Filename C:\Users\Admin\Desktop\Geordie_The Best\07. Geordie – Oh Lord.wav
     Peak level 74.3 %
     Track quality 99.9 %
     Test CRC 5443ACE2
     Copy CRC 5443ACE2
     Track not present in AccurateRip database
     Copy OK
Track  8
     Filename C:\Users\Admin\Desktop\Geordie_The Best\08. Geordie – Mercenary Man.wav
     Peak level 93.8 %
     Track quality 100.0 %
     Test CRC E7EFCF20
     Copy CRC E7EFCF20
     Track not present in AccurateRip database
     Copy OK
Track  9
     Filename C:\Users\Admin\Desktop\Geordie_The Best\09. Geordie – Ten Feet Tall.wav
     Peak level 70.4 %
     Track quality 100.0 %
     Test CRC 02AD39C7
     Copy CRC 02AD39C7
     Track not present in AccurateRip database
     Copy OK
Track 10
     Filename C:\Users\Admin\Desktop\Geordie_The Best\10. Geordie – Strange Man.wav
     Peak level 91.0 %
     Track quality 100.0 %
     Test CRC 549102CD
     Copy CRC 549102CD
     Track not present in AccurateRip database
     Copy OK
Track 11
     Filename C:\Users\Admin\Desktop\Geordie_The Best\11. Geordie – Goin' Down.wav
     Peak level 80.4 %
     Track quality 100.0 %
     Test CRC 2977BBD7
     Copy CRC 2977BBD7
     Track not present in AccurateRip database
     Copy OK
Track 12
     Filename C:\Users\Admin\Desktop\Geordie_The Best\12. Geordie – Natural Born Loser.wav
     Peak level 89.1 %
     Track quality 99.9 %
     Test CRC 26617026
     Copy CRC 26617026
     Track not present in AccurateRip database
     Copy OK
Track 13
     Filename C:\Users\Admin\Desktop\Geordie_The Best\13. Geordie – Look At Me.wav
     Peak level 91.7 %
     Track quality 100.0 %
     Test CRC 23E76490
     Copy CRC 23E76490
     Track not present in AccurateRip database
     Copy OK
Track 14
     Filename C:\Users\Admin\Desktop\Geordie_The Best\14. Geordie – Give You Till Monday.wav
     Peak level 72.1 %
     Track quality 99.9 %
     Test CRC 290BB50F
     Copy CRC 290BB50F
     Track not present in AccurateRip database
     Copy OK
Track 15
     Filename C:\Users\Admin\Desktop\Geordie_The Best\15. Geordie – Old Time Rocker.wav
     Peak level 86.4 %
     Track quality 99.9 %
     Test CRC 6E1BF5F5
     Copy CRC 6E1BF5F5
     Track not present in AccurateRip database
     Copy OK
Track 16
     Filename C:\Users\Admin\Desktop\Geordie_The Best\16. Geordie – Goodbye Love.wav
     Peak level 94.5 %
     Track quality 99.9 %
     Test CRC FA7E58F1
     Copy CRC FA7E58F1
     Track not present in AccurateRip database
     Copy OK
Track 17
     Filename C:\Users\Admin\Desktop\Geordie_The Best\17. Geordie – Light My Window.wav
     Peak level 98.4 %
     Track quality 100.0 %
     Test CRC 1792E235
     Copy CRC 1792E235
     Track not present in AccurateRip database
     Copy OK
None of the tracks are present in the AccurateRip database
No errors occurred
End of status report

Индексная карта (non-compilant .cue)

REM GENRE Rock
REM DATE 1995
REM DISCID E6115A11
REM COMMENT "ExactAudioCopy v0.99pb5"
PERFORMER "Geordie"
TITLE "House Of The Rising Sun: The Best Of"
FILE "01. Geordie – House Of The Rising Sun.wav" WAVE
  TRACK 01 AUDIO
    TITLE "House Of The Rising Sun"
    PERFORMER "Geordie"
    INDEX 01 00:00:00
FILE "02. Geordie – Ain't It Just Like A Woman.wav" WAVE
  TRACK 02 AUDIO
    TITLE "Ain't It Just Like A Woman"
    PERFORMER "Geordie"
    INDEX 01 00:00:00
FILE "03. Geordie – So What.wav" WAVE
  TRACK 03 AUDIO
    TITLE "So What"
    PERFORMER "Geordie"
    INDEX 01 00:00:00
FILE "04. Geordie – Hope You Like It.wav" WAVE
  TRACK 04 AUDIO
    TITLE "Hope You Like It"
    PERFORMER "Geordie"
    INDEX 01 00:00:00
FILE "05. Geordie – Little Boy.wav" WAVE
  TRACK 05 AUDIO
    TITLE "Little Boy"
    PERFORMER "Geordie"
    INDEX 01 00:00:00
FILE "06. Geordie – Got To Know.wav" WAVE
  TRACK 06 AUDIO
    TITLE "Got To Know"
    PERFORMER "Geordie"
    INDEX 01 00:00:00
FILE "07. Geordie – Oh Lord.wav" WAVE
  TRACK 07 AUDIO
    TITLE "Oh Lord"
    PERFORMER "Geordie"
    INDEX 01 00:00:00
FILE "08. Geordie – Mercenary Man.wav" WAVE
  TRACK 08 AUDIO
    TITLE "Mercenary Man"
    PERFORMER "Geordie"
    INDEX 01 00:00:00
FILE "09. Geordie – Ten Feet Tall.wav" WAVE
  TRACK 09 AUDIO
    TITLE "Ten Feet Tall"
    PERFORMER "Geordie"
    INDEX 01 00:00:00
FILE "10. Geordie – Strange Man.wav" WAVE
  TRACK 10 AUDIO
    TITLE "Strange Man"
    PERFORMER "Geordie"
    INDEX 01 00:00:00
FILE "11. Geordie – Goin' Down.wav" WAVE
  TRACK 11 AUDIO
    TITLE "Goin' Down"
    PERFORMER "Geordie"
    INDEX 01 00:00:00
FILE "12. Geordie – Natural Born Loser.wav" WAVE
  TRACK 12 AUDIO
    TITLE "Natural Born Loser"
    PERFORMER "Geordie"
    INDEX 01 00:00:00
FILE "13. Geordie – Look At Me.wav" WAVE
  TRACK 13 AUDIO
    TITLE "Look At Me"
    PERFORMER "Geordie"
    INDEX 01 00:00:00
FILE "14. Geordie – Give You Till Monday.wav" WAVE
  TRACK 14 AUDIO
    TITLE "Give You Till Monday"
    PERFORMER "Geordie"
    INDEX 01 00:00:00
FILE "15. Geordie – Old Time Rocker.wav" WAVE
  TRACK 15 AUDIO
    TITLE "Old Time Rocker"
    PERFORMER "Geordie"
    INDEX 01 00:00:00
FILE "16. Geordie – Goodbye Love.wav" WAVE
  TRACK 16 AUDIO
    TITLE "Goodbye Love"
    PERFORMER "Geordie"
    INDEX 01 00:00:00
FILE "17. Geordie – Light My Window.wav" WAVE
  TRACK 17 AUDIO
    TITLE "Light My Window"
    PERFORMER "Geordie"
    INDEX 01 00:00:00

Лог Audiochecker

AUDIOCHECKER v2.0 beta (build 457) - by Dester - opdester@freemail.hu
~~~~~~~~~~~~~~~~~~~~~~~~~~~~~~~~~~
Started at: четверг, 19. 03. 2015. - 17:42.27
17 files found
01 -===- D:\Torrent files\Geordie_The Best\01. Geordie – House Of The Rising Sun.ape
  Extracted successfully
  Conclusion: this track is CDDA with probability 100%
  Tempfile successfully deleted.
02 -===- D:\Torrent files\Geordie_The Best\02. Geordie – Ain't It Just Like A Woman.ape
  Extracted successfully
  Conclusion: this track is CDDA with probability 100%
  Tempfile successfully deleted.
03 -===- D:\Torrent files\Geordie_The Best\03. Geordie – So What.ape
  Extracted successfully
  Conclusion: this track is CDDA with probability 100%
  Tempfile successfully deleted.
04 -===- D:\Torrent files\Geordie_The Best\04. Geordie – Hope You Like It.ape
  Extracted successfully
  Conclusion: this track is CDDA with probability 100%
  Tempfile successfully deleted.
05 -===- D:\Torrent files\Geordie_The Best\05. Geordie – Little Boy.ape
  Extracted successfully
  Conclusion: this track is CDDA with probability 100%
  Tempfile successfully deleted.
06 -===- D:\Torrent files\Geordie_The Best\06. Geordie – Got To Know.ape
  Extracted successfully
  Conclusion: this track is CDDA with probability 100%
  Tempfile successfully deleted.
07 -===- D:\Torrent files\Geordie_The Best\07. Geordie – Oh Lord.ape
  Extracted successfully
  Conclusion: this track is CDDA with probability 100%
  Tempfile successfully deleted.
08 -===- D:\Torrent files\Geordie_The Best\08. Geordie – Mercenary Man.ape
  Extracted successfully
  Conclusion: this track is CDDA with probability 100%
  Tempfile successfully deleted.
09 -===- D:\Torrent files\Geordie_The Best\09. Geordie – Ten Feet Tall.ape
  Extracted successfully
  Conclusion: this track is CDDA with probability 100%
  Tempfile successfully deleted.
10 -===- D:\Torrent files\Geordie_The Best\10. Geordie – Strange Man.ape
  Extracted successfully
  Conclusion: this track is CDDA with probability 100%
  Tempfile successfully deleted.
11 -===- D:\Torrent files\Geordie_The Best\11. Geordie – Goin' Down.ape
  Extracted successfully
  Conclusion: this track is CDDA with probability 99%
  Tempfile successfully deleted.
12 -===- D:\Torrent files\Geordie_The Best\12. Geordie – Natural Born Loser.ape
  Extracted successfully
  Conclusion: this track is CDDA with probability 100%
  Tempfile successfully deleted.
13 -===- D:\Torrent files\Geordie_The Best\13. Geordie – Look At Me.ape
  Extracted successfully
  Conclusion: this track is CDDA with probability 100%
  Tempfile successfully deleted.
14 -===- D:\Torrent files\Geordie_The Best\14. Geordie – Give You Till Monday.ape
  Extracted successfully
  Conclusion: this track is CDDA with probability 100%
  Tempfile successfully deleted.
15 -===- D:\Torrent files\Geordie_The Best\15. Geordie – Old Time Rocker.ape
  Extracted successfully
  Conclusion: this track is CDDA with probability 100%
  Tempfile successfully deleted.
16 -===- D:\Torrent files\Geordie_The Best\16. Geordie – Goodbye Love.ape
  Extracted successfully
  Conclusion: this track is CDDA with probability 100%
  Tempfile successfully deleted.
17 -===- D:\Torrent files\Geordie_The Best\17. Geordie – Light My Window.ape
  Extracted successfully
  Conclusion: this track is CDDA with probability 100%
  Tempfile successfully deleted.
Finished at: четверг, 19. 03. 2015. - 17:47.40 (operation time: 0:05.12)

Скриншот спектра частот

Об исполнителе (группе)

Geordie — британская рок-группа, образовавшаяся в 1972 году в Ньюкасле, Англия, и исполнявшая хард-рок с элементами глэма и блюз-рока.
Начало карьеры: 1972 г., Ньюкасл-апон-Тайн, Великобритания
Участники: Брайан Беррелл, Пол Аллинсон, Джон Артс, Брайан Джонсон, Vic Malcolm, Том Хилл
Звукозаписывающие компании: EMI Records, Regal Zonophone Records, Bellaphon Records, MGM Records, Neat Records
--
[Профиль] [ЛС]
Показать сообщения:    

Текущее время: Сегодня 04:21

Часовой пояс: GMT



Вы не можете начинать темы
Вы не можете отвечать на сообщения
Вы не можете редактировать свои сообщения
Вы не можете удалять свои сообщения
Вы не можете голосовать в опросах
Вы не можете прикреплять файлы к сообщениям
Вы не можете скачивать файлы