Fun. • Zdf@Bauhaus [2012, Indie Pop, Indie Rock, HDTV 720p]

 
Автор Сообщение

reversefile ®

Пол:

Стаж: 4 года 5 месяцев

Сообщений: 842

Откуда: ReverseFile.org



Награды: Нет

Торрент-статистика

Создавать темы 11-Авг-2014 18:53

[Цитировать]

Fun.
Zdf@Bauhaus


Жанр: Indie Pop, Indie Rock
Продолжительность: 00:58:03
Год выпуска: 2012
Качество: HDTV 720p
Контейнер: TS
Видео кодек: H.264
Аудио кодек: AC3
Видео: MPEG4 Video (H264) 1280x720 50fps 11.0 Mbps
Аудио: Dolby AC3 48000Hz stereo 448kbps

Треклист

01.One Foot
02.Walking The Dog
03.Why Am I The One
04.Interview 1
05.Light A Roman Candle With Me
06.All Alone
07.Carry On
08.Interview 2
09.The Gambler
10.All The Pretty Girls
12.We Are Young
13.Interview 3
14.You Can't Always Get What You Want
15.Some Nights

Отчёт MediaInfo / BDInfo

GeneralID : 1 (0x1)Complete name : L:\FUN - Zdf@Bauhaus 2012.tsFormat : MPEG-TSFile size : 4.90 GiBDuration : 58mn 2sOverall bit rate mode : VariableOverall bit rate : 12.1 Mbps
VideoID : 6410 (0x190A)Menu ID : 1 (0x1)Format : AVCFormat/Info : Advanced Video CodecFormat profile : Main@L4.0Format settings, CABAC : YesFormat settings, ReFrames : 5 framesCodec ID : 27Duration : 58mn 2sBit rate : 11.0 MbpsWidth : 1 280 pixelsHeight : 720 pixelsDisplay aspect ratio : 16:9Frame rate : 50.000 fpsColor space : YUVChroma subsampling : 4:2:0Bit depth : 8 bitsScan type : ProgressiveBits/(Pixel*Frame) : 0.240Stream size : 4.47 GiB (91%)
AudioID : 6422 (0x1916)Menu ID : 1 (0x1)Format : AC-3Format/Info : Audio Coding 3Mode extension : CM (complete main)Format settings, Endianness : BigCodec ID : 6Duration : 58mn 2sBit rate mode : ConstantBit rate : 448 KbpsChannel(s) : 2 channelsChannel positions : Front: L RSampling rate : 48.0 KHzBit depth : 16 bitsCompression mode : LossyStream size : 186 MiB (4%)Language : German
[Профиль] [ЛС]
Кто просматривает тему:

Показать сообщения:    

Текущее время: Сегодня 14:28

Часовой пояс: GMT



Вы не можете начинать темы
Вы не можете отвечать на сообщения
Вы не можете редактировать свои сообщения
Вы не можете удалять свои сообщения
Вы не можете голосовать в опросах
Вы не можете прикреплять файлы к сообщениям
Вы не можете скачивать файлы