(Rock)Freddie Mercury - Messenger Of The Gods (2CD) - 2016 [FLAC, image +.cue, lossless]

 
Автор Сообщение

sergej644 ®

Пол:

Стаж: 4 года 11 месяцев

Сообщений: 6035

Откуда: Soviet Union



Награды: Нет

Торрент-статистика

Создавать темы 14-Сен-2016 15:50

[Цитировать]

-Freddie Mercury - Messenger Of The Gods (2CD)--
Год издания: 2016
Страна: UK
Жанр: Rock
Продолжительность: 01:37:37-Лейбл издания: Mercury
Страна-выпуска диска: EU
Номер по каталогу: 00602547879295-Формат: FLAC
Битрейт аудио: Lossless
Тип рипа: image +.cue
Наличие сканов в содержимом раздачи: да
-

CD 1 | 00:51:27


01.Freddie Mercury - Living On My Own(3:06)
02.Freddie Mercury - The Great Pretender(3:27)
03.Freddie Mercury - In My Defence(3:54)
04.Freddie Mercury - Love Kills(4:30)
05.Freddie Mercury & Montserrat Caballe - Barcelona(4:27)
06.Freddie Mercury - Made In Heaven(4:10)
07.Freddie Mercury - Time(4:02)
08.Freddie Mercury - Love Me Like There's No Tomorrow(3:47)
09.Freddie Mercury - I Was Born To Love You(3:39)
10.Freddie Mercury & Montserrat Caballe - The Golden Boy(5:16)
11.Larry Lurex - I Can Hear Music(3:25)
12.Freddie Mercury & Montserrat Caballe - How Can I Go On(4:02)
13.Freddie Mercury - Living On My Own (Radio Mix)(3:41)

Лог создания рипа

Exact Audio Copy V1.1 from 23. June 2015
EAC extraction logfile from 10. September 2016, 18:38
Freddie Mercury / Messenger Of The Gods (A-Sides)
Used drive  : Pioneer BDR-209DBK   Adapter: 0  ID: 0
Read mode               : Secure
Utilize accurate stream : Yes
Defeat audio cache      : Yes
Make use of C2 pointers : No
Read offset correction                      : 6
Overread into Lead-In and Lead-Out          : No
Fill up missing offset samples with silence : Yes
Delete leading and trailing silent blocks   : No
Null samples used in CRC calculations       : Yes
Used interface                              : Installed external ASPI interface
Used output format : Internal WAV Routines
Sample format      : 44.100 Hz; 16 Bit; Stereo
TOC of the extracted CD
     Track |   Start  |  Length  | Start sector | End sector
    ---------------------------------------------------------
        1  |  0:00.00 |  3:06.30 |         0    |    13979
        2  |  3:06.30 |  3:26.43 |     13980    |    29472
        3  |  6:32.73 |  3:54.31 |     29473    |    47053
        4  | 10:27.29 |  4:30.01 |     47054    |    67304
        5  | 14:57.30 |  4:26.44 |     67305    |    87298
        6  | 19:23.74 |  4:10.36 |     87299    |   106084
        7  | 23:34.35 |  4:01.59 |    106085    |   124218
        8  | 27:36.19 |  3:46.65 |    124219    |   141233
        9  | 31:23.09 |  3:39.28 |    141234    |   157686
       10  | 35:02.37 |  5:15.69 |    157687    |   181380
       11  | 40:18.31 |  3:25.16 |    181381    |   196771
       12  | 43:43.47 |  4:02.08 |    196772    |   214929
       13  | 47:45.55 |  3:41.36 |    214930    |   231540
Range status and errors
Selected range
     Filename H:\Spotnet muziek\Freddie Mercury - Messenger Of The Gods (EAC)\CD1\Freddie Mercury - Messenger Of The Gods (A-Sides).wav
     Peak level 99.9 %
     Extraction speed 7.3 X
     Range quality 100.0 %
     Test CRC 1F6655C5
     Copy CRC 1F6655C5
     Copy OK
No errors occurred
AccurateRip summary
Track  1  not present in database
Track  2  not present in database
Track  3  not present in database
Track  4  not present in database
Track  5  not present in database
Track  6  not present in database
Track  7  not present in database
Track  8  not present in database
Track  9  not present in database
Track 10  not present in database
Track 11  not present in database
Track 12  not present in database
Track 13  not present in database
None of the tracks are present in the AccurateRip database
End of status report

Индексная карта (non-compilant .cue)

REM GENRE Pop
REM DATE 2016
REM DISCID C60C0F0D
REM COMMENT ExactAudioCopy v1.1
PERFORMER "Freddie Mercury"
TITLE "Messenger Of The Gods (A-Sides)"
FILE "Freddie Mercury - Messenger Of The Gods (A-Sides).flac" WAVE
  TRACK 01 AUDIO
    TITLE "Living On My Own"
    PERFORMER "Freddie Mercury"
    INDEX 01 00:00:00
  TRACK 02 AUDIO
    TITLE "The Great Pretender"
    PERFORMER "Freddie Mercury"
    INDEX 01 03:06:30
  TRACK 03 AUDIO
    TITLE "In My Defence"
    PERFORMER "Freddie Mercury"
    INDEX 01 06:32:73
  TRACK 04 AUDIO
    TITLE "Love Kills"
    PERFORMER "Freddie Mercury"
    INDEX 01 10:27:29
  TRACK 05 AUDIO
    TITLE "Barcelona"
    PERFORMER "Freddie Mercury & Montserrat Caballe"
    INDEX 01 14:57:30
  TRACK 06 AUDIO
    TITLE "Made In Heaven"
    PERFORMER "Freddie Mercury"
    INDEX 01 19:23:74
  TRACK 07 AUDIO
    TITLE "Time"
    PERFORMER "Freddie Mercury"
    INDEX 01 23:34:35
  TRACK 08 AUDIO
    TITLE "Love Me Like There's No Tomorrow"
    PERFORMER "Freddie Mercury"
    INDEX 01 27:36:19
  TRACK 09 AUDIO
    TITLE "I Was Born To Love You"
    PERFORMER "Freddie Mercury"
    INDEX 01 31:23:09
  TRACK 10 AUDIO
    TITLE "The Golden Boy"
    PERFORMER "Freddie Mercury & Montserrat Caballe"
    INDEX 01 35:02:37
  TRACK 11 AUDIO
    TITLE "I Can Hear Music"
    PERFORMER "Larry Lurex"
    INDEX 01 40:18:31
  TRACK 12 AUDIO
    TITLE "How Can I Go On"
    PERFORMER "Freddie Mercury & Montserrat Caballe"
    INDEX 01 43:43:47
  TRACK 13 AUDIO
    TITLE "Living On My Own (Radio Mix)"
    PERFORMER "Freddie Mercury"
    INDEX 01 47:45:55

CD 2 | 00:46:10


01.Larry Lurex - Goin' Back(3:34)
02.Freddie Mercury - Let's Turn It On(3:43)
03.Freddie Mercury - My Love Is Dangerous(3:40)
04.Freddie Mercury - She Blows Hot And Cold(3:40)
05.Freddie Mercury - Living On My Own (Album Mix)(3:39)
06.Freddie Mercury - Stop All The Fighting(3:20)
07.Freddie Mercury - Time (Instrumental)(3:23)
08.Freddie Mercury - Exercises In Free Love(4:00)
09.Montserrat Caballe - Exercises In Free Love(4:05)
10.Freddie Mercury & Montserrat Caballe - The Fallen Priest(2:58)
11.Freddie Mercury & Montserrat Caballe - Overture Piccante(6:41)
12.Freddie Mercury - Love Kills (Wolf Euro Mix)(3:27)

Лог создания рипа

Exact Audio Copy V1.1 from 23. June 2015
EAC extraction logfile from 10. September 2016, 18:55
Freddie Mercury / Messenger Of The Gods (B-Sides)
Used drive  : Pioneer BDR-209DBK    Adapter: 0  ID: 0
Read mode               : Secure
Utilize accurate stream : Yes
Defeat audio cache      : Yes
Make use of C2 pointers : No
Read offset correction                      : 6
Overread into Lead-In and Lead-Out          : No
Fill up missing offset samples with silence : Yes
Delete leading and trailing silent blocks   : No
Null samples used in CRC calculations       : Yes
Used interface                              : Installed external ASPI interface
Used output format : Internal WAV Routines
Sample format      : 44.100 Hz; 16 Bit; Stereo
TOC of the extracted CD
     Track |   Start  |  Length  | Start sector | End sector
    ---------------------------------------------------------
        1  |  0:00.00 |  3:33.42 |         0    |    16016
        2  |  3:33.42 |  3:43.06 |     16017    |    32747
        3  |  7:16.48 |  3:40.27 |     32748    |    49274
        4  | 10:57.00 |  3:39.64 |     49275    |    65763
        5  | 14:36.64 |  3:38.68 |     65764    |    82181
        6  | 18:15.57 |  3:20.02 |     82182    |    97183
        7  | 21:35.59 |  3:22.72 |     97184    |   112405
        8  | 24:58.56 |  4:00.17 |    112406    |   130422
        9  | 28:58.73 |  4:04.62 |    130423    |   148784
       10  | 33:03.60 |  2:57.38 |    148785    |   162097
       11  | 36:01.23 |  6:40.72 |    162098    |   192169
       12  | 42:42.20 |  3:27.29 |    192170    |   207723
Range status and errors
Selected range
     Filename H:\Spotnet muziek\Freddie Mercury - Messenger Of The Gods (EAC)\CD2\Freddie Mercury - Messenger Of The Gods (B-Sides).wav
     Peak level 98.2 %
     Extraction speed 7.1 X
     Range quality 100.0 %
     Test CRC 98C67BD3
     Copy CRC 98C67BD3
     Copy OK
No errors occurred
AccurateRip summary
Track  1  not present in database
Track  2  not present in database
Track  3  not present in database
Track  4  not present in database
Track  5  not present in database
Track  6  not present in database
Track  7  not present in database
Track  8  not present in database
Track  9  not present in database
Track 10  not present in database
Track 11  not present in database
Track 12  not present in database
None of the tracks are present in the AccurateRip database
End of status report

Индексная карта (non-compilant .cue)

REM GENRE Pop
REM DATE 2016
REM DISCID AE0AD10C
REM COMMENT "ExactAudioCopy v1.1"
PERFORMER "Freddie Mercury"
TITLE "Messenger Of The Gods (B-Sides)"
FILE "Freddie Mercury - Messenger Of The Gods (B-Sides).flac" WAVE
  TRACK 01 AUDIO
    TITLE "Goin' Back"
    PERFORMER "Larry Lurex"
    INDEX 01 00:00:00
  TRACK 02 AUDIO
    TITLE "Let's Turn It On"
    PERFORMER "Freddie Mercury"
    INDEX 01 03:33:42
  TRACK 03 AUDIO
    TITLE "My Love Is Dangerous"
    PERFORMER "Freddie Mercury"
    INDEX 01 07:16:48
  TRACK 04 AUDIO
    TITLE "She Blows Hot And Cold"
    PERFORMER "Freddie Mercury"
    INDEX 01 10:57:00
  TRACK 05 AUDIO
    TITLE "Living On My Own (Album Mix)"
    PERFORMER "Freddie Mercury"
    INDEX 01 14:36:64
  TRACK 06 AUDIO
    TITLE "Stop All The Fighting"
    PERFORMER "Freddie Mercury"
    INDEX 01 18:15:57
  TRACK 07 AUDIO
    TITLE "Time (Instrumental)"
    PERFORMER "Freddie Mercury"
    INDEX 01 21:35:59
  TRACK 08 AUDIO
    TITLE "Exercises In Free Love"
    PERFORMER "Freddie Mercury"
    INDEX 01 24:58:56
  TRACK 09 AUDIO
    TITLE "Exercises In Free Love"
    PERFORMER "Montserrat Caballe"
    INDEX 01 28:58:73
  TRACK 10 AUDIO
    TITLE "The Fallen Priest"
    PERFORMER "Freddie Mercury & Montserrat Caballe"
    INDEX 01 33:03:60
  TRACK 11 AUDIO
    TITLE "Overture Piccante"
    PERFORMER "Freddie Mercury & Montserrat Caballe"
    INDEX 01 36:01:23
  TRACK 12 AUDIO
    TITLE "Love Kills (Wolf Euro Mix)"
    PERFORMER "Freddie Mercury"
    INDEX 01 42:42:20
--
[Профиль] [ЛС]
Кто просматривает тему:

Форум Тема Автор Размер
Rock (Rock)Freddie Mercury - Mr. Bad Guy (Alternative Extended Version) (2014) 2CD [MP3|320 кbps] sergej644 358 MB
Показать сообщения:    

Текущее время: Сегодня 02:46

Часовой пояс: GMT



Вы не можете начинать темы
Вы не можете отвечать на сообщения
Вы не можете редактировать свои сообщения
Вы не можете удалять свои сообщения
Вы не можете голосовать в опросах
Вы не можете прикреплять файлы к сообщениям
Вы не можете скачивать файлы