Frank Turner • Deichbrand Festival [2014, Folk-Rock, Punk, HDTV 720p]

 
Автор Сообщение

reversefile ®

Пол:

Стаж: 4 года 5 месяцев

Сообщений: 842

Откуда: ReverseFile.org



Награды: Нет

Торрент-статистика

Создавать темы 11-Авг-2014 18:53

[Цитировать]


Frank Turner


Жанр: Folk-Rock, Punk
Продолжительность: 01:02:33
Год выпуска: 2014
Качество: HDTV 720p
Контейнер: TS
Видео кодек: H.264
Аудио кодек: AC3
Видео: MPEG4 Video (H264) 1280x720 50fps 12.2 Mbps
Аудио: Dolby AC3 48000Hz stereo 448kbps

Треклист

01. Photosynthesis
02. Plain Sailing Weather
03. Peggy Sang the Blues
04. Try This at Home
05. The Road
06. Glory Hallelujah
07. Reasons Not to Be an Idiot
08. The Way I Tend to Be
09. Wessex Boy
10. If Ever I Stray
11. Polaroid Picture
12. Long Live the Queen
13. Recovery
14. I Still Believe
15. Four Simple Words

Отчёт MediaInfo / BDInfo

GeneralID : 1 (0x1)Complete name : L:\Frank Turner - Deichbrand Festival 2014.tsFormat : MPEG-TSFile size : 5.82 GiBDuration : 1h 2mnOverall bit rate mode : VariableOverall bit rate : 13.3 Mbps
VideoID : 5421 (0x152D)Menu ID : 1 (0x1)Format : AVCFormat/Info : Advanced Video CodecFormat profile : High@L4.0Format settings, CABAC : YesFormat settings, ReFrames : 4 framesCodec ID : 27Duration : 1h 2mnBit rate : 12.2 MbpsWidth : 1 280 pixelsHeight : 720 pixelsDisplay aspect ratio : 16:9Frame rate : 50.000 fpsColor space : YUVChroma subsampling : 4:2:0Bit depth : 8 bitsScan type : ProgressiveBits/(Pixel*Frame) : 0.265Stream size : 5.33 GiB (92%)
AudioID : 5426 (0x1532)Menu ID : 1 (0x1)Format : AC-3Format/Info : Audio Coding 3Mode extension : CM (complete main)Format settings, Endianness : BigCodec ID : 6Duration : 1h 2mnBit rate mode : ConstantBit rate : 448 KbpsChannel(s) : 2 channelsChannel positions : Front: L RSampling rate : 48.0 KHzBit depth : 16 bitsCompression mode : LossyStream size : 200 MiB (3%)Language : German
[Профиль] [ЛС]
Кто просматривает тему:

Показать сообщения:    

Текущее время: Сегодня 16:20

Часовой пояс: GMT



Вы не можете начинать темы
Вы не можете отвечать на сообщения
Вы не можете редактировать свои сообщения
Вы не можете удалять свои сообщения
Вы не можете голосовать в опросах
Вы не можете прикреплять файлы к сообщениям
Вы не можете скачивать файлы