Francesco Salvi - Megasalvi (1989) [APE|Lossless]<Italo-Disco>

 
Автор Сообщение

sergej644 ®

Пол:

Стаж: 4 года 11 месяцев

Сообщений: 6040

Откуда: Soviet Union



Награды: Нет

Торрент-статистика

Создавать темы 24-Дек-2014 22:23

[Цитировать]

-Francesco Salvi - Megasalvi (1989)- Год: 1989
Лейбл: Galaxis
Каталог #: GLX 9098
Жанр: Italo-Disco
Продолжительность: 00:34:44
Кодек: APE
Битрейт: Lossless
Тип битрейта: image +.cue
Треклист:
01. Esatto ! 3:44
02. C'e' Da Spostare Una Macchina 3:45
03. Il Lupo 4:33
04. Universal Love (Speaker's Corner) 4:31
05. Taxi 4:20
06. Son Contento 4:26
07. Maionese 4:09
08. Le Solite Promesse 5:14

Отчёт ЕАС&#58;

Exact Audio Copy V0.99 prebeta 4 from 23. January 2008
Отчёт EAC об извлечении, выполненном 25. июля 2009, 9:55
Francesco Salvi / Megasalvi
Дисковод: Optiarc DVD RW AD-5200A Adapter: 0 ID: 0
Режим чтения : Достоверность
Использование точного потока : Да
Отключение кэша аудио : Да
Использование указателей C2 : Нет
Коррекция смещения при чтении : 48
Способность читать области Lead-in и Lead-out : Нет
Заполнение пропущенных сэмплов тишиной : Да
Удаление блоков с тишиной в начале и конце : Нет
При вычислениях CRC использовались нулевые сэмплы : Да
Интерфейс : Установленный внешний ASPI-интерфейс
Выходной формат : Внутренние WAV-операции
Формат сэмплов : 44.100 Гц; 16 бит; стерео
TOC извлечённого CD
Трек | Старт | Длительность | Начальный сектор | Конечный сектор
---------------------------------------------------------------------
1 | 0:00.00 | 3:44.35 | 0 | 16834
2 | 3:44.35 | 3:45.13 | 16835 | 33722
3 | 7:29.48 | 4:33.12 | 33723 | 54209
4 | 12:02.60 | 4:31.18 | 54210 | 74552
5 | 16:34.03 | 4:20.57 | 74553 | 94109
6 | 20:54.60 | 4:26.48 | 94110 | 114107
7 | 25:21.33 | 4:09.15 | 114108 | 132797
8 | 29:30.48 | 5:14.57 | 132798 | 156404
Характеристики диапазона извлечения и сообщения об ошибках
Выбранный диапазон
Имя файла E:\YYY Small Spare Releases\Francesco Salvi - Megasalvi\Francesco Salvi - Megasalvi\Francesco Salvi - Megasalvi.wav
Пиковый уровень 100.0 %
Качество диапазона 99.9 %
CRC теста 46F1280D
CRC копии 46F1280D
Копирование... OK
Ошибок не произошло
AccurateRip: сводка
Трек 1 нет в базе данных
Трек 2 нет в базе данных
Трек 3 нет в базе данных
Трек 4 нет в базе данных
Трек 5 нет в базе данных
Трек 6 нет в базе данных
Трек 7 нет в базе данных
Трек 8 нет в базе данных
Ни одного трека нет в базе AccurateRip
Конец отчёта

Отчёт auCDtect Task manager&#58;

-----------------------
DON'T MODIFY THIS FILE
-----------------------
PERFORMER: auCDtect Task Manager, ver. 1.5.1RC4 build 1.5.1.5
Copyright (c) 2008-2010 y-soft. All rights reserved
http://y-soft.org
ANALYZER: auCDtect: CD records authenticity detector, version 0.8.2
Copyright (c) 2004 Oleg Berngardt. All rights reserved.
Copyright (c) 2004 Alexander Djourik. All rights reserved.
FILE: Francesco Salvi - Megasalvi.ape
  Size: 213718828 Hash: E303CE6DA6A1A851701D241D210E7F7F Accuracy: -m0
  Conclusion: CDDA 100%
  Signature: AF37CD588E0E3BAF33802E99CE624228DB69BC5D

Содержание индексной карты (.CUE&#41;&#58;

REM GENRE Eurodance
REM DATE 1989
REM DISCID 65082508
REM COMMENT "ExactAudioCopy v0.99pb4"
PERFORMER "Francesco Salvi"
TITLE "Megasalvi"
FILE "Francesco Salvi - Megasalvi.ape" WAVE
  TRACK 01 AUDIO
    TITLE "Esatto !"
    PERFORMER "Francesco Salvi"
    INDEX 01 00:00:00
  TRACK 02 AUDIO
    TITLE "C'e' Da Spostare Una Macchina"
    PERFORMER "Francesco Salvi"
    INDEX 00 03:44:33
    INDEX 01 03:44:35
  TRACK 03 AUDIO
    TITLE "Il Lupo"
    PERFORMER "Francesco Salvi"
    INDEX 00 07:29:43
    INDEX 01 07:29:48
  TRACK 04 AUDIO
    TITLE "Universal Love (Speaker's Corner)"
    PERFORMER "Francesco Salvi"
    INDEX 00 12:02:50
    INDEX 01 12:02:60
  TRACK 05 AUDIO
    TITLE "Taxi"
    PERFORMER "Francesco Salvi"
    INDEX 00 16:32:53
    INDEX 01 16:34:03
  TRACK 06 AUDIO
    TITLE "Son Contento"
    PERFORMER "Francesco Salvi"
    INDEX 00 20:54:20
    INDEX 01 20:54:60
  TRACK 07 AUDIO
    TITLE "Maionese"
    PERFORMER "Francesco Salvi"
    INDEX 00 25:21:30
    INDEX 01 25:21:33
  TRACK 08 AUDIO
    TITLE "Le Solite Promesse"
    PERFORMER "Francesco Salvi"
    INDEX 00 29:30:45
    INDEX 01 29:30:48
[Профиль] [ЛС]

Создавать темы 13-Авг-2015 10:44 (спустя 7 месяцев 20 дней)

Топик был перенесен из форума Зарубежная в форум Technopop, Eurodance, Disco
sergej644
 
Показать сообщения:    

Текущее время: Сегодня 08:49

Часовой пояс: GMT



Вы не можете начинать темы
Вы не можете отвечать на сообщения
Вы не можете редактировать свои сообщения
Вы не можете удалять свои сообщения
Вы не можете голосовать в опросах
Вы не можете прикреплять файлы к сообщениям
Вы не можете скачивать файлы