(Rock,Classic Rock) Foreigner - Can't Slow Down (2CD) - 2009, APE (image + .cue), lossless

 
Автор Сообщение

sergej644 ®

Пол:

Стаж: 4 года 11 месяцев

Сообщений: 6046

Откуда: Soviet Union



Награды: Нет

Торрент-статистика

Создавать темы 17-Июл-2014 15:31

[Цитировать]

-Foreigner - Can't Slow Down (2CD)
Страна: USA
Жанр: Rock,Classic Rock
Год выпуска: 2009
Формат: APE (image + .cue)
Битрейт аудио: lossless
Продолжительность: 02:15:10
-

CD 1 - The Album

продолжительность: 00:59:53 01. Can't Slow Down (03:28)
02. In Pieces (03:53)
03. When It Comes To Love (03:53)
04. Living In A Dream (03:42)
05. I Can't Give Up (04:31)
06. Ready (03:43)
07. Give Me A Sign (03:52)
08. I'll Be Home Tonight (04:14)
09. Too Late (03:45)
10. Lonely (03:28)
11. As Long As I Live (03:47)
12. Angel Tonight (03:31)
13. Fool For You Anyway (04:05)
14. At War With The World (Live Bonus Track) (05:50)
15. Headknocker (Live Bonus Track) (04:05)
-

CD 2 - Greatest Hits Live

продолжительность: 01:14:57 01. Head Games (05:53)
02. Cold As Ice (05:46)
03. Waiting For A Girl Like You (05:54)
04. That Was Yesterday (04:24)
05. Blue Morning (03:25)
06. Dirty White Boy (04:29)
07. Starrider (06:52)
08. Feels Like The First Time (05:38)
09. Urgent (07:55)
10. Juke Box Hero \ Whole Lotta Love (08:50)
11. I Want To Know What Love Is (06:49)
12. Hot Blooded (08:18)
Доп. информация:

лог создания рипа

CD 1

Exact Audio Copy V0.99 prebeta 5 from 4. May 2009
Отчёт EAC об извлечении, выполненном 18. июля 2010, 17:07
Foreigner / Can't Slow Down
Дисковод: Optiarc DVD RW AD-5170A   Adapter: 0  ID: 1
Режим чтения                 : Достоверность
Использование точного потока : Да
Отключение кэша аудио        : Да
Использование указателей C2  : Нет
Коррекция смещения при чтении                     : 48
Способность читать области Lead-in и Lead-out     : Нет
Заполнение пропущенных сэмплов тишиной            : Да
Удаление блоков с тишиной в начале и конце        : Нет
При вычислениях CRC использовались нулевые сэмплы : Да
Интерфейс                                         : Встроенный Win32-интерфейс для Win NT/2000
Выходной формат : Внутренние WAV-операции
Формат сэмплов  : 44.100 Гц; 16 бит; стерео
TOC извлечённого CD
     Трек |   Старт  | Длительность | Начальный сектор | Конечный сектор
    ---------------------------------------------------------------------
       1  |  0:00.00 |    3:28.04   |           0      |      15603
       2  |  3:28.04 |    3:53.40   |       15604      |      33118
       3  |  7:21.44 |    3:53.19   |       33119      |      50612
       4  | 11:14.63 |    3:42.42   |       50613      |      67304
       5  | 14:57.30 |    4:31.55   |       67305      |      87684
       6  | 19:29.10 |    3:43.17   |       87685      |     104426
       7  | 23:12.27 |    3:52.27   |      104427      |     121853
       8  | 27:04.54 |    4:14.04   |      121854      |     140907
       9  | 31:18.58 |    3:45.13   |      140908      |     157795
      10  | 35:03.71 |    3:28.41   |      157796      |     173436
      11  | 38:32.37 |    3:47.55   |      173437      |     190516
      12  | 42:20.17 |    3:31.73   |      190517      |     206414
      13  | 45:52.15 |    4:05.28   |      206415      |     224817
      14  | 49:57.43 |    5:50.49   |      224818      |     251116
      15  | 55:48.17 |    4:05.50   |      251117      |     269541
Характеристики диапазона извлечения и сообщения об ошибках
Выбранный диапазон
     Имя файла C:\Users\Papa.RU\Documents\Новая папка (2)\Foreigner - Can't Slow Down.wav
     Пиковый уровень 100.0 %
     Качество диапазона 100.0 %
     CRC копии DAB2AE84
     Копирование... OK
Ошибок не произошло
AccurateRip: сводка
Трек  1  точность не определена (достоверность 8)  [02B7D5A3], AccurateRip вернул [02F0A367]
Трек  2  точность не определена (достоверность 8)  [E2BED0BF], AccurateRip вернул [DEACA19D]
Трек  3  точность не определена (достоверность 7)  [5CA52879], AccurateRip вернул [AA11B27F]
Трек  4  точность не определена (достоверность 8)  [AFFDDCD1], AccurateRip вернул [6FF1A311]
Трек  5  точность не определена (достоверность 8)  [EB7259E5], AccurateRip вернул [85C556BB]
Трек  6  точность не определена (достоверность 8)  [FFA085C5], AccurateRip вернул [E8897169]
Трек  7  точность не определена (достоверность 8)  [79B75475], AccurateRip вернул [2C5E0169]
Трек  8  точность не определена (достоверность 8)  [E1FE6F6F], AccurateRip вернул [40C6FC99]
Трек  9  точность не определена (достоверность 8)  [28641175], AccurateRip вернул [7FA5FBB5]
Трек 10  точность не определена (достоверность 8)  [F54D74BA], AccurateRip вернул [365DA96E]
Трек 11  точность не определена (достоверность 8)  [BD48B4B0], AccurateRip вернул [4B4014BA]
Трек 12  точность не определена (достоверность 8)  [6FD5FD60], AccurateRip вернул [B8BB9F52]
Трек 13  точность не определена (достоверность 8)  [6A56E7FB], AccurateRip вернул [BF916001]
Трек 14  точность не определена (достоверность 8)  [8886BB3B], AccurateRip вернул [6838A5B5]
Трек 15  точность не определена (достоверность 8)  [7320387F], AccurateRip вернул [C7B03679]
Ни один трек не прошёл проверки на точность
В вашей базе может быть иной вариант штамповки диска
Конец отчёта

CD 2

Exact Audio Copy V0.99 prebeta 5 from 4. May 2009
Отчёт EAC об извлечении, выполненном 18. июля 2010, 17:36
Foreigner / Can't Slow Down: Greatest Hits Live
Дисковод: Optiarc DVD RW AD-5170A   Adapter: 0  ID: 1
Режим чтения                 : Достоверность
Использование точного потока : Да
Отключение кэша аудио        : Да
Использование указателей C2  : Нет
Коррекция смещения при чтении                     : 48
Способность читать области Lead-in и Lead-out     : Нет
Заполнение пропущенных сэмплов тишиной            : Да
Удаление блоков с тишиной в начале и конце        : Нет
При вычислениях CRC использовались нулевые сэмплы : Да
Интерфейс                                         : Встроенный Win32-интерфейс для Win NT/2000
Выходной формат : Внутренние WAV-операции
Формат сэмплов  : 44.100 Гц; 16 бит; стерео
TOC извлечённого CD
     Трек |   Старт  | Длительность | Начальный сектор | Конечный сектор
    ---------------------------------------------------------------------
       1  |  0:00.00 |    5:53.37   |           0      |      26511
       2  |  5:53.37 |    5:46.30   |       26512      |      52491
       3  | 11:39.67 |    5:54.25   |       52492      |      79066
       4  | 17:34.17 |    4:24.05   |       79067      |      98871
       5  | 21:58.22 |    3:25.40   |       98872      |     114286
       6  | 25:23.62 |    4:29.13   |      114287      |     134474
       7  | 29:53.00 |    6:52.60   |      134475      |     165434
       8  | 36:45.60 |    5:38.02   |      165435      |     190786
       9  | 42:23.62 |    7:55.15   |      190787      |     226426
      10  | 50:19.02 |    8:50.45   |      226427      |     266221
      11  | 59:09.47 |    6:49.28   |      266222      |     296924
      12  | 65:59.00 |    8:18.45   |      296925      |     334319
Характеристики диапазона извлечения и сообщения об ошибках
Выбранный диапазон
     Имя файла C:\Users\Papa.RU\Documents\Новая папка (2)\Foreigner - Can't Slow Down  Greatest Hits Live.wav
     Пиковый уровень 100.0 %
     Качество диапазона 99.9 %
     CRC копии BED0513B
     Копирование... OK
Ошибок не произошло
AccurateRip: сводка
Трек  1  точность не определена (достоверность 7)  [0AF16A34], AccurateRip вернул [30D5DBF0]
Трек  2  точность не определена (достоверность 7)  [3FABDC95], AccurateRip вернул [4DB89135]
Трек  3  точность не определена (достоверность 7)  [C90CC8F5], AccurateRip вернул [01E1BC6D]
Трек  4  точность не определена (достоверность 7)  [83907541], AccurateRip вернул [720A3470]
Трек  5  точность не определена (достоверность 7)  [85CDF6DF], AccurateRip вернул [013E5DFE]
Трек  6  точность не определена (достоверность 7)  [5FD53EAE], AccurateRip вернул [41C42E9D]
Трек  7  точность не определена (достоверность 7)  [6DC3B10B], AccurateRip вернул [EE4F77A7]
Трек  8  точность не определена (достоверность 7)  [07EA4DC4], AccurateRip вернул [32AAB663]
Трек  9  точность не определена (достоверность 7)  [A2839B74], AccurateRip вернул [0D4C863D]
Трек 10  точность не определена (достоверность 7)  [0B644E98], AccurateRip вернул [D124EBE8]
Трек 11  точность не определена (достоверность 7)  [E6CF6734], AccurateRip вернул [8CF46D25]
Трек 12  точность не определена (достоверность 7)  [C7E05C7F], AccurateRip вернул [CB3CAAAB]
Ни один трек не прошёл проверки на точность
В вашей базе может быть иной вариант штамповки диска
Конец отчёта

содержание индексной карты *cue

CD 1

REM GENRE Rock
REM DATE 2010
REM DISCID D10E090F
REM COMMENT "ExactAudioCopy v0.99pb5"
PERFORMER "Foreigner"
TITLE "Can't Slow Down"
FILE "Foreigner - Can't Slow Down.wav" WAVE
  TRACK 01 AUDIO
    TITLE "Can't Slow Down"
    PERFORMER "Foreigner"
    INDEX 01 00:00:00
  TRACK 02 AUDIO
    TITLE "In Pieces"
    PERFORMER "Foreigner"
    INDEX 00 03:27:03
    INDEX 01 03:28:04
  TRACK 03 AUDIO
    TITLE "When It Comes To Love"
    PERFORMER "Foreigner"
    INDEX 00 07:21:01
    INDEX 01 07:21:44
  TRACK 04 AUDIO
    TITLE "Living In A Dream"
    PERFORMER "Foreigner"
    INDEX 00 11:14:09
    INDEX 01 11:14:63
  TRACK 05 AUDIO
    TITLE "I Can't Give Up"
    PERFORMER "Foreigner"
    INDEX 00 14:56:06
    INDEX 01 14:57:30
  TRACK 06 AUDIO
    TITLE "Ready"
    PERFORMER "Foreigner"
    INDEX 00 19:28:15
    INDEX 01 19:29:10
  TRACK 07 AUDIO
    TITLE "Give Me A Sign"
    PERFORMER "Foreigner"
    INDEX 00 23:11:12
    INDEX 01 23:12:27
  TRACK 08 AUDIO
    TITLE "I'll Be Home Tonight"
    PERFORMER "Foreigner"
    INDEX 00 27:03:40
    INDEX 01 27:04:54
  TRACK 09 AUDIO
    TITLE "Too Late"
    PERFORMER "Foreigner"
    INDEX 00 31:18:03
    INDEX 01 31:18:58
  TRACK 10 AUDIO
    TITLE "Lonely"
    PERFORMER "Foreigner"
    INDEX 00 35:02:54
    INDEX 01 35:03:71
  TRACK 11 AUDIO
    TITLE "As Long As I Live"
    PERFORMER "Foreigner"
    INDEX 00 38:29:10
    INDEX 01 38:32:37
  TRACK 12 AUDIO
    TITLE "Angel Tonight"
    PERFORMER "Foreigner"
    INDEX 00 42:18:57
    INDEX 01 42:20:17
  TRACK 13 AUDIO
    TITLE "Fool For You Anyway"
    PERFORMER "Foreigner"
    INDEX 00 45:49:28
    INDEX 01 45:52:15
  TRACK 14 AUDIO
    TITLE "At War With The World (Live Bonus Track)"
    PERFORMER "Foreigner"
    INDEX 00 49:56:55
    INDEX 01 49:57:43
  TRACK 15 AUDIO
    TITLE "Headknocker (Live Bonus Track)"
    PERFORMER "Foreigner"
    INDEX 01 55:48:17

CD 2

REM GENRE Rock
REM DATE 2010
REM DISCID 8E11690C
REM COMMENT "ExactAudioCopy v0.99pb5"
PERFORMER "Foreigner"
TITLE "Can't Slow Down: Greatest Hits Live"
FILE "Foreigner - Can't Slow Down  Greatest Hits Live.wav" WAVE
  TRACK 01 AUDIO
    TITLE "Head Games"
    PERFORMER "Foreigner"
    INDEX 01 00:00:00
  TRACK 02 AUDIO
    TITLE "Cold As Ice"
    PERFORMER "Foreigner"
    INDEX 01 05:53:37
  TRACK 03 AUDIO
    TITLE "Waiting For A Girl Like You"
    PERFORMER "Foreigner"
    INDEX 01 11:39:67
  TRACK 04 AUDIO
    TITLE "That Was Yesterday"
    PERFORMER "Foreigner"
    INDEX 01 17:34:17
  TRACK 05 AUDIO
    TITLE "Blue Morning"
    PERFORMER "Foreigner"
    INDEX 01 21:58:22
  TRACK 06 AUDIO
    TITLE "Dirty White Boy"
    PERFORMER "Foreigner"
    INDEX 01 25:23:62
  TRACK 07 AUDIO
    TITLE "Starrider"
    PERFORMER "Foreigner"
    INDEX 01 29:53:00
  TRACK 08 AUDIO
    TITLE "Feels Like The First Time"
    PERFORMER "Foreigner"
    INDEX 01 36:45:60
  TRACK 09 AUDIO
    TITLE "Urgent"
    PERFORMER "Foreigner"
    INDEX 01 42:23:62
  TRACK 10 AUDIO
    TITLE "Juke Box Hero \ Whole Lotta Love"
    PERFORMER "Foreigner"
    INDEX 01 50:19:02
  TRACK 11 AUDIO
    TITLE "I Want To Know What Love Is"
    PERFORMER "Foreigner"
    INDEX 01 59:09:47
  TRACK 12 AUDIO
    TITLE "Hot Blooded"
    PERFORMER "Foreigner"
    INDEX 01 65:59:00
[Профиль] [ЛС]
Показать сообщения:    

Текущее время: Сегодня 07:15

Часовой пояс: GMT



Вы не можете начинать темы
Вы не можете отвечать на сообщения
Вы не можете редактировать свои сообщения
Вы не можете удалять свои сообщения
Вы не можете голосовать в опросах
Вы не можете прикреплять файлы к сообщениям
Вы не можете скачивать файлы