(Melodic Hard Rock) FM - Collections (20CD) - 1986 - 2015 [FLAC, image+.cue, lossless]

 
Автор Сообщение

sergej644 ®

Пол:

Стаж: 4 года 11 месяцев

Сообщений: 6046

Откуда: Soviet Union



Награды: Нет

Торрент-статистика

Создавать темы 03-Июн-2015 15:30

[Цитировать]

-FM / Collections (20CD)-- Год издания: 1986 - 2015
Страна: UK
Жанр: Melodic Hard Rock
Продолжительность: 19:14:30-Лейбл издания: Rock Candy, Graymark International, ALFA Records, AVALON
Страна-выпуска диска: UK, EU, Japan
Формат: FLAC
Битрейт аудио: lossless
Тип рипа: image+.cue
Наличие сканов в содержимом раздачи: да
--

Трэклист

1986 - Indiscreet (remastered 2012, 2CD)

Лейбл издания: Rock Candy
Страна-выпуска диска: EU
Номер по каталогу: Candy143

CD 1 | 01:03:33

01.That Girl (03:51)
02.Other Side Of Midnight (04:07)
03.Love Lies Dying (04:47)
04.I Belong To The Night (04:17)
05.American Girls (04:06)
06.Hot Wired (04:51)
07.Face To Face (04:36)
08.Frozen Heart (04:49)
09.Heart Of The Matter (04:28)
10.Other Side Of Midnight (BBC, bonus track) (04:06)
11.Face To Face (BBC, bonus track) (04:32)
12.That Girl (BBC, bonus track) (03:59)
13.Dangerous (BBC, bonus track) (06:00)
14.Frozen Heart (live 1985, bonus track) (05:12)

лог создания рипа

Exact Audio Copy V1.0 beta 3 from 29. August 2011
EAC extraction logfile from 15. September 2012, 0:56
FM / Indiscreet (CD1)
Used drive  : SlimtypeDVD A  DS8A5SH   Adapter: 0  ID: 1
Read mode               : Secure
Utilize accurate stream : Yes
Defeat audio cache      : Yes
Make use of C2 pointers : No
Read offset correction                      : 6
Overread into Lead-In and Lead-Out          : No
Fill up missing offset samples with silence : Yes
Delete leading and trailing silent blocks   : No
Null samples used in CRC calculations       : Yes
Used interface                              : Native Win32 interface for Win NT & 2000
Used output format              : User Defined Encoder
Selected bitrate                : 320 kBit/s
Quality                         : High
Add ID3 tag                     : No
Command line compressor         : C:\Program Files (x86)\Exact Audio Copy\Flac\flac.exe
Additional command line options : -V -8 -T "Date=%year%" -T "Genre=%genre%" %source%
TOC of the extracted CD
     Track |   Start  |  Length  | Start sector | End sector
    ---------------------------------------------------------
        1  |  0:00.00 |  3:50.53 |         0    |    17302
        2  |  3:50.53 |  4:06.21 |     17303    |    35773
        3  |  7:56.74 |  4:46.31 |     35774    |    57254
        4  | 12:43.30 |  4:16.60 |     57255    |    76514
        5  | 17:00.15 |  4:05.15 |     76515    |    94904
        6  | 21:05.30 |  4:50.24 |     94905    |   116678
        7  | 25:55.54 |  4:35.37 |    116679    |   137340
        8  | 30:31.16 |  4:48.14 |    137341    |   158954
        9  | 35:19.30 |  4:27.13 |    158955    |   178992
       10  | 39:46.43 |  4:05.30 |    178993    |   197397
       11  | 43:51.73 |  4:31.21 |    197398    |   217743
       12  | 48:23.19 |  3:58.14 |    217744    |   235607
       13  | 52:21.33 |  6:00.00 |    235608    |   262607
       14  | 58:21.33 |  5:11.04 |    262608    |   285936
Range status and errors
Selected range
     Filename D:\My Music\FM - 1986 Indiscreet (remastered 2012, 2CD)\CD1\FM - Indiscreet (CD1).wav
     Peak level 97.0 %
     Extraction speed 4.7 X
     Range quality 100.0 %
     Test CRC E0D01477
     Copy CRC E0D01477
     Copy OK
No errors occurred
AccurateRip summary
Track  1  not present in database
Track  2  not present in database
Track  3  not present in database
Track  4  not present in database
Track  5  not present in database
Track  6  not present in database
Track  7  not present in database
Track  8  not present in database
Track  9  not present in database
Track 10  not present in database
Track 11  not present in database
Track 12  not present in database
Track 13  not present in database
Track 14  not present in database
None of the tracks are present in the AccurateRip database
End of status report
---- CUETools DB Plugin V2.1.3
[CTDB TOCID: 0JmAcGbEuNTalJsb5ap2iL..jL8-] database access error: В документе XML (1, 2) присутствует ошибка.

содержание индексной карты *cue

REM GENRE AOR
REM DATE 1986
REM DISCID B30EE40E
REM COMMENT "ExactAudioCopy v1.0b3"
PERFORMER "FM"
TITLE "Indiscreet (CD1)"
FILE "FM - Indiscreet (CD1).flac" WAVE
  TRACK 01 AUDIO
    TITLE "That Girl"
    PERFORMER "FM"
    ISRC GBBBM8602080
    INDEX 01 00:00:00
  TRACK 02 AUDIO
    TITLE "Other Side Of Midnight"
    PERFORMER "FM"
    ISRC GBBBM8602081
    INDEX 00 03:50:30
    INDEX 01 03:50:53
  TRACK 03 AUDIO
    TITLE "Love Lies Dying"
    PERFORMER "FM"
    ISRC GBBBM8602082
    INDEX 00 07:55:59
    INDEX 01 07:56:74
  TRACK 04 AUDIO
    TITLE "I Belong To The Night"
    PERFORMER "FM"
    ISRC GBBBM8602087
    INDEX 00 12:41:68
    INDEX 01 12:43:30
  TRACK 05 AUDIO
    TITLE "American Girls"
    PERFORMER "FM"
    ISRC GBBBM8602084
    INDEX 00 16:58:55
    INDEX 01 17:00:15
  TRACK 06 AUDIO
    TITLE "Hot Wired"
    PERFORMER "FM"
    ISRC GBBBM8602085
    INDEX 00 21:04:18
    INDEX 01 21:05:30
  TRACK 07 AUDIO
    TITLE "Face To Face"
    PERFORMER "FM"
    ISRC GBBBM8602086
    INDEX 00 25:53:71
    INDEX 01 25:55:54
  TRACK 08 AUDIO
    TITLE "Frozen Heart"
    PERFORMER "FM"
    ISRC GBARL1200639
    INDEX 00 30:29:68
    INDEX 01 30:31:16
  TRACK 09 AUDIO
    TITLE "Heart Of The Matter"
    PERFORMER "FM"
    ISRC GBBBM8602088
    INDEX 00 35:17:74
    INDEX 01 35:19:30
  TRACK 10 AUDIO
    TITLE "Other Side Of Midnight (BBC, bonus track)"
    PERFORMER "FM"
    ISRC GBCAD1200402
    INDEX 00 39:43:73
    INDEX 01 39:46:43
  TRACK 11 AUDIO
    TITLE "Face To Face (BBC, bonus track)"
    PERFORMER "FM"
    ISRC GBCAD1200403
    INDEX 00 43:50:25
    INDEX 01 43:51:73
  TRACK 12 AUDIO
    TITLE "That Girl (BBC, bonus track)"
    PERFORMER "FM"
    ISRC GBCAD1200404
    INDEX 00 48:21:65
    INDEX 01 48:23:19
  TRACK 13 AUDIO
    TITLE "Dangerous (BBC, bonus track)"
    PERFORMER "FM"
    ISRC GBCAD1200405
    INDEX 00 52:19:73
    INDEX 01 52:21:33
  TRACK 14 AUDIO
    TITLE "Frozen Heart (live 1985, bonus track)"
    PERFORMER "FM"
    ISRC GBARL1200640
    INDEX 00 58:19:37
    INDEX 01 58:21:33

CD 2 | 01:06:12

01.Frozen Heart (extended) (05:09)
02.Captured (b-side 1986) (04:32)
03.American Girls (live) (04:07)
04.Say It Like It Is (live) (04:43)
05.American Girls (instrumental version) (04:07)
06.Let Love Be The Leader (single 1987) (03:45)
07.Let Love Be The Leader (extended remix) (05:55)
08.Let Love Be The Leader (live) (06:46)
09.Other Side Of Midnight (live) (04:49)
10.Face To Face (live) (05:42)
11.Bad Luck (extended version) (05:24)
12.Addicted To Love (live) (05:21)
13.Hot Legs (live) (05:58)

лог создания рипа

Exact Audio Copy V1.0 beta 3 from 29. August 2011
EAC extraction logfile from 15. September 2012, 2:03
FM / Indiscreet (CD2)
Used drive  : SlimtypeDVD A  DS8A5SH   Adapter: 0  ID: 1
Read mode               : Secure
Utilize accurate stream : Yes
Defeat audio cache      : Yes
Make use of C2 pointers : No
Read offset correction                      : 6
Overread into Lead-In and Lead-Out          : No
Fill up missing offset samples with silence : Yes
Delete leading and trailing silent blocks   : No
Null samples used in CRC calculations       : Yes
Used interface                              : Native Win32 interface for Win NT & 2000
Used output format              : User Defined Encoder
Selected bitrate                : 320 kBit/s
Quality                         : High
Add ID3 tag                     : No
Command line compressor         : C:\Program Files (x86)\Exact Audio Copy\Flac\flac.exe
Additional command line options : -V -8 -T "Date=%year%" -T "Genre=%genre%" %source%
TOC of the extracted CD
     Track |   Start  |  Length  | Start sector | End sector
    ---------------------------------------------------------
        1  |  0:00.00 |  5:08.14 |         0    |    23113
        2  |  5:08.14 |  4:31.73 |     23114    |    43511
        3  |  9:40.12 |  4:06.04 |     43512    |    61965
        4  | 13:46.16 |  4:42.62 |     61966    |    83177
        5  | 18:29.03 |  4:06.06 |     83178    |   101633
        6  | 22:35.09 |  3:44.21 |    101634    |   118454
        7  | 26:19.30 |  5:54.67 |    118455    |   145071
        8  | 32:14.22 |  6:45.24 |    145072    |   175470
        9  | 38:59.46 |  4:48.41 |    175471    |   197111
       10  | 43:48.12 |  5:41.34 |    197112    |   222720
       11  | 49:29.46 |  5:23.62 |    222721    |   247007
       12  | 54:53.33 |  5:20.36 |    247008    |   271043
       13  | 60:13.69 |  5:57.57 |    271044    |   297875
Range status and errors
Selected range
     Filename D:\My Music\FM - 1986 Indiscreet (remastered 2012, 2CD)\CD2\FM - Indiscreet (CD2).wav
     Peak level 97.0 %
     Extraction speed 1.9 X
     Range quality 99.9 %
     Test CRC 83D80978
     Copy CRC 83D80978
     Copy OK
No errors occurred
AccurateRip summary
Track  1  not present in database
Track  2  not present in database
Track  3  not present in database
Track  4  not present in database
Track  5  not present in database
Track  6  not present in database
Track  7  not present in database
Track  8  not present in database
Track  9  not present in database
Track 10  not present in database
Track 11  not present in database
Track 12  not present in database
Track 13  not present in database
None of the tracks are present in the AccurateRip database
End of status report
---- CUETools DB Plugin V2.1.3
[CTDB TOCID: _AxV8XeHaPmWdvIAt0Bz2clvT7M-] database access error: В документе XML (1, 2) присутствует ошибка.

содержание индексной карты *cue

REM GENRE AOR
REM DATE 1986
REM DISCID A70F830D
REM COMMENT "ExactAudioCopy v1.0b3"
PERFORMER "FM"
TITLE "Indiscreet (CD2)"
FILE "FM - Indiscreet (CD2).flac" WAVE
  TRACK 01 AUDIO
    TITLE "Frozen Heart (extended)"
    PERFORMER "FM"
    ISRC GBBBM8602083
    INDEX 01 00:00:00
  TRACK 02 AUDIO
    TITLE "Captured (b-side 1986)"
    PERFORMER "FM"
    ISRC GBBBM8602095
    INDEX 00 05:06:06
    INDEX 01 05:08:14
  TRACK 03 AUDIO
    TITLE "American Girls (live)"
    PERFORMER "FM"
    ISRC GBBBM8602094
    INDEX 00 09:36:63
    INDEX 01 09:40:12
  TRACK 04 AUDIO
    TITLE "Say It Like It Is (live)"
    PERFORMER "FM"
    ISRC GBARL1100500
    INDEX 00 13:44:36
    INDEX 01 13:46:16
  TRACK 05 AUDIO
    TITLE "American Girls (instrumental version)"
    PERFORMER "FM"
    ISRC GBBBM8602092
    INDEX 00 18:25:69
    INDEX 01 18:29:03
  TRACK 06 AUDIO
    TITLE "Let Love Be The Leader (single 1987)"
    PERFORMER "FM"
    ISRC GBBBM8702080
    INDEX 00 22:33:07
    INDEX 01 22:35:09
  TRACK 07 AUDIO
    TITLE "Let Love Be The Leader (extended remix)"
    PERFORMER "FM"
    ISRC GBARL1100502
    INDEX 00 26:18:41
    INDEX 01 26:19:30
  TRACK 08 AUDIO
    TITLE "Let Love Be The Leader (live)"
    PERFORMER "FM"
    ISRC GBBBM8702081
    INDEX 00 32:11:15
    INDEX 01 32:14:22
  TRACK 09 AUDIO
    TITLE "Other Side Of Midnight (live)"
    PERFORMER "FM"
    ISRC GBBBM8902049
    INDEX 00 38:57:27
    INDEX 01 38:59:46
  TRACK 10 AUDIO
    TITLE "Face To Face (live)"
    PERFORMER "FM"
    ISRC GBBBM8902053
    INDEX 00 43:45:44
    INDEX 01 43:48:12
  TRACK 11 AUDIO
    TITLE "Bad Luck (extended version)"
    PERFORMER "FM"
    ISRC GBBBM8902047
    INDEX 00 49:26:72
    INDEX 01 49:29:46
  TRACK 12 AUDIO
    TITLE "Addicted To Love (live)"
    PERFORMER "FM"
    ISRC GBARL1200033
    INDEX 00 54:52:56
    INDEX 01 54:53:33
  TRACK 13 AUDIO
    TITLE "Hot Legs (live)"
    PERFORMER "FM"
    ISRC GBARL1200034
    INDEX 00 60:11:10
    INDEX 01 60:13:69

1989 - Tough It Out (remastered 2012) | 01:10:08

Лейбл издания: Rock Candy
Страна-выпуска диска: EU
Номер по каталогу: Candy144


01.Tough It Out (05:38)
02.Don't Stop (03:56)
03.Bad Luck (04:11)
04.Someday (You'll Come Running) (03:58)
05.Everytime I Think Of You (04:40)
06.Burning My Heart Down (04:04)
07.The Dream That Died (04:39)
08.Obsession (04:12)
09.Can You Hear Me Calling (03:42)
10.Does It Feel Like Love (04:25)
11.Feels So Good (04:17)
12.Hurt Is Where The Heart Is (b-side 1989, bonus track) (04:00)
13.This Could Be The Last Time (b-side 1989, bonus track) (03:45)
14.Someday (You'll Come Running) (extended version, bonus track) (05:29)
15.Alibi (b-side 1989, bonus track) (04:28)
16.Everytime We Touch (b-side 1989, bonus track) (04:53)

лог создания рипа

Exact Audio Copy V1.0 beta 3 from 29. August 2011
EAC extraction logfile from 15. September 2012, 9:36
FM / Tough It Out
Used drive  : SlimtypeDVD A  DS8A5SH   Adapter: 0  ID: 1
Read mode               : Secure
Utilize accurate stream : Yes
Defeat audio cache      : Yes
Make use of C2 pointers : No
Read offset correction                      : 6
Overread into Lead-In and Lead-Out          : No
Fill up missing offset samples with silence : Yes
Delete leading and trailing silent blocks   : No
Null samples used in CRC calculations       : Yes
Used interface                              : Native Win32 interface for Win NT & 2000
Used output format              : User Defined Encoder
Selected bitrate                : 320 kBit/s
Quality                         : High
Add ID3 tag                     : No
Command line compressor         : C:\Program Files (x86)\Exact Audio Copy\Flac\flac.exe
Additional command line options : -V -8 -T "Date=%year%" -T "Genre=%genre%" %source%
TOC of the extracted CD
     Track |   Start  |  Length  | Start sector | End sector
    ---------------------------------------------------------
        1  |  0:00.00 |  5:37.33 |         0    |    25307
        2  |  5:37.33 |  3:55.56 |     25308    |    42988
        3  |  9:33.14 |  4:10.06 |     42989    |    61744
        4  | 13:43.20 |  3:57.50 |     61745    |    79569
        5  | 17:40.70 |  4:39.07 |     79570    |   100501
        6  | 22:20.02 |  4:03.22 |    100502    |   118748
        7  | 26:23.24 |  4:38.31 |    118749    |   139629
        8  | 31:01.55 |  4:11.20 |    139630    |   158474
        9  | 35:13.00 |  3:41.25 |    158475    |   175074
       10  | 38:54.25 |  4:24.05 |    175075    |   194879
       11  | 43:18.30 |  4:16.17 |    194880    |   214096
       12  | 47:34.47 |  3:59.32 |    214097    |   232053
       13  | 51:34.04 |  3:44.36 |    232054    |   248889
       14  | 55:18.40 |  5:28.73 |    248890    |   273562
       15  | 60:47.38 |  4:27.51 |    273563    |   293638
       16  | 65:15.14 |  4:52.08 |    293639    |   315546
Range status and errors
Selected range
     Filename D:\My Music\FM - 1989 Tough It Out (remastered 2012)\FM - Tough It Out.wav
     Peak level 96.5 %
     Extraction speed 4.8 X
     Range quality 100.0 %
     Test CRC D97C585A
     Copy CRC D97C585A
     Copy OK
No errors occurred
AccurateRip summary
Track  1  not present in database
Track  2  not present in database
Track  3  not present in database
Track  4  not present in database
Track  5  not present in database
Track  6  not present in database
Track  7  not present in database
Track  8  not present in database
Track  9  not present in database
Track 10  not present in database
Track 11  not present in database
Track 12  not present in database
Track 13  not present in database
Track 14  not present in database
Track 15  not present in database
Track 16  not present in database
None of the tracks are present in the AccurateRip database
End of status report

содержание индексной карты *cue

REM GENRE AOR
REM DATE 1989
REM DISCID E1106F10
REM COMMENT "ExactAudioCopy v1.0b3"
PERFORMER "FM"
TITLE "Tough It Out"
FILE "FM - Tough It Out.flac" WAVE
  TRACK 01 AUDIO
    TITLE "Tough It Out"
    PERFORMER "FM"
    ISRC GBBBM8902013
    INDEX 01 00:00:00
  TRACK 02 AUDIO
    TITLE "Don't Stop"
    PERFORMER "FM"
    ISRC GBBBM8902014
    INDEX 00 05:35:59
    INDEX 01 05:37:33
  TRACK 03 AUDIO
    TITLE "Bad Luck"
    PERFORMER "FM"
    ISRC GBBBM8902015
    INDEX 00 09:30:51
    INDEX 01 09:33:14
  TRACK 04 AUDIO
    TITLE "Someday (You'll Come Running)"
    PERFORMER "FM"
    ISRC GBBBM8902016
    INDEX 00 13:40:74
    INDEX 01 13:43:20
  TRACK 05 AUDIO
    TITLE "Everytime I Think Of You"
    PERFORMER "FM"
    ISRC GBBBM8902017
    INDEX 01 17:40:70
  TRACK 06 AUDIO
    TITLE "Burning My Heart Down"
    PERFORMER "FM"
    ISRC GBBBM8902018
    INDEX 00 22:18:30
    INDEX 01 22:20:02
  TRACK 07 AUDIO
    TITLE "The Dream That Died"
    PERFORMER "FM"
    ISRC GBBBM8902019
    INDEX 00 26:21:08
    INDEX 01 26:23:24
  TRACK 08 AUDIO
    TITLE "Obsession"
    PERFORMER "FM"
    ISRC GBBBM8902020
    INDEX 00 30:59:58
    INDEX 01 31:01:55
  TRACK 09 AUDIO
    TITLE "Can You Hear Me Calling"
    PERFORMER "FM"
    ISRC GBBBM8902021
    INDEX 00 35:10:03
    INDEX 01 35:13:00
  TRACK 10 AUDIO
    TITLE "Does It Feel Like Love"
    PERFORMER "FM"
    ISRC GBBBM8902022
    INDEX 00 38:51:63
    INDEX 01 38:54:25
  TRACK 11 AUDIO
    TITLE "Feels So Good"
    PERFORMER "FM"
    ISRC GBBBM8902023
    INDEX 00 43:16:01
    INDEX 01 43:18:30
  TRACK 12 AUDIO
    TITLE "Hurt Is Where The Heart Is (b-side 1989, bonus track)"
    PERFORMER "FM"
    ISRC GBBBM8902046
    INDEX 00 47:32:09
    INDEX 01 47:34:47
  TRACK 13 AUDIO
    TITLE "This Could Be The Last Time (b-side 1989, bonus track)"
    PERFORMER "FM"
    ISRC GBBBM8902044
    INDEX 00 51:31:68
    INDEX 01 51:34:04
  TRACK 14 AUDIO
    TITLE "Someday (You'll Come Running) (extended version, bonus track)"
    PERFORMER "FM"
    ISRC GBBBM8902051
    INDEX 00 55:17:14
    INDEX 01 55:18:40
  TRACK 15 AUDIO
    TITLE "Alibi (b-side 1989, bonus track)"
    PERFORMER "FM"
    ISRC GBBBM8902050
    INDEX 00 60:45:54
    INDEX 01 60:47:38
  TRACK 16 AUDIO
    TITLE "Everytime We Touch (b-side 1989, bonus track)"
    PERFORMER "FM"
    ISRC GBBBM8902052
    INDEX 00 65:12:50
    INDEX 01 65:15:14

1991 - Talkin' It To The Streets | 00:57:14

Лейбл издания: Graymark International
Страна-выпуска диска: Japan
Номер по каталогу: ALCB-9624


01.I'm Ready (04:00)
02.I Heard It Through The Grapevine (04:30)
03.Only The Strong Survive (05:28)
04.Just Can't Leave Her Alone (04:06)
05.She's No Angel (04:46)
06.Dangerous Ground (04:33)
07.Bad Blood (03:54)
08.Crack Alley (04:54)
09.If If Feels Good (Do It) (04:32)
10.The Girl's Gone Bad (04:42)
11.The Thrill Of It All (04:05)
12.Hot Love (03:50)
13.Fuel To The Fire (04:00)

лог создания рипа

Exact Audio Copy V1.0 beta 3 from 29. August 2011
EAC extraction logfile from 10. February 2013, 16:26
FM / Talkin' It To The Streets
Used drive  : SlimtypeDVD A  DS8A5SH   Adapter: 0  ID: 1
Read mode               : Secure
Utilize accurate stream : Yes
Defeat audio cache      : Yes
Make use of C2 pointers : No
Read offset correction                      : 6
Overread into Lead-In and Lead-Out          : No
Fill up missing offset samples with silence : Yes
Delete leading and trailing silent blocks   : No
Null samples used in CRC calculations       : Yes
Used interface                              : Native Win32 interface for Win NT & 2000
Used output format              : User Defined Encoder
Selected bitrate                : 320 kBit/s
Quality                         : High
Add ID3 tag                     : No
Command line compressor         : C:\Program Files (x86)\Exact Audio Copy\Flac\flac.exe
Additional command line options : -V -8 -T "Date=%year%" -T "Genre=%genre%" %source%
TOC of the extracted CD
     Track |   Start  |  Length  | Start sector | End sector
    ---------------------------------------------------------
        1  |  0:00.00 |  3:59.37 |         0    |    17961
        2  |  3:59.37 |  4:29.10 |     17962    |    38146
        3  |  8:28.47 |  5:27.05 |     38147    |    62676
        4  | 13:55.52 |  4:05.03 |     62677    |    81054
        5  | 18:00.55 |  4:45.27 |     81055    |   102456
        6  | 22:46.07 |  4:33.00 |    102457    |   122931
        7  | 27:19.07 |  3:53.35 |    122932    |   140441
        8  | 31:12.42 |  4:53.53 |    140442    |   162469
        9  | 36:06.20 |  4:31.30 |    162470    |   182824
       10  | 40:37.50 |  4:41.50 |    182825    |   203949
       11  | 45:19.25 |  4:04.27 |    203950    |   222276
       12  | 49:23.52 |  3:49.48 |    222277    |   239499
       13  | 53:13.25 |  3:59.57 |    239500    |   257481
Range status and errors
Selected range
     Filename D:\My Music\Fm - 1991 Talkin' It To The Streets\FM - Talkin' It To The Streets.wav
     Peak level 98.7 %
     Extraction speed 1.8 X
     Range quality 100.0 %
     Test CRC F8BF6427
     Copy CRC F8BF6427
     Copy OK
No errors occurred
AccurateRip summary
Track  1  not present in database
Track  2  not present in database
Track  3  not present in database
Track  4  not present in database
Track  5  not present in database
Track  6  not present in database
Track  7  not present in database
Track  8  not present in database
Track  9  not present in database
Track 10  not present in database
Track 11  not present in database
Track 12  not present in database
Track 13  not present in database
None of the tracks are present in the AccurateRip database
End of status report

содержание индексной карты *cue

REM GENRE "Hard Rock"
REM DATE 1991
REM DISCID B50D690D
REM COMMENT "ExactAudioCopy v1.0b3"
PERFORMER "FM"
TITLE "Talkin' It To The Streets"
FILE "FM - Talkin' It To The Streets.flac" WAVE
  TRACK 01 AUDIO
    TITLE "I'm Ready"
    PERFORMER "FM"
    INDEX 01 00:00:00
  TRACK 02 AUDIO
    TITLE "I Heard It Through The Grapevine"
    PERFORMER "FM"
    INDEX 00 03:58:37
    INDEX 01 03:59:37
  TRACK 03 AUDIO
    TITLE "Only The Strong Survive"
    PERFORMER "FM"
    INDEX 00 08:27:47
    INDEX 01 08:28:47
  TRACK 04 AUDIO
    TITLE "Just Can't Leave Her Alone"
    PERFORMER "FM"
    INDEX 01 13:55:52
  TRACK 05 AUDIO
    TITLE "She's No Angel"
    PERFORMER "FM"
    INDEX 01 18:00:55
  TRACK 06 AUDIO
    TITLE "Dangerous Ground"
    PERFORMER "FM"
    INDEX 00 22:44:57
    INDEX 01 22:46:07
  TRACK 07 AUDIO
    TITLE "Bad Blood"
    PERFORMER "FM"
    INDEX 01 27:19:07
  TRACK 08 AUDIO
    TITLE "Crack Alley"
    PERFORMER "FM"
    INDEX 01 31:12:42
  TRACK 09 AUDIO
    TITLE "If If Feels Good (Do It)"
    PERFORMER "FM"
    INDEX 01 36:06:20
  TRACK 10 AUDIO
    TITLE "The Girl's Gone Bad"
    PERFORMER "FM"
    INDEX 00 40:36:27
    INDEX 01 40:37:50
  TRACK 11 AUDIO
    TITLE "The Thrill Of It All"
    PERFORMER "FM"
    INDEX 00 45:17:67
    INDEX 01 45:19:25
  TRACK 12 AUDIO
    TITLE "Hot Love"
    PERFORMER "FM"
    INDEX 01 49:23:52
  TRACK 13 AUDIO
    TITLE "Fuel To The Fire"
    PERFORMER "FM"
    INDEX 00 53:11:47
    INDEX 01 53:13:25

1992 - Aphrodisiac | 01:10:25

Лейбл издания: ALFA Records
Страна-выпуска диска: Japan
Номер по каталогу: ALCB-719


01.Breathe Fire (05:03)
02.Blood And Gasoline (05:05)
03.All Or Nothing (04:08)
04.Closer To Heaven (06:29)
05.Ain't Too Proud (04:56)
06.Take The Money (04:23)
07.Aphrodisia (01:56)
08.Inside Out (04:26)
09.Run No More (05:12)
10.Play Dirty (05:05)
11.Rivers Run Dry (05:13)
12.Hard Day In Hell (06:49)
13.Chinese Whispers (bonus track) (04:19)
14.Some Kind Of Wonderful (live, bonus track) (03:34)
15.I'll Be Creepin' (live, bonus track) (03:53)

лог создания рипа

Exact Audio Copy V1.0 beta 3 from 29. August 2011
EAC extraction logfile from 15. September 2012, 11:04
FM / Aphrodisiac
Used drive  : SlimtypeDVD A  DS8A5SH   Adapter: 0  ID: 1
Read mode               : Secure
Utilize accurate stream : Yes
Defeat audio cache      : Yes
Make use of C2 pointers : No
Read offset correction                      : 6
Overread into Lead-In and Lead-Out          : No
Fill up missing offset samples with silence : Yes
Delete leading and trailing silent blocks   : No
Null samples used in CRC calculations       : Yes
Used interface                              : Native Win32 interface for Win NT & 2000
Used output format              : User Defined Encoder
Selected bitrate                : 320 kBit/s
Quality                         : High
Add ID3 tag                     : No
Command line compressor         : C:\Program Files (x86)\Exact Audio Copy\Flac\flac.exe
Additional command line options : -V -8 -T "Date=%year%" -T "Genre=%genre%" %source%
TOC of the extracted CD
     Track |   Start  |  Length  | Start sector | End sector
    ---------------------------------------------------------
        1  |  0:00.00 |  5:02.10 |         0    |    22659
        2  |  5:02.10 |  5:04.65 |     22660    |    45524
        3  | 10:07.00 |  4:07.72 |     45525    |    64121
        4  | 14:14.72 |  6:28.05 |     64122    |    93226
        5  | 20:43.02 |  4:55.45 |     93227    |   115396
        6  | 25:38.47 |  4:22.53 |    115397    |   135099
        7  | 30:01.25 |  1:55.22 |    135100    |   143746
        8  | 31:56.47 |  4:25.60 |    143747    |   163681
        9  | 36:22.32 |  5:11.55 |    163682    |   187061
       10  | 41:34.12 |  5:04.63 |    187062    |   209924
       11  | 46:39.00 |  5:12.37 |    209925    |   233361
       12  | 51:51.37 |  6:48.48 |    233362    |   264009
       13  | 58:40.10 |  4:18.57 |    264010    |   283416
       14  | 62:58.67 |  3:33.58 |    283417    |   299449
       15  | 66:32.50 |  3:52.20 |    299450    |   316869
Range status and errors
Selected range
     Filename D:\My Music\FM - 1992 Aphrodisiac (Japanese edition)\FM - Aphrodisiac.wav
     Peak level 98.3 %
     Extraction speed 2.1 X
     Range quality 100.0 %
     Test CRC E0EF0E50
     Copy CRC E0EF0E50
     Copy OK
No errors occurred
AccurateRip summary
Track  1  accurately ripped (confidence 1)  [D1C4505D]  (AR v1)
Track  2  accurately ripped (confidence 1)  [2D0712CA]  (AR v1)
Track  3  accurately ripped (confidence 1)  [BD82751F]  (AR v1)
Track  4  accurately ripped (confidence 1)  [DDCC9F5B]  (AR v1)
Track  5  accurately ripped (confidence 1)  [58D2627A]  (AR v1)
Track  6  accurately ripped (confidence 1)  [30BE1545]  (AR v1)
Track  7  accurately ripped (confidence 1)  [41DBF353]  (AR v1)
Track  8  accurately ripped (confidence 1)  [93614195]  (AR v1)
Track  9  accurately ripped (confidence 1)  [8EEBA92F]  (AR v1)
Track 10  accurately ripped (confidence 1)  [F2764173]  (AR v1)
Track 11  accurately ripped (confidence 1)  [DD2D8310]  (AR v1)
Track 12  accurately ripped (confidence 1)  [76F59F6D]  (AR v1)
Track 13  accurately ripped (confidence 1)  [582AB64E]  (AR v1)
Track 14  accurately ripped (confidence 1)  [03D7D9DC]  (AR v1)
Track 15  accurately ripped (confidence 1)  [C986DD75]  (AR v1)
All tracks accurately ripped
End of status report

содержание индексной карты *cue

REM GENRE "Melodic Hard Rock"
REM DATE 1992
REM DISCID CE10800F
REM COMMENT "ExactAudioCopy v1.0b3"
PERFORMER "FM"
TITLE "Aphrodisiac"
FILE "FM - Aphrodisiac.flac" WAVE
  TRACK 01 AUDIO
    TITLE "Breathe Fire"
    PERFORMER "FM"
    INDEX 01 00:00:00
  TRACK 02 AUDIO
    TITLE "Blood And Gasoline"
    PERFORMER "FM"
    INDEX 01 05:02:10
  TRACK 03 AUDIO
    TITLE "All Or Nothing"
    PERFORMER "FM"
    INDEX 01 10:07:00
  TRACK 04 AUDIO
    TITLE "Closer To Heaven"
    PERFORMER "FM"
    INDEX 01 14:14:72
  TRACK 05 AUDIO
    TITLE "Ain't Too Proud"
    PERFORMER "FM"
    INDEX 01 20:43:02
  TRACK 06 AUDIO
    TITLE "Take The Money"
    PERFORMER "FM"
    INDEX 01 25:38:47
  TRACK 07 AUDIO
    TITLE "Aphrodisia"
    PERFORMER "FM"
    INDEX 01 30:01:25
  TRACK 08 AUDIO
    TITLE "Inside Out"
    PERFORMER "FM"
    INDEX 01 31:56:47
  TRACK 09 AUDIO
    TITLE "Run No More"
    PERFORMER "FM"
    INDEX 01 36:22:32
  TRACK 10 AUDIO
    TITLE "Play Dirty"
    PERFORMER "FM"
    INDEX 01 41:34:12
  TRACK 11 AUDIO
    TITLE "Rivers Run Dry"
    PERFORMER "FM"
    INDEX 01 46:39:00
  TRACK 12 AUDIO
    TITLE "Hard Day In Hell"
    PERFORMER "FM"
    INDEX 01 51:51:37
  TRACK 13 AUDIO
    TITLE "Chinese Whispers (bonus track)"
    PERFORMER "FM"
    INDEX 01 58:40:10
  TRACK 14 AUDIO
    TITLE "Some Kind Of Wonderful (live, bonus track)"
    PERFORMER "FM"
    INDEX 01 62:58:67
  TRACK 15 AUDIO
    TITLE "I'll Be Creepin' (live, bonus track)"
    PERFORMER "FM"
    INDEX 00 66:31:50
    INDEX 01 66:32:50

1993 - Closer To Heaven | 00:57:11

Лейбл издания: ALFA Records
Страна-выпуска диска: Japan
Номер по каталогу: ALCB-9639


01.Closer To Heaven (Single Version) (04:56)
02.Burning My Heart Down ('93 Version) (04:50)
03.Don't Stop ('93 Version) (04:02)
04.Heard It Through The Grapevine (Live) (04:20)
05.Frozen Heart ('93 Version) (04:08)
06.All Or Nothing (12' Mix) (05:47)
07.Littlle Bit Of Love (02:43)
08.Primitive Touch (04:20)
09.Flesh And Blood (05:05)
10.Need Your Love So Bad (Acoustic Version) (04:20)
11.Rocky Mountain Way (Acoustic Version) (05:13)
12.Only The Strong Survive (Acoustic Version) (03:05)
13.Closer To Heaven (Acoustic Version) (04:29)

лог создания рипа

Exact Audio Copy V1.0 beta 3 from 29. August 2011
EAC extraction logfile from 10. May 2012, 21:29
FM / Closer To Heaven
Used drive  : SlimtypeDVD A  DS8A5SH   Adapter: 0  ID: 1
Read mode               : Secure
Utilize accurate stream : Yes
Defeat audio cache      : Yes
Make use of C2 pointers : No
Read offset correction                      : 6
Overread into Lead-In and Lead-Out          : No
Fill up missing offset samples with silence : Yes
Delete leading and trailing silent blocks   : No
Null samples used in CRC calculations       : Yes
Used interface                              : Native Win32 interface for Win NT & 2000
Used output format              : User Defined Encoder
Selected bitrate                : 320 kBit/s
Quality                         : High
Add ID3 tag                     : No
Command line compressor         : C:\Program Files (x86)\Exact Audio Copy\Flac\flac.exe
Additional command line options : -V -8 -T "Date=%year%" -T "Genre=%genre%" %source%
TOC of the extracted CD
     Track |   Start  |  Length  | Start sector | End sector
    ---------------------------------------------------------
        1  |  0:00.00 |  4:55.15 |         0    |    22139
        2  |  4:55.15 |  4:49.10 |     22140    |    43824
        3  |  9:44.25 |  4:01.55 |     43825    |    61954
        4  | 13:46.05 |  4:19.07 |     61955    |    81386
        5  | 18:05.12 |  4:07.28 |     81387    |    99939
        6  | 22:12.40 |  5:46.55 |     99940    |   125944
        7  | 27:59.20 |  2:42.17 |    125945    |   138111
        8  | 30:41.37 |  4:19.38 |    138112    |   157574
        9  | 35:01.00 |  5:04.70 |    157575    |   180444
       10  | 40:05.70 |  4:19.62 |    180445    |   199931
       11  | 44:25.57 |  5:12.18 |    199932    |   223349
       12  | 49:38.00 |  3:04.12 |    223350    |   237161
       13  | 52:42.12 |  4:28.10 |    237162    |   257271
Range status and errors
Selected range
     Filename D:\My Music\FM - 1993 Closer To Heaven\FM - Closer To Heaven.wav
     Peak level 100.0 %
     Extraction speed 4.5 X
     Range quality 100.0 %
     Test CRC 549F842D
     Copy CRC 549F842D
     Copy OK
No errors occurred
AccurateRip summary
Track  1  not present in database
Track  2  not present in database
Track  3  not present in database
Track  4  not present in database
Track  5  not present in database
Track  6  not present in database
Track  7  not present in database
Track  8  not present in database
Track  9  not present in database
Track 10  not present in database
Track 11  not present in database
Track 12  not present in database
Track 13  not present in database
None of the tracks are present in the AccurateRip database
End of status report

содержание индексной карты *cue

REM GENRE "Hard Rock"
REM DATE 1993
REM DISCID BD0D660D
REM COMMENT "ExactAudioCopy v1.0b3"
PERFORMER "FM"
TITLE "Closer To Heaven"
FILE "FM - Closer To Heaven.flac" WAVE
  TRACK 01 AUDIO
    TITLE "Closer To Heaven (Single Version)"
    PERFORMER "FM"
    INDEX 01 00:00:00
  TRACK 02 AUDIO
    TITLE "Burning My Heart Down ('93 Version)"
    PERFORMER "FM"
    INDEX 01 04:55:15
  TRACK 03 AUDIO
    TITLE "Don't Stop ('93 Version)"
    PERFORMER "FM"
    INDEX 01 09:44:25
  TRACK 04 AUDIO
    TITLE "Heard It Through The Grapevine (Live)"
    PERFORMER "FM"
    INDEX 01 13:46:05
  TRACK 05 AUDIO
    TITLE "Frozen Heart ('93 Version)"
    PERFORMER "FM"
    INDEX 00 18:03:52
    INDEX 01 18:05:12
  TRACK 06 AUDIO
    TITLE "All Or Nothing (12' Mix)"
    PERFORMER "FM"
    INDEX 01 22:12:40
  TRACK 07 AUDIO
    TITLE "Littlle Bit Of Love"
    PERFORMER "FM"
    INDEX 01 27:59:20
  TRACK 08 AUDIO
    TITLE "Primitive Touch"
    PERFORMER "FM"
    INDEX 01 30:41:37
  TRACK 09 AUDIO
    TITLE "Flesh And Blood"
    PERFORMER "FM"
    INDEX 01 35:01:00
  TRACK 10 AUDIO
    TITLE "Need Your Love So Bad (Acoustic Version)"
    PERFORMER "FM"
    INDEX 00 40:03:60
    INDEX 01 40:05:70
  TRACK 11 AUDIO
    TITLE "Rocky Mountain Way (Acoustic Version)"
    PERFORMER "FM"
    INDEX 01 44:25:57
  TRACK 12 AUDIO
    TITLE "Only The Strong Survive (Acoustic Version)"
    PERFORMER "FM"
    INDEX 01 49:38:00
  TRACK 13 AUDIO
    TITLE "Closer To Heaven (Acoustic Version)"
    PERFORMER "FM"
    INDEX 00 52:41:10
    INDEX 01 52:42:12

1993 - Live Acoustical Intercourse | 01:02:50

Лейбл издания: ALFA Records
Страна-выпуска диска: Japan
Номер по каталогу: ALCB 748


01.Seagull (03:01)
02.Need Your Love So Bad (04:40)
03.Rocky Mountain Way-Black Velvet (05:18)
04.Burning My Heart Down-Don't Stop-Get Back (05:58)
05.Blood And Gasoline (05:01)
06.Superstition (04:12)
07.Heard It Through The Grapevine-Stone Fox Chase (03:28)
08.Some Kinda' Wonderful (03:17)
09.Midnight Hour-Dancin' In The Street (03:33)
10.Face To Face-Enter Sandman-American Girls-Other Side Of Midnight (06:49)
11.Closer To Heaven (04:54)
12.Only The Strong Survive (03:24)
13.Little Bit Of Love (03:01)
14.Rockin' Me (03:36)
15.Tush (02:47)

лог создания рипа

Exact Audio Copy V1.0 beta 3 from 29. August 2011
EAC extraction logfile from 10. February 2013, 13:42
FM / Live Acoustical Intercourse
Used drive  : SlimtypeDVD A  DS8A5SH   Adapter: 0  ID: 1
Read mode               : Secure
Utilize accurate stream : Yes
Defeat audio cache      : Yes
Make use of C2 pointers : No
Read offset correction                      : 6
Overread into Lead-In and Lead-Out          : No
Fill up missing offset samples with silence : Yes
Delete leading and trailing silent blocks   : No
Null samples used in CRC calculations       : Yes
Used interface                              : Native Win32 interface for Win NT & 2000
Used output format              : User Defined Encoder
Selected bitrate                : 320 kBit/s
Quality                         : High
Add ID3 tag                     : No
Command line compressor         : C:\Program Files (x86)\Exact Audio Copy\Flac\flac.exe
Additional command line options : -V -8 -T "Date=%year%" -T "Genre=%genre%" %source%
TOC of the extracted CD
     Track |   Start  |  Length  | Start sector | End sector
    ---------------------------------------------------------
        1  |  0:00.00 |  3:01.00 |         0    |    13574
        2  |  3:01.00 |  4:39.20 |     13575    |    34519
        3  |  7:40.20 |  5:17.20 |     34520    |    58314
        4  | 12:57.40 |  5:57.40 |     58315    |    85129
        5  | 18:55.05 |  5:00.17 |     85130    |   107646
        6  | 23:55.22 |  4:11.15 |    107647    |   126486
        7  | 28:06.37 |  3:27.65 |    126487    |   142076
        8  | 31:34.27 |  3:16.18 |    142077    |   156794
        9  | 34:50.45 |  3:32.70 |    156795    |   172764
       10  | 38:23.40 |  6:48.17 |    172765    |   203381
       11  | 45:11.57 |  4:53.15 |    203382    |   225371
       12  | 50:04.72 |  3:23.10 |    225372    |   240606
       13  | 53:28.07 |  3:00.05 |    240607    |   254111
       14  | 56:28.12 |  3:35.10 |    254112    |   270246
       15  | 60:03.22 |  2:46.03 |    270247    |   282699
Range status and errors
Selected range
     Filename D:\My Music\FM - 1993 Live Acoustical Intercourse\FM - Live Acoustical Intercourse.wav
     Peak level 100.0 %
     Extraction speed 4.9 X
     Range quality 100.0 %
     Test CRC AA24D411
     Copy CRC AA24D411
     Copy OK
No errors occurred
AccurateRip summary
Track  1  accurately ripped (confidence 2)  [50F80E47]  (AR v1)
Track  2  accurately ripped (confidence 2)  [DF9EF891]  (AR v1)
Track  3  accurately ripped (confidence 2)  [7984FD30]  (AR v1)
Track  4  accurately ripped (confidence 2)  [928216E2]  (AR v1)
Track  5  accurately ripped (confidence 2)  [C8BAF2FE]  (AR v1)
Track  6  accurately ripped (confidence 2)  [DE627742]  (AR v1)
Track  7  accurately ripped (confidence 2)  [BFAFBE4E]  (AR v1)
Track  8  accurately ripped (confidence 2)  [3275BABC]  (AR v1)
Track  9  accurately ripped (confidence 2)  [52DCA950]  (AR v1)
Track 10  accurately ripped (confidence 2)  [BDB1AC37]  (AR v1)
Track 11  accurately ripped (confidence 2)  [3EC0DE19]  (AR v1)
Track 12  accurately ripped (confidence 2)  [8010E232]  (AR v1)
Track 13  accurately ripped (confidence 2)  [C9CA6DC9]  (AR v1)
Track 14  accurately ripped (confidence 2)  [972CB70F]  (AR v1)
Track 15  accurately ripped (confidence 2)  [8E130EA0]  (AR v1)
All tracks accurately ripped
End of status report

содержание индексной карты *cue

REM GENRE "Hard Rock"
REM DATE 1993
REM DISCID CB0EB90F
REM COMMENT "ExactAudioCopy v1.0b3"
PERFORMER "FM"
TITLE "Live Acoustical Intercourse"
FILE "FM - Live Acoustical Intercourse.flac" WAVE
  TRACK 01 AUDIO
    TITLE "Seagull"
    PERFORMER "FM"
    INDEX 01 00:00:00
  TRACK 02 AUDIO
    TITLE "Need Your Love So Bad"
    PERFORMER "FM"
    INDEX 01 03:01:00
  TRACK 03 AUDIO
    TITLE "Rocky Mountain Way-Black Velvet"
    PERFORMER "FM"
    INDEX 01 07:40:20
  TRACK 04 AUDIO
    TITLE "Burning My Heart Down-Don't Stop-Get Back"
    PERFORMER "FM"
    INDEX 01 12:57:40
    INDEX 02 15:32:57
    INDEX 03 16:53:42
  TRACK 05 AUDIO
    TITLE "Blood And Gasoline"
    PERFORMER "FM"
    INDEX 01 18:55:05
  TRACK 06 AUDIO
    TITLE "Superstition"
    PERFORMER "FM"
    INDEX 01 23:55:22
  TRACK 07 AUDIO
    TITLE "Heard It Through The Grapevine-Stone Fox Chase"
    PERFORMER "FM"
    INDEX 01 28:06:37
  TRACK 08 AUDIO
    TITLE "Some Kinda' Wonderful"
    PERFORMER "FM"
    INDEX 01 31:34:27
  TRACK 09 AUDIO
    TITLE "Midnight Hour-Dancin' In The Street"
    PERFORMER "FM"
    INDEX 01 34:50:45
    INDEX 02 36:56:47
  TRACK 10 AUDIO
    TITLE "Face To Face-Enter Sandman-American Girls-Other Side Of Midnight"
    PERFORMER "FM"
    INDEX 01 38:23:40
    INDEX 02 39:35:47
    INDEX 03 40:00:00
    INDEX 04 41:08:22
  TRACK 11 AUDIO
    TITLE "Closer To Heaven"
    PERFORMER "FM"
    INDEX 01 45:11:57
  TRACK 12 AUDIO
    TITLE "Only The Strong Survive"
    PERFORMER "FM"
    INDEX 01 50:04:72
  TRACK 13 AUDIO
    TITLE "Little Bit Of Love"
    PERFORMER "FM"
    INDEX 01 53:28:07
  TRACK 14 AUDIO
    TITLE "Rockin' Me"
    PERFORMER "FM"
    INDEX 01 56:28:12
  TRACK 15 AUDIO
    TITLE "Tush"
    PERFORMER "FM"
    INDEX 01 60:03:22

1995 - Dead Man's Shoes | 00:49:23

Лейбл издания: ALFA Records
Страна-выпуска диска: Japan
Номер по каталогу: ALCB-3087


01.Nobody's Fool (05:33)
02.Ain't No Cure For Love (04:17)
03.Get Ready (03:58)
04.Don't Say (04:29)
05.Mona (04:55)
06.Sister (04:40)
07.You're The One (05:33)
08.Tattoo Needle (05:11)
09.Misery (05:53)
10.Dead Man's Shoes (04:59)

лог создания рипа

Exact Audio Copy V1.0 beta 3 from 29. August 2011
EAC extraction logfile from 12. April 2013, 0:40
FM / Dead Man's Shoes
Used drive  : SlimtypeDVD A  DS8A5SH   Adapter: 0  ID: 1
Read mode               : Secure
Utilize accurate stream : Yes
Defeat audio cache      : Yes
Make use of C2 pointers : No
Read offset correction                      : 6
Overread into Lead-In and Lead-Out          : No
Fill up missing offset samples with silence : Yes
Delete leading and trailing silent blocks   : No
Null samples used in CRC calculations       : Yes
Used interface                              : Native Win32 interface for Win NT & 2000
Used output format              : User Defined Encoder
Selected bitrate                : 320 kBit/s
Quality                         : High
Add ID3 tag                     : No
Command line compressor         : C:\Program Files (x86)\Exact Audio Copy\Flac\flac.exe
Additional command line options : -V -8 -T "Date=%year%" -T "Genre=%genre%" %source%
TOC of the extracted CD
     Track |   Start  |  Length  | Start sector | End sector
    ---------------------------------------------------------
        1  |  0:00.00 |  5:32.25 |         0    |    24924
        2  |  5:32.25 |  4:16.17 |     24925    |    44141
        3  |  9:48.42 |  3:57.23 |     44142    |    61939
        4  | 13:45.65 |  4:28.35 |     61940    |    82074
        5  | 18:14.25 |  4:54.60 |     82075    |   104184
        6  | 23:09.10 |  4:39.07 |    104185    |   125116
        7  | 27:48.17 |  5:32.38 |    125117    |   150054
        8  | 33:20.55 |  5:10.57 |    150055    |   173361
        9  | 38:31.37 |  5:52.40 |    173362    |   199801
       10  | 44:24.02 |  4:58.15 |    199802    |   222166
Range status and errors
Selected range
     Filename D:\My Music\FM - 1995 Dead Man's Shoes\FM - Dead Man's Shoes.wav
     Peak level 100.0 %
     Extraction speed 1.8 X
     Range quality 100.0 %
     Test CRC 5A816814
     Copy CRC 5A816814
     Copy OK
No errors occurred
AccurateRip summary
Track  1  not present in database
Track  2  not present in database
Track  3  not present in database
Track  4  not present in database
Track  5  not present in database
Track  6  not present in database
Track  7  not present in database
Track  8  not present in database
Track  9  not present in database
Track 10  not present in database
None of the tracks are present in the AccurateRip database
End of status report

содержание индексной карты *cue

REM GENRE "Hard Rock"
REM DATE 1995
REM DISCID 780B920A
REM COMMENT "ExactAudioCopy v1.0b3"
PERFORMER "FM"
TITLE "Dead Man's Shoes"
FILE "FM - Dead Man's Shoes.flac" WAVE
  TRACK 01 AUDIO
    TITLE "Nobody's Fool"
    PERFORMER "FM"
    INDEX 01 00:00:00
  TRACK 02 AUDIO
    TITLE "Ain't No Cure For Love"
    PERFORMER "FM"
    INDEX 01 05:32:25
  TRACK 03 AUDIO
    TITLE "Get Ready"
    PERFORMER "FM"
    INDEX 01 09:48:42
  TRACK 04 AUDIO
    TITLE "Don't Say"
    PERFORMER "FM"
    INDEX 01 13:45:65
  TRACK 05 AUDIO
    TITLE "Mona"
    PERFORMER "FM"
    INDEX 01 18:14:25
  TRACK 06 AUDIO
    TITLE "Sister"
    PERFORMER "FM"
    INDEX 01 23:09:10
  TRACK 07 AUDIO
    TITLE "You're The One"
    PERFORMER "FM"
    INDEX 01 27:48:17
  TRACK 08 AUDIO
    TITLE "Tattoo Needle"
    PERFORMER "FM"
    INDEX 01 33:20:55
  TRACK 09 AUDIO
    TITLE "Misery"
    PERFORMER "FM"
    INDEX 01 38:31:37
  TRACK 10 AUDIO
    TITLE "Dead Man's Shoes"
    PERFORMER "FM"
    INDEX 01 44:24:02

1996 - Paraphernalia (2CD)

Лейбл издания: ALFA Records
Страна-выпуска диска: Japan
Номер по каталогу: ALCB-3140-41

CD 1 | 00:52:25

01.Caught In The Innocence (05:09)
02.I Don't Wanna (Play These Games) (04:02)
03.After Hours (04:45)
04.I'll Be There (05:26)
05.Locomotive Love (03:46)
06.That's The Way (04:50)
07.Promised Land (05:47)
08.Tempted (05:04)
09.Heavy Heart (04:24)
10.Three Seconds (05:02)
11.Finish What We Started (04:14)

лог создания рипа

Exact Audio Copy V1.0 beta 3 from 29. August 2011
EAC extraction logfile from 26. February 2013, 21:56
FM / Paraphernalia CD1
Used drive  : SlimtypeDVD A  DS8A5SH   Adapter: 0  ID: 1
Read mode               : Secure
Utilize accurate stream : Yes
Defeat audio cache      : Yes
Make use of C2 pointers : No
Read offset correction                      : 6
Overread into Lead-In and Lead-Out          : No
Fill up missing offset samples with silence : Yes
Delete leading and trailing silent blocks   : No
Null samples used in CRC calculations       : Yes
Used interface                              : Native Win32 interface for Win NT & 2000
Used output format              : User Defined Encoder
Selected bitrate                : 320 kBit/s
Quality                         : High
Add ID3 tag                     : No
Command line compressor         : C:\Program Files (x86)\Exact Audio Copy\Flac\flac.exe
Additional command line options : -V -8 -T "Date=%year%" -T "Genre=%genre%" %source%
TOC of the extracted CD
     Track |   Start  |  Length  | Start sector | End sector
    ---------------------------------------------------------
        1  |  0:00.00 |  5:08.17 |         0    |    23116
        2  |  5:08.17 |  4:01.10 |     23117    |    41201
        3  |  9:09.27 |  4:44.68 |     41202    |    62569
        4  | 13:54.20 |  5:25.65 |     62570    |    87009
        5  | 19:20.10 |  3:45.02 |     87010    |   103886
        6  | 23:05.12 |  4:49.38 |    103887    |   125599
        7  | 27:54.50 |  5:46.42 |    125600    |   151591
        8  | 33:41.17 |  5:04.00 |    151592    |   174391
        9  | 38:45.17 |  4:23.23 |    174392    |   194139
       10  | 43:08.40 |  5:01.45 |    194140    |   216759
       11  | 48:10.10 |  4:13.67 |    216760    |   235801
Range status and errors
Selected range
     Filename D:\My Music\FM - 1996 Paraphernalia\CD1\FM - Paraphernalia CD1.wav
     Peak level 99.4 %
     Extraction speed 4.3 X
     Range quality 99.9 %
     Test CRC 569B12A9
     Copy CRC 569B12A9
     Copy OK
No errors occurred
AccurateRip summary
Track  1  not present in database
Track  2  not present in database
Track  3  not present in database
Track  4  not present in database
Track  5  not present in database
Track  6  not present in database
Track  7  not present in database
Track  8  not present in database
Track  9  not present in database
Track 10  not present in database
Track 11  not present in database
None of the tracks are present in the AccurateRip database
End of status report

содержание индексной карты *cue

REM GENRE "Hard Rock"
REM DATE 1996
REM DISCID 8D0C480B
REM COMMENT "ExactAudioCopy v1.0b3"
PERFORMER "FM"
TITLE "Paraphernalia CD1"
FILE "FM - Paraphernalia CD1.flac" WAVE
  TRACK 01 AUDIO
    TITLE "Caught In The Innocence"
    PERFORMER "FM"
    INDEX 01 00:00:00
  TRACK 02 AUDIO
    TITLE "I Don't Wanna (Play These Games)"
    PERFORMER "FM"
    INDEX 01 05:08:17
  TRACK 03 AUDIO
    TITLE "After Hours"
    PERFORMER "FM"
    INDEX 01 09:09:27
  TRACK 04 AUDIO
    TITLE "I'll Be There"
    PERFORMER "FM"
    INDEX 01 13:54:20
  TRACK 05 AUDIO
    TITLE "Locomotive Love"
    PERFORMER "FM"
    INDEX 01 19:20:10
  TRACK 06 AUDIO
    TITLE "That's The Way"
    PERFORMER "FM"
    INDEX 01 23:05:12
  TRACK 07 AUDIO
    TITLE "Promised Land"
    PERFORMER "FM"
    INDEX 01 27:54:50
  TRACK 08 AUDIO
    TITLE "Tempted"
    PERFORMER "FM"
    INDEX 01 33:41:17
  TRACK 09 AUDIO
    TITLE "Heavy Heart"
    PERFORMER "FM"
    INDEX 01 38:45:17
  TRACK 10 AUDIO
    TITLE "Three Seconds"
    PERFORMER "FM"
    INDEX 01 43:08:40
  TRACK 11 AUDIO
    TITLE "Finish What We Started"
    PERFORMER "FM"
    INDEX 01 48:10:10

CD 2 | 00:27:15

01.Tough It Out (Live) (05:05)
02.Everytime I Think Of You (Live) (05:01)
03.Bad Luck (Live) (04:40)
04.Heart Of The Matter (Live) (07:28)
05.Burning My Heart Down (Live) (05:03)

лог создания рипа

Exact Audio Copy V1.0 beta 3 from 29. August 2011
EAC extraction logfile from 26. February 2013, 22:54
FM / Paraphernalia
Used drive  : SlimtypeDVD A  DS8A5SH   Adapter: 0  ID: 1
Read mode               : Secure
Utilize accurate stream : Yes
Defeat audio cache      : Yes
Make use of C2 pointers : No
Read offset correction                      : 6
Overread into Lead-In and Lead-Out          : No
Fill up missing offset samples with silence : Yes
Delete leading and trailing silent blocks   : No
Null samples used in CRC calculations       : Yes
Used interface                              : Native Win32 interface for Win NT & 2000
Used output format              : User Defined Encoder
Selected bitrate                : 320 kBit/s
Quality                         : High
Add ID3 tag                     : No
Command line compressor         : C:\Program Files (x86)\Exact Audio Copy\Flac\flac.exe
Additional command line options : -V -8 -T "Date=%year%" -T "Genre=%genre%" %source%
TOC of the extracted CD
     Track |   Start  |  Length  | Start sector | End sector
    ---------------------------------------------------------
        1  |  0:00.00 |  5:04.25 |         0    |    22824
        2  |  5:04.25 |  5:00.12 |     22825    |    45336
        3  | 10:04.37 |  4:39.63 |     45337    |    66324
        4  | 14:44.25 |  7:27.30 |     66325    |    99879
        5  | 22:11.55 |  5:02.67 |     99880    |   122596
Range status and errors
Selected range
     Filename D:\My Music\FM - 1996 Paraphernalia\CD2\FM - Paraphernalia.wav
     Peak level 88.9 %
     Extraction speed 1.2 X
     Range quality 100.0 %
     Test CRC F5BDA82C
     Copy CRC F5BDA82C
     Copy OK
No errors occurred
AccurateRip summary
Track  1  not present in database
Track  2  not present in database
Track  3  not present in database
Track  4  not present in database
Track  5  not present in database
None of the tracks are present in the AccurateRip database
End of status report

содержание индексной карты *cue

REM GENRE "Hard Rock"
REM DATE 1996
REM DISCID 37066205
REM COMMENT "ExactAudioCopy v1.0b3"
PERFORMER "FM"
TITLE "Paraphernalia"
FILE "FM - Paraphernalia.flac" WAVE
  TRACK 01 AUDIO
    TITLE "Tough It Out (Live)"
    PERFORMER "FM"
    INDEX 01 00:00:00
  TRACK 02 AUDIO
    TITLE "Everytime I Think Of You (Live)"
    PERFORMER "FM"
    INDEX 01 05:04:25
  TRACK 03 AUDIO
    TITLE "Bad Luck (Live)"
    PERFORMER "FM"
    INDEX 01 10:04:37
  TRACK 04 AUDIO
    TITLE "Heart Of The Matter (Live)"
    PERFORMER "FM"
    INDEX 01 14:44:25
  TRACK 05 AUDIO
    TITLE "Burning My Heart Down (Live)"
    PERFORMER "FM"
    INDEX 01 22:11:55

2003 - Long Time No See (3CD)

Лейбл издания: Escape Music
Страна-выпуска диска: UK
Номер по каталогу: ESMO86

CD 1 | 01:05:20

01.Caught In The Innocence (05:08)
02.I Don't Wanna (Play These Games) (04:02)
03.After Hours (04:46)
04.I'll Be There (05:26)
05.Locomotive Love (03:46)
06.That's The Way (04:50)
07.Promised Land (05:47)
08.Tempted (05:05)
09.Heavy Heart (04:24)
10.Three Seconds (05:03)
11.Finish What We Started (04:13)
12.Burning My Heart Down (98 Version Bonus) (04:48)
13.Don't Stop (98 Version Bonus) (04:02)
14.Frozen Heart (98 Version Bonus) (04:07)

лог создания рипа

Exact Audio Copy V1.0 beta 3 from 29. August 2011
EAC extraction logfile from 30. March 2013, 22:13
FM / Long Time No See CD1 - Paraphernalia
Used drive  : SlimtypeDVD A  DS8A5SH   Adapter: 0  ID: 1
Read mode               : Secure
Utilize accurate stream : Yes
Defeat audio cache      : Yes
Make use of C2 pointers : No
Read offset correction                      : 6
Overread into Lead-In and Lead-Out          : No
Fill up missing offset samples with silence : Yes
Delete leading and trailing silent blocks   : No
Null samples used in CRC calculations       : Yes
Used interface                              : Native Win32 interface for Win NT & 2000
Used output format              : User Defined Encoder
Selected bitrate                : 320 kBit/s
Quality                         : High
Add ID3 tag                     : No
Command line compressor         : C:\Program Files (x86)\Exact Audio Copy\Flac\flac.exe
Additional command line options : -V -8 -T "Date=%year%" -T "Genre=%genre%" %source%
TOC of the extracted CD
     Track |   Start  |  Length  | Start sector | End sector
    ---------------------------------------------------------
        1  |  0:00.00 |  5:07.14 |         0    |    23038
        2  |  5:07.14 |  4:01.68 |     23039    |    41181
        3  |  9:09.07 |  4:45.40 |     41182    |    62596
        4  | 13:54.47 |  5:25.74 |     62597    |    87045
        5  | 19:20.46 |  3:45.10 |     87046    |   103930
        6  | 23:05.56 |  4:49.60 |    103931    |   125665
        7  | 27:55.41 |  5:46.47 |    125666    |   151662
        8  | 33:42.13 |  5:04.13 |    151663    |   174475
        9  | 38:46.26 |  4:23.08 |    174476    |   194208
       10  | 43:09.34 |  5:02.39 |    194209    |   216897
       11  | 48:11.73 |  4:12.10 |    216898    |   235807
       12  | 52:24.08 |  4:47.34 |    235808    |   257366
       13  | 57:11.42 |  4:01.15 |    257367    |   275456
       14  | 61:12.57 |  4:06.68 |    275457    |   293974
Range status and errors
Selected range
     Filename D:\My Music\FM - 2003 Long Time No See\CD1 - Paraphernalia\FM - Long Time No See CD1 - Paraphernalia.wav
     Peak level 100.0 %
     Extraction speed 4.5 X
     Range quality 100.0 %
     Test CRC 9B248815
     Copy CRC 9B248815
     Copy OK
No errors occurred
AccurateRip summary
Track  1  accurately ripped (confidence 3)  [B7F5E794]  (AR v1)
Track  2  accurately ripped (confidence 3)  [11C92646]  (AR v1)
Track  3  accurately ripped (confidence 3)  [21EA2997]  (AR v1)
Track  4  accurately ripped (confidence 3)  [308F1782]  (AR v1)
Track  5  accurately ripped (confidence 3)  [C1B7C159]  (AR v1)
Track  6  accurately ripped (confidence 3)  [B7FEF3FE]  (AR v1)
Track  7  accurately ripped (confidence 3)  [D870CB5D]  (AR v1)
Track  8  accurately ripped (confidence 3)  [DE64473A]  (AR v1)
Track  9  accurately ripped (confidence 3)  [EBA39B7C]  (AR v1)
Track 10  accurately ripped (confidence 3)  [5A6D1FA6]  (AR v1)
Track 11  accurately ripped (confidence 3)  [A9C612EE]  (AR v1)
Track 12  accurately ripped (confidence 3)  [72B6A5B9]  (AR v1)
Track 13  accurately ripped (confidence 3)  [3E50CB95]  (AR v1)
Track 14  accurately ripped (confidence 3)  [53941458]  (AR v1)
All tracks accurately ripped
End of status report

содержание индексной карты *cue

REM GENRE Rock
REM DATE 2003
REM DISCID C90F4F0E
REM COMMENT "ExactAudioCopy v1.0b3"
PERFORMER "FM"
TITLE "Long Time No See CD1 - Paraphernalia"
FILE "FM - Long Time No See CD1 - Paraphernalia.flac" WAVE
  TRACK 01 AUDIO
    TITLE "Caught In The Innocence"
    PERFORMER "FM"
    INDEX 01 00:00:00
  TRACK 02 AUDIO
    TITLE "I Don't Wanna (Play These Games)"
    PERFORMER "FM"
    INDEX 01 05:07:14
  TRACK 03 AUDIO
    TITLE "After Hours"
    PERFORMER "FM"
    INDEX 01 09:09:07
  TRACK 04 AUDIO
    TITLE "I'll Be There"
    PERFORMER "FM"
    INDEX 01 13:54:47
  TRACK 05 AUDIO
    TITLE "Locomotive Love"
    PERFORMER "FM"
    INDEX 01 19:20:46
  TRACK 06 AUDIO
    TITLE "That's The Way"
    PERFORMER "FM"
    INDEX 01 23:05:56
  TRACK 07 AUDIO
    TITLE "Promised Land"
    PERFORMER "FM"
    INDEX 01 27:55:41
  TRACK 08 AUDIO
    TITLE "Tempted"
    PERFORMER "FM"
    INDEX 01 33:42:13
  TRACK 09 AUDIO
    TITLE "Heavy Heart"
    PERFORMER "FM"
    INDEX 01 38:46:26
  TRACK 10 AUDIO
    TITLE "Three Seconds"
    PERFORMER "FM"
    INDEX 01 43:09:34
  TRACK 11 AUDIO
    TITLE "Finish What We Started"
    PERFORMER "FM"
    INDEX 01 48:11:73
  TRACK 12 AUDIO
    TITLE "Burning My Heart Down (98 Version Bonus)"
    PERFORMER "FM"
    INDEX 01 52:24:08
  TRACK 13 AUDIO
    TITLE "Don't Stop (98 Version Bonus)"
    PERFORMER "FM"
    INDEX 01 57:11:42
  TRACK 14 AUDIO
    TITLE "Frozen Heart (98 Version Bonus)"
    PERFORMER "FM"
    INDEX 01 61:12:57

CD 2 | 01:07:28

01.Breathe Fire (05:02)
02.Blood And Gasoline (05:07)
03.All Or Nothing (04:10)
04.Closer To Heaven (06:30)
05.Ain't Too Proud (04:57)
06.Take The Money (04:24)
07.Aphrodisia (01:56)
08.Inside Out (04:27)
09.Ain't Gonna Run No More (05:14)
10.Play Dirty (05:06)
11.Rivers Run Dry (05:12)
12.Hard Day In Hell (06:47)
13.Chinese Whispers (04:16)
14.Closer To Heaven (Acoustic) (04:28)

лог создания рипа

Exact Audio Copy V1.0 beta 3 from 29. August 2011
EAC extraction logfile from 30. March 2013, 23:21
FM / Long Time No See CD2 - Aphrodisiac
Used drive  : SlimtypeDVD A  DS8A5SH   Adapter: 0  ID: 1
Read mode               : Secure
Utilize accurate stream : Yes
Defeat audio cache      : Yes
Make use of C2 pointers : No
Read offset correction                      : 6
Overread into Lead-In and Lead-Out          : No
Fill up missing offset samples with silence : Yes
Delete leading and trailing silent blocks   : No
Null samples used in CRC calculations       : Yes
Used interface                              : Native Win32 interface for Win NT & 2000
Used output format              : User Defined Encoder
Selected bitrate                : 320 kBit/s
Quality                         : High
Add ID3 tag                     : No
Command line compressor         : C:\Program Files (x86)\Exact Audio Copy\Flac\flac.exe
Additional command line options : -V -8 -T "Date=%year%" -T "Genre=%genre%" %source%
TOC of the extracted CD
     Track |   Start  |  Length  | Start sector | End sector
    ---------------------------------------------------------
        1  |  0:00.00 |  5:01.50 |         0    |    22624
        2  |  5:01.50 |  5:06.02 |     22625    |    45576
        3  | 10:07.52 |  4:09.24 |     45577    |    64275
        4  | 14:17.01 |  6:29.14 |     64276    |    93464
        5  | 20:46.15 |  4:56.25 |     93465    |   115689
        6  | 25:42.40 |  4:23.10 |    115690    |   135424
        7  | 30:05.50 |  1:55.29 |    135425    |   144078
        8  | 32:01.04 |  4:26.58 |    144079    |   164086
        9  | 36:27.62 |  5:13.05 |    164087    |   187566
       10  | 41:40.67 |  5:05.20 |    187567    |   210461
       11  | 46:46.12 |  5:11.59 |    210462    |   233845
       12  | 51:57.71 |  6:46.41 |    233846    |   264336
       13  | 58:44.37 |  4:15.25 |    264337    |   283486
       14  | 62:59.62 |  4:27.19 |    283487    |   303530
Range status and errors
Selected range
     Filename D:\My Music\FM - 2003 Long Time No See\CD2 - Aphrodisiac\FM - Long Time No See CD2 - Aphrodisiac.wav
     Peak level 100.0 %
     Extraction speed 1.9 X
     Range quality 99.9 %
     Test CRC C131AF64
     Copy CRC C131AF64
     Copy OK
No errors occurred
AccurateRip summary
Track  1  accurately ripped (confidence 3)  [1E98AFDF]  (AR v1)
Track  2  accurately ripped (confidence 3)  [3516071A]  (AR v1)
Track  3  accurately ripped (confidence 3)  [6678485F]  (AR v1)
Track  4  accurately ripped (confidence 3)  [87274D46]  (AR v1)
Track  5  accurately ripped (confidence 3)  [4B17E42C]  (AR v1)
Track  6  accurately ripped (confidence 3)  [7D6D795D]  (AR v1)
Track  7  accurately ripped (confidence 3)  [42607B9F]  (AR v1)
Track  8  accurately ripped (confidence 3)  [B1E44013]  (AR v1)
Track  9  accurately ripped (confidence 3)  [5BD686A9]  (AR v1)
Track 10  accurately ripped (confidence 3)  [41832093]  (AR v1)
Track 11  accurately ripped (confidence 3)  [EC6A6525]  (AR v1)
Track 12  accurately ripped (confidence 3)  [D852FB49]  (AR v1)
Track 13  accurately ripped (confidence 3)  [0DB2BFB9]  (AR v1)
Track 14  accurately ripped (confidence 3)  [E71C4D9B]  (AR v1)
All tracks accurately ripped
End of status report

содержание индексной карты *cue

REM GENRE "Melodic Rock"
REM DATE 2003
REM DISCID C90FCF0E
REM COMMENT "ExactAudioCopy v1.0b3"
PERFORMER "FM"
TITLE "Long Time No See CD2 - Aphrodisiac"
FILE "FM - Long Time No See CD2 - Aphrodisiac.flac" WAVE
  TRACK 01 AUDIO
    TITLE "Breathe Fire"
    PERFORMER "FM"
    INDEX 01 00:00:00
  TRACK 02 AUDIO
    TITLE "Blood And Gasoline"
    PERFORMER "FM"
    INDEX 01 05:01:50
  TRACK 03 AUDIO
    TITLE "All Or Nothing"
    PERFORMER "FM"
    INDEX 01 10:07:52
  TRACK 04 AUDIO
    TITLE "Closer To Heaven"
    PERFORMER "FM"
    INDEX 01 14:17:01
  TRACK 05 AUDIO
    TITLE "Ain't Too Proud"
    PERFORMER "FM"
    INDEX 01 20:46:15
  TRACK 06 AUDIO
    TITLE "Take The Money"
    PERFORMER "FM"
    INDEX 01 25:42:40
  TRACK 07 AUDIO
    TITLE "Aphrodisia"
    PERFORMER "FM"
    INDEX 01 30:05:50
  TRACK 08 AUDIO
    TITLE "Inside Out"
    PERFORMER "FM"
    INDEX 01 32:01:04
  TRACK 09 AUDIO
    TITLE "Ain't Gonna Run No More"
    PERFORMER "FM"
    INDEX 01 36:27:62
  TRACK 10 AUDIO
    TITLE "Play Dirty"
    PERFORMER "FM"
    INDEX 01 41:40:67
  TRACK 11 AUDIO
    TITLE "Rivers Run Dry"
    PERFORMER "FM"
    INDEX 01 46:46:12
  TRACK 12 AUDIO
    TITLE "Hard Day In Hell"
    PERFORMER "FM"
    INDEX 01 51:57:71
  TRACK 13 AUDIO
    TITLE "Chinese Whispers"
    PERFORMER "FM"
    INDEX 01 58:44:37
  TRACK 14 AUDIO
    TITLE "Closer To Heaven (Acoustic)"
    PERFORMER "FM"
    INDEX 01 62:59:62

CD 3 | 01:05:06

01.I Belong To The Night (06:06)
02.Face To Face (05:09)
03.Don't Stop (04:10)
04.Every Time I Think Of You (04:56)
05.Bad Luck (04:43)
06.Burning My Heart Down (06:09)
07.The Other Side Of Midnight (04:33)
08.Frozen Heart (05:00)
09.Heart Of The Matter (10:17)
10.Hot Legs (05:28)
11.That Girl (03:54)
12.American Girls (04:47)

лог создания рипа

Exact Audio Copy V1.0 beta 3 from 29. August 2011
EAC extraction logfile from 31. March 2013, 6:13
FM / Long Time No See CD3 - Live At The Astoria
Used drive  : SlimtypeDVD A  DS8A5SH   Adapter: 0  ID: 1
Read mode               : Secure
Utilize accurate stream : Yes
Defeat audio cache      : Yes
Make use of C2 pointers : No
Read offset correction                      : 6
Overread into Lead-In and Lead-Out          : No
Fill up missing offset samples with silence : Yes
Delete leading and trailing silent blocks   : No
Null samples used in CRC calculations       : Yes
Used interface                              : Native Win32 interface for Win NT & 2000
Used output format              : User Defined Encoder
Selected bitrate                : 320 kBit/s
Quality                         : High
Add ID3 tag                     : No
Command line compressor         : C:\Program Files (x86)\Exact Audio Copy\Flac\flac.exe
Additional command line options : -V -8 -T "Date=%year%" -T "Genre=%genre%" %source%
TOC of the extracted CD
     Track |   Start  |  Length  | Start sector | End sector
    ---------------------------------------------------------
        1  |  0:00.00 |  6:05.34 |         0    |    27408
        2  |  6:05.34 |  5:08.16 |     27409    |    50524
        3  | 11:13.50 |  4:09.36 |     50525    |    69235
        4  | 15:23.11 |  4:55.25 |     69236    |    91385
        5  | 20:18.36 |  4:42.69 |     91386    |   112604
        6  | 25:01.30 |  6:08.08 |    112605    |   140212
        7  | 31:09.38 |  4:32.71 |    140213    |   160683
        8  | 35:42.34 |  4:59.17 |    160684    |   183125
        9  | 40:41.51 | 10:16.18 |    183126    |   229343
       10  | 50:57.69 |  5:27.41 |    229344    |   253909
       11  | 56:25.35 |  3:53.39 |    253910    |   271423
       12  | 60:18.74 |  4:46.69 |    271424    |   292942
Range status and errors
Selected range
     Filename D:\My Music\FM - 2003 Long Time No See\CD3 - Live At The Astoria\FM - Long Time No See CD3 - Live At The Astoria.wav
     Peak level 100.0 %
     Extraction speed 1.9 X
     Range quality 100.0 %
     Test CRC C4DD402D
     Copy CRC C4DD402D
     Copy OK
No errors occurred
AccurateRip summary
Track  1  accurately ripped (confidence 3)  [59D8A8DD]  (AR v1)
Track  2  accurately ripped (confidence 3)  [4F4B030C]  (AR v1)
Track  3  accurately ripped (confidence 3)  [F38B87B8]  (AR v1)
Track  4  accurately ripped (confidence 3)  [F79AF24A]  (AR v1)
Track  5  accurately ripped (confidence 3)  [9288ECD5]  (AR v1)
Track  6  accurately ripped (confidence 3)  [7DE2DF52]  (AR v1)
Track  7  accurately ripped (confidence 3)  [A4A29B88]  (AR v1)
Track  8  accurately ripped (confidence 3)  [EACCAB68]  (AR v1)
Track  9  accurately ripped (confidence 3)  [6D0DBD6C]  (AR v1)
Track 10  accurately ripped (confidence 3)  [D1340093]  (AR v1)
Track 11  accurately ripped (confidence 3)  [0D8740E5]  (AR v1)
Track 12  accurately ripped (confidence 3)  [915E98C5]  (AR v1)
All tracks accurately ripped
End of status report

содержание индексной карты *cue

REM GENRE Rock
REM DATE 2003
REM DISCID 9C0F410C
REM COMMENT "ExactAudioCopy v1.0b3"
PERFORMER "FM"
TITLE "Long Time No See CD3 - Live At The Astoria"
FILE "FM - Long Time No See CD3 - Live At The Astoria.flac" WAVE
  TRACK 01 AUDIO
    TITLE "I Belong To The Night"
    PERFORMER "FM"
    INDEX 01 00:00:00
  TRACK 02 AUDIO
    TITLE "Face To Face"
    PERFORMER "FM"
    INDEX 01 06:05:34
  TRACK 03 AUDIO
    TITLE "Don't Stop"
    PERFORMER "FM"
    INDEX 01 11:13:50
  TRACK 04 AUDIO
    TITLE "Every Time I Think Of You"
    PERFORMER "FM"
    INDEX 01 15:23:11
  TRACK 05 AUDIO
    TITLE "Bad Luck"
    PERFORMER "FM"
    INDEX 01 20:18:36
  TRACK 06 AUDIO
    TITLE "Burning My Heart Down"
    PERFORMER "FM"
    INDEX 01 25:01:30
  TRACK 07 AUDIO
    TITLE "The Other Side Of Midnight"
    PERFORMER "FM"
    INDEX 01 31:09:38
  TRACK 08 AUDIO
    TITLE "Frozen Heart"
    PERFORMER "FM"
    INDEX 01 35:42:34
  TRACK 09 AUDIO
    TITLE "Heart Of The Matter"
    PERFORMER "FM"
    INDEX 01 40:41:51
  TRACK 10 AUDIO
    TITLE "Hot Legs"
    PERFORMER "FM"
    INDEX 01 50:57:69
  TRACK 11 AUDIO
    TITLE "That Girl"
    PERFORMER "FM"
    INDEX 01 56:25:35
  TRACK 12 AUDIO
    TITLE "American Girls"
    PERFORMER "FM"
    INDEX 01 60:18:74

2010 - City Limits EP | 00:44:10

Лейбл издания: Unbreahable Music LTD
Страна-выпуска диска: EU
Номер по каталогу: RCR5CD


01.Bring Back Yesterday (Radio Edit) (04:09)
02.Start It Up (04:57)
03.That Girl (Acoustic Version 2010) (06:07)
04.Wildside (Live) (06:06)
05.Hollow (Live) (04:21)
06.Metroplis (Live) (01:39)
07.Over You (Live) (05:00)
08.Flamingo Road (Live) (04:58)
09.Bring Back Yesterday (City Limits Extended Mix) (06:58)

лог создания рипа

Exact Audio Copy V1.0 beta 3 from 29. August 2011
EAC extraction logfile from 9. February 2013, 23:56
FM / City Limits EP
Used drive  : SlimtypeDVD A  DS8A5SH   Adapter: 0  ID: 1
Read mode               : Secure
Utilize accurate stream : Yes
Defeat audio cache      : Yes
Make use of C2 pointers : No
Read offset correction                      : 6
Overread into Lead-In and Lead-Out          : No
Fill up missing offset samples with silence : Yes
Delete leading and trailing silent blocks   : No
Null samples used in CRC calculations       : Yes
Used interface                              : Native Win32 interface for Win NT & 2000
Used output format              : User Defined Encoder
Selected bitrate                : 320 kBit/s
Quality                         : High
Add ID3 tag                     : No
Command line compressor         : C:\Program Files (x86)\Exact Audio Copy\Flac\flac.exe
Additional command line options : -V -8 -T "Date=%year%" -T "Genre=%genre%" %source%
TOC of the extracted CD
     Track |   Start  |  Length  | Start sector | End sector
    ---------------------------------------------------------
        1  |  0:00.00 |  4:08.35 |         0    |    18634
        2  |  4:08.35 |  4:56.25 |     18635    |    40859
        3  |  9:04.60 |  6:06.27 |     40860    |    68336
        4  | 15:11.12 |  6:05.60 |     68337    |    95771
        5  | 21:16.72 |  4:20.11 |     95772    |   115282
        6  | 25:37.08 |  1:38.41 |    115283    |   122673
        7  | 27:15.49 |  4:59.32 |    122674    |   145130
        8  | 32:15.06 |  4:57.60 |    145131    |   167465
        9  | 37:12.66 |  6:57.01 |    167466    |   198741
Range status and errors
Selected range
     Filename D:\My Music\FM - 2010 City Limits EP\FM - City Limits EP.wav
     Peak level 98.0 %
     Extraction speed 4.2 X
     Range quality 100.0 %
     Test CRC B74C25CE
     Copy CRC B74C25CE
     Copy OK
No errors occurred
AccurateRip summary
Track  1  accurately ripped (confidence 2)  [97F3D927]  (AR v1)
Track  2  accurately ripped (confidence 2)  [7EE594E7]  (AR v1)
Track  3  accurately ripped (confidence 2)  [3BA5F6B9]  (AR v1)
Track  4  accurately ripped (confidence 2)  [0505F3AF]  (AR v1)
Track  5  accurately ripped (confidence 2)  [748EC6E3]  (AR v1)
Track  6  accurately ripped (confidence 2)  [0019914A]  (AR v1)
Track  7  accurately ripped (confidence 2)  [24D63362]  (AR v1)
Track  8  accurately ripped (confidence 2)  [BF10F10F]  (AR v1)
Track  9  accurately ripped (confidence 2)  [E61A7014]  (AR v1)
All tracks accurately ripped
End of status report

содержание индексной карты *cue

REM GENRE "Hard Rock"
REM DATE 2010
REM DISCID 790A5909
REM COMMENT "ExactAudioCopy v1.0b3"
PERFORMER "FM"
TITLE "City Limits EP"
FILE "FM - City Limits EP.flac" WAVE
  TRACK 01 AUDIO
    TITLE "Bring Back Yesterday (Radio Edit)"
    PERFORMER "FM"
    ISRC GB8DH1000015
    INDEX 01 00:00:00
  TRACK 02 AUDIO
    TITLE "Start It Up"
    PERFORMER "FM"
    ISRC GB8DH1000017
    INDEX 00 04:07:03
    INDEX 01 04:08:35
  TRACK 03 AUDIO
    TITLE "That Girl (Acoustic Version 2010)"
    PERFORMER "FM"
    ISRC GB8DH1000019
    INDEX 00 09:03:15
    INDEX 01 09:04:60
  TRACK 04 AUDIO
    TITLE "Wildside (Live)"
    PERFORMER "FM"
    ISRC GB8DH1000020
    INDEX 00 15:10:25
    INDEX 01 15:11:12
  TRACK 05 AUDIO
    TITLE "Hollow (Live)"
    PERFORMER "FM"
    ISRC GB8DH1000021
    INDEX 00 21:16:49
    INDEX 01 21:16:72
  TRACK 06 AUDIO
    TITLE "Metroplis (Live)"
    PERFORMER "FM"
    ISRC GB8DH1000022
    INDEX 00 25:36:10
    INDEX 01 25:37:08
  TRACK 07 AUDIO
    TITLE "Over You (Live)"
    PERFORMER "FM"
    ISRC GB8DH1000023
    INDEX 01 27:15:49
  TRACK 08 AUDIO
    TITLE "Flamingo Road (Live)"
    PERFORMER "FM"
    ISRC GB8DH1000024
    INDEX 00 32:14:02
    INDEX 01 32:15:06
  TRACK 09 AUDIO
    TITLE "Bring Back Yesterday (City Limits Extended Mix)"
    PERFORMER "FM"
    ISRC GB8DH1000018
    INDEX 00 37:11:41
    INDEX 01 37:12:66

2010 - Metropolis | 01:09:07

Лейбл издания: AVALON
Страна-выпуска диска: Japan
Номер по каталогу: MICP-10921


01.Wildside (04:57)
02.Hollow (04:06)
03.Unbreakable (05:23)
04.Flamingo Road (05:04)
05.Metropolis (01:36)
06.Over You (04:36)
07.Days Gone By (05:43)
08.Bring Back Yesterday (05:38)
09.I Ain't The One (04:52)
10.Don't Need Nothin' (04:24)
11.The Extra Mile (04:43)
12.Who'll Stop The Rain (05:24)
13.Still The Fight Goes On (07:16)
14.Kissed By An Angel (bonus track) (05:32)

лог создания рипа

Exact Audio Copy V1.0 beta 3 from 29. August 2011
EAC extraction logfile from 10. February 2013, 1:00
FM / Metropolis
Used drive  : SlimtypeDVD A  DS8A5SH   Adapter: 0  ID: 1
Read mode               : Secure
Utilize accurate stream : Yes
Defeat audio cache      : Yes
Make use of C2 pointers : No
Read offset correction                      : 6
Overread into Lead-In and Lead-Out          : No
Fill up missing offset samples with silence : Yes
Delete leading and trailing silent blocks   : No
Null samples used in CRC calculations       : Yes
Used interface                              : Native Win32 interface for Win NT & 2000
Used output format              : User Defined Encoder
Selected bitrate                : 320 kBit/s
Quality                         : High
Add ID3 tag                     : No
Command line compressor         : C:\Program Files (x86)\Exact Audio Copy\Flac\flac.exe
Additional command line options : -V -8 -T "Date=%year%" -T "Genre=%genre%" %source%
TOC of the extracted CD
     Track |   Start  |  Length  | Start sector | End sector
    ---------------------------------------------------------
        1  |  0:00.00 |  4:56.58 |         0    |    22257
        2  |  4:56.58 |  4:05.02 |     22258    |    40634
        3  |  9:01.60 |  5:22.37 |     40635    |    64821
        4  | 14:24.22 |  5:03.69 |     64822    |    87615
        5  | 19:28.16 |  1:35.28 |     87616    |    94768
        6  | 21:03.44 |  4:35.41 |     94769    |   115434
        7  | 25:39.10 |  5:42.41 |    115435    |   141125
        8  | 31:21.51 |  5:37.29 |    141126    |   166429
        9  | 36:59.05 |  4:51.11 |    166430    |   188265
       10  | 41:50.16 |  4:23.05 |    188266    |   207995
       11  | 46:13.21 |  4:42.15 |    207996    |   229160
       12  | 50:55.36 |  5:23.66 |    229161    |   253451
       13  | 56:19.27 |  7:15.60 |    253452    |   286136
       14  | 63:35.12 |  5:31.51 |    286137    |   311012
Range status and errors
Selected range
     Filename D:\My Music\FM - 2010 Metropolis\FM - Metropolis.wav
     Peak level 100.0 %
     Extraction speed 2.0 X
     Range quality 100.0 %
     Test CRC 754EECCC
     Copy CRC 754EECCC
     Copy OK
No errors occurred
AccurateRip summary
Track  1  accurately ripped (confidence 1)  [C63EC316]  (AR v1)
Track  2  accurately ripped (confidence 1)  [901C4AAF]  (AR v1)
Track  3  accurately ripped (confidence 1)  [79459007]  (AR v1)
Track  4  accurately ripped (confidence 1)  [E34805B4]  (AR v1)
Track  5  accurately ripped (confidence 1)  [EA5AF73A]  (AR v1)
Track  6  accurately ripped (confidence 1)  [CAC5E4E1]  (AR v1)
Track  7  accurately ripped (confidence 1)  [129CAC75]  (AR v1)
Track  8  accurately ripped (confidence 1)  [77E6CE6D]  (AR v1)
Track  9  accurately ripped (confidence 1)  [895A132A]  (AR v1)
Track 10  accurately ripped (confidence 1)  [02013CF2]  (AR v1)
Track 11  accurately ripped (confidence 1)  [19B463A8]  (AR v1)
Track 12  accurately ripped (confidence 1)  [70F621D7]  (AR v1)
Track 13  accurately ripped (confidence 1)  [EDB174B0]  (AR v1)
Track 14  accurately ripped (confidence 1)  [D342B1F0]  (AR v1)
All tracks accurately ripped
End of status report

содержание индексной карты *cue

REM GENRE "Hard Rock"
REM DATE 2010
REM DISCID C210320E
REM COMMENT "ExactAudioCopy v1.0b3"
PERFORMER "FM"
TITLE "Metropolis"
FILE "FM - Metropolis.flac" WAVE
  TRACK 01 AUDIO
    TITLE "Wildside"
    PERFORMER "FM"
    ISRC GB8DH1000001
    INDEX 01 00:00:00
  TRACK 02 AUDIO
    TITLE "Hollow"
    PERFORMER "FM"
    ISRC GB8DH1000002
    INDEX 01 04:56:58
  TRACK 03 AUDIO
    TITLE "Unbreakable"
    PERFORMER "FM"
    ISRC GB8DH1000003
    INDEX 01 09:01:60
  TRACK 04 AUDIO
    TITLE "Flamingo Road"
    PERFORMER "FM"
    ISRC GB8DH1000004
    INDEX 01 14:24:22
  TRACK 05 AUDIO
    TITLE "Metropolis"
    PERFORMER "FM"
    ISRC GB8DH1000012
    INDEX 01 19:28:16
  TRACK 06 AUDIO
    TITLE "Over You"
    PERFORMER "FM"
    ISRC GB8DH1000006
    INDEX 01 21:03:44
  TRACK 07 AUDIO
    TITLE "Days Gone By"
    PERFORMER "FM"
    ISRC GB8DH1000011
    INDEX 01 25:39:10
  TRACK 08 AUDIO
    TITLE "Bring Back Yesterday"
    PERFORMER "FM"
    ISRC GB8DH1000008
    INDEX 01 31:21:51
  TRACK 09 AUDIO
    TITLE "I Ain't The One"
    PERFORMER "FM"
    ISRC GB8DH1000010
    INDEX 01 36:59:05
  TRACK 10 AUDIO
    TITLE "Don't Need Nothin'"
    PERFORMER "FM"
    ISRC GB8DH1000013
    INDEX 01 41:50:16
  TRACK 11 AUDIO
    TITLE "The Extra Mile"
    PERFORMER "FM"
    ISRC GB8DH1000009
    INDEX 00 46:12:47
    INDEX 01 46:13:21
  TRACK 12 AUDIO
    TITLE "Who'll Stop The Rain"
    PERFORMER "FM"
    ISRC GB8DH1000005
    INDEX 01 50:55:36
  TRACK 13 AUDIO
    TITLE "Still The Fight Goes On"
    PERFORMER "FM"
    ISRC GB8DH1000007
    INDEX 01 56:19:27
  TRACK 14 AUDIO
    TITLE "Kissed By An Angel (bonus track)"
    PERFORMER "FM"
    INDEX 00 63:30:12
    INDEX 01 63:35:12

2012 - Only Foolin EP | 00:50:21

Лейбл издания: RIFF CITY Records
Страна-выпуска диска: EU
Номер по каталогу: RCR6CD


01.Only Foolin' (04:32)
02.Rainbow's End (05:12)
03.Shot in the Dark (05:31)
04.Let Love Be The Leader (Live) (05:36)
05.Don't Stop (Live) (03:45)
06.Does it Feel Like Love (LIve) (06:07)
07.Tough it Out (Live) (04:57)
08.Hot Legs (Live) (06:52)
09.Only Foolin' (Extended Mix) (07:54)

лог создания рипа

Exact Audio Copy V1.0 beta 3 from 29. August 2011
EAC extraction logfile from 25. December 2012, 18:46
FM / Only Foolin EP
Used drive  : SlimtypeDVD A  DS8A5SH   Adapter: 0  ID: 1
Read mode               : Secure
Utilize accurate stream : Yes
Defeat audio cache      : Yes
Make use of C2 pointers : No
Read offset correction                      : 6
Overread into Lead-In and Lead-Out          : No
Fill up missing offset samples with silence : Yes
Delete leading and trailing silent blocks   : No
Null samples used in CRC calculations       : Yes
Used interface                              : Native Win32 interface for Win NT & 2000
Used output format              : User Defined Encoder
Selected bitrate                : 320 kBit/s
Quality                         : High
Add ID3 tag                     : No
Command line compressor         : C:\Program Files (x86)\Exact Audio Copy\Flac\flac.exe
Additional command line options : -V -8 -T "Date=%year%" -T "Genre=%genre%" %source%
TOC of the extracted CD
     Track |   Start  |  Length  | Start sector | End sector
    ---------------------------------------------------------
        1  |  0:00.00 |  4:31.25 |         0    |    20349
        2  |  4:31.25 |  5:11.18 |     20350    |    43692
        3  |  9:42.43 |  5:30.73 |     43693    |    68515
        4  | 15:13.41 |  5:35.08 |     68516    |    93648
        5  | 20:48.49 |  3:44.27 |     93649    |   110475
        6  | 24:33.01 |  6:06.16 |    110476    |   137941
        7  | 30:39.17 |  4:56.10 |    137942    |   160151
        8  | 35:35.27 |  6:51.72 |    160152    |   191048
        9  | 42:27.24 |  7:53.06 |    191049    |   226529
Range status and errors
Selected range
     Filename D:\My Music\FM - 2012 Only Foolin EP\FM - Only Foolin EP.wav
     Peak level 98.0 %
     Extraction speed 4.2 X
     Range quality 100.0 %
     Test CRC 9C36D1A6
     Copy CRC 9C36D1A6
     Copy OK
No errors occurred
AccurateRip summary
Track  1  not present in database
Track  2  not present in database
Track  3  not present in database
Track  4  not present in database
Track  5  not present in database
Track  6  not present in database
Track  7  not present in database
Track  8  not present in database
Track  9  not present in database
None of the tracks are present in the AccurateRip database
End of status report

содержание индексной карты *cue

REM GENRE Rock
REM DATE 2012
REM DISCID 760BCC09
REM COMMENT "ExactAudioCopy v1.0b3"
PERFORMER "FM"
TITLE "Only Foolin EP"
FILE "FM - Only Foolin EP.flac" WAVE
  TRACK 01 AUDIO
    TITLE "Only Foolin'"
    PERFORMER "FM"
    ISRC GB8DH1200025
    INDEX 01 00:00:00
  TRACK 02 AUDIO
    TITLE "Rainbow's End"
    PERFORMER "FM"
    ISRC GB8DH1200026
    INDEX 01 04:31:25
  TRACK 03 AUDIO
    TITLE "Shot in the Dark"
    PERFORMER "FM"
    ISRC GB8DH1200027
    INDEX 01 09:42:43
  TRACK 04 AUDIO
    TITLE "Let Love Be The Leader (Live)"
    PERFORMER "FM"
    ISRC GB8DH1200028
    INDEX 00 15:13:20
    INDEX 01 15:13:41
  TRACK 05 AUDIO
    TITLE "Don't Stop (Live)"
    PERFORMER "FM"
    ISRC GB8DH1200029
    INDEX 00 20:48:25
    INDEX 01 20:48:49
  TRACK 06 AUDIO
    TITLE "Does it Feel Like Love (LIve)"
    PERFORMER "FM"
    ISRC GB8DH1200030
    INDEX 01 24:33:01
  TRACK 07 AUDIO
    TITLE "Tough it Out (Live)"
    PERFORMER "FM"
    ISRC GB8DH1200031
    INDEX 00 30:38:02
    INDEX 01 30:39:17
  TRACK 08 AUDIO
    TITLE "Hot Legs (Live)"
    PERFORMER "FM"
    ISRC GB8DH1200032
    INDEX 01 35:35:27
  TRACK 09 AUDIO
    TITLE "Only Foolin' (Extended Mix)"
    PERFORMER "FM"
    ISRC GB8DH1200033
    INDEX 00 42:26:21
    INDEX 01 42:27:24

2013 - Rockville | 00:51:09

Лейбл издания: MEMBRAN
Страна-выпуска диска: EU
Номер по каталогу: 233704


01.Tough Love (05:04)
02.Wake Up The World (05:17)
03.Only Foolin' (04:30)
04.Crave (04:39)
05.Show Me The Way (04:02)
06.My Love Bleeds (04:34)
07.Story Of My Life (04:08)
08.Better Late Than Never (03:22)
09.Crosstown Train (06:06)
10.Goodbye Yesterday (04:28)
11.High Cost Of Loving (05:04)

лог создания рипа

Exact Audio Copy V1.0 beta 3 from 29. August 2011
EAC extraction logfile from 23. April 2013, 20:15
FM / Rockville
Used drive  : SlimtypeDVD A  DS8A5SH   Adapter: 0  ID: 1
Read mode               : Secure
Utilize accurate stream : Yes
Defeat audio cache      : Yes
Make use of C2 pointers : No
Read offset correction                      : 6
Overread into Lead-In and Lead-Out          : No
Fill up missing offset samples with silence : Yes
Delete leading and trailing silent blocks   : No
Null samples used in CRC calculations       : Yes
Used interface                              : Native Win32 interface for Win NT & 2000
Used output format              : User Defined Encoder
Selected bitrate                : 320 kBit/s
Quality                         : High
Add ID3 tag                     : No
Command line compressor         : C:\Program Files (x86)\Exact Audio Copy\Flac\flac.exe
Additional command line options : -V -8 -T "Date=%year%" -T "Genre=%genre%" %source%
TOC of the extracted CD
     Track |   Start  |  Length  | Start sector | End sector
    ---------------------------------------------------------
        1  |  0:00.00 |  5:03.60 |         0    |    22784
        2  |  5:03.60 |  5:16.29 |     22785    |    46513
        3  | 10:20.14 |  4:29.65 |     46514    |    66753
        4  | 14:50.04 |  4:38.59 |     66754    |    87662
        5  | 19:28.63 |  4:01.20 |     87663    |   105757
        6  | 23:30.08 |  4:33.11 |    105758    |   126243
        7  | 28:03.19 |  4:07.33 |    126244    |   144801
        8  | 32:10.52 |  3:21.52 |    144802    |   159928
        9  | 35:32.29 |  6:05.38 |    159929    |   187341
       10  | 41:37.67 |  4:27.12 |    187342    |   207378
       11  | 46:05.04 |  5:03.07 |    207379    |   230110
Range status and errors
Selected range
     Filename D:\My Music\FM - 2013 Rockville\FM - Rockville.wav
     Peak level 98.0 %
     Extraction speed 1.8 X
     Range quality 100.0 %
     Test CRC 6E88DEA9
     Copy CRC 6E88DEA9
     Copy OK
No errors occurred
AccurateRip summary
Track  1  not present in database
Track  2  not present in database
Track  3  not present in database
Track  4  not present in database
Track  5  not present in database
Track  6  not present in database
Track  7  not present in database
Track  8  not present in database
Track  9  not present in database
Track 10  not present in database
Track 11  not present in database
None of the tracks are present in the AccurateRip database
End of status report

содержание индексной карты *cue

REM GENRE "Hard Rock"
REM DATE 2013
REM DISCID 930BFC0B
REM COMMENT "ExactAudioCopy v1.0b3"
PERFORMER "FM"
TITLE "Rockville"
FILE "FM - Rockville.flac" WAVE
  TRACK 01 AUDIO
    TITLE "Tough Love"
    PERFORMER "FM"
    ISRC DEU241300235
    INDEX 01 00:00:00
  TRACK 02 AUDIO
    TITLE "Wake Up The World"
    PERFORMER "FM"
    ISRC DEU241300236
    INDEX 01 05:03:60
  TRACK 03 AUDIO
    TITLE "Only Foolin'"
    PERFORMER "FM"
    ISRC DEU241300237
    INDEX 01 10:20:14
  TRACK 04 AUDIO
    TITLE "Crave"
    PERFORMER "FM"
    ISRC DEU241300238
    INDEX 01 14:50:04
  TRACK 05 AUDIO
    TITLE "Show Me The Way"
    PERFORMER "FM"
    ISRC DEU241300239
    INDEX 01 19:28:63
  TRACK 06 AUDIO
    TITLE "My Love Bleeds"
    PERFORMER "FM"
    ISRC DEU241300240
    INDEX 01 23:30:08
  TRACK 07 AUDIO
    TITLE "Story Of My Life"
    PERFORMER "FM"
    ISRC DEU241300241
    INDEX 01 28:03:19
  TRACK 08 AUDIO
    TITLE "Better Late Than Never"
    PERFORMER "FM"
    ISRC DEU241300242
    INDEX 01 32:10:52
  TRACK 09 AUDIO
    TITLE "Crosstown Train"
    PERFORMER "FM"
    ISRC DEU241300243
    INDEX 01 35:32:29
  TRACK 10 AUDIO
    TITLE "Goodbye Yesterday"
    PERFORMER "FM"
    ISRC DEU241300244
    INDEX 01 41:37:67
  TRACK 11 AUDIO
    TITLE "High Cost Of Loving"
    PERFORMER "FM"
    ISRC DEU241300245
    INDEX 01 46:05:04

2013 - Rockville II | 00:42:17

Лейбл издания: MEMBRAN
Страна-выпуска диска: EU
Номер по каталогу: 233729


01.High (04:07)
02.Bad Addiction (03:55)
03.Guilty (03:46)
04.Desolation Station (01:54)
05.Runaway Train (04:34)
06.Living For The Weekend (03:53)
07.Forever And A Day (04:00)
08.Paradise Highway (04:37)
09.Brother Take Me Home (04:48)
10.Last Chance Saloon (06:47)

лог создания рипа

Exact Audio Copy V1.0 beta 3 from 29. August 2011
EAC extraction logfile from 23. April 2013, 21:32
FM / Rockville II
Used drive  : SlimtypeDVD A  DS8A5SH   Adapter: 0  ID: 1
Read mode               : Secure
Utilize accurate stream : Yes
Defeat audio cache      : Yes
Make use of C2 pointers : No
Read offset correction                      : 6
Overread into Lead-In and Lead-Out          : No
Fill up missing offset samples with silence : Yes
Delete leading and trailing silent blocks   : No
Null samples used in CRC calculations       : Yes
Used interface                              : Native Win32 interface for Win NT & 2000
Used output format              : User Defined Encoder
Selected bitrate                : 320 kBit/s
Quality                         : High
Add ID3 tag                     : No
Command line compressor         : C:\Program Files (x86)\Exact Audio Copy\Flac\flac.exe
Additional command line options : -V -8 -T "Date=%year%" -T "Genre=%genre%" %source%
TOC of the extracted CD
     Track |   Start  |  Length  | Start sector | End sector
    ---------------------------------------------------------
        1  |  0:00.00 |  4:06.67 |         0    |    18516
        2  |  4:06.67 |  3:54.58 |     18517    |    36124
        3  |  8:01.50 |  3:45.23 |     36125    |    53022
        4  | 11:46.73 |  1:53.74 |     53023    |    61571
        5  | 13:40.72 |  4:33.45 |     61572    |    82091
        6  | 18:14.42 |  3:52.65 |     82092    |    99556
        7  | 22:07.32 |  3:59.11 |     99557    |   117492
        8  | 26:06.43 |  4:36.41 |    117493    |   138233
        9  | 30:43.09 |  4:47.01 |    138234    |   159759
       10  | 35:30.10 |  6:46.26 |    159760    |   190235
Range status and errors
Selected range
     Filename D:\My Music\FM - 2013 Rockville II\FM - Rockville II.wav
     Peak level 98.0 %
     Extraction speed 1.7 X
     Range quality 99.9 %
     Test CRC FE6CD5F4
     Copy CRC FE6CD5F4
     Copy OK
No errors occurred
AccurateRip summary
Track  1  not present in database
Track  2  not present in database
Track  3  not present in database
Track  4  not present in database
Track  5  not present in database
Track  6  not present in database
Track  7  not present in database
Track  8  not present in database
Track  9  not present in database
Track 10  not present in database
None of the tracks are present in the AccurateRip database
End of status report

содержание индексной карты *cue

REM GENRE "Hard Rock"
REM DATE 2013
REM DISCID 8709E80A
REM COMMENT "ExactAudioCopy v1.0b3"
PERFORMER "FM"
TITLE "Rockville II"
FILE "FM - Rockville II.flac" WAVE
  TRACK 01 AUDIO
    TITLE "High"
    PERFORMER "FM"
    ISRC GB8DH1200035
    INDEX 01 00:00:00
  TRACK 02 AUDIO
    TITLE "Bad Addiction"
    PERFORMER "FM"
    ISRC GB8DH1200037
    INDEX 01 04:06:67
  TRACK 03 AUDIO
    TITLE "Guilty"
    PERFORMER "FM"
    ISRC GB8DH1200040
    INDEX 01 08:01:50
  TRACK 04 AUDIO
    TITLE "Desolation Station"
    PERFORMER "FM"
    ISRC GB8DH1200049
    INDEX 01 11:46:73
  TRACK 05 AUDIO
    TITLE "Runaway Train"
    PERFORMER "FM"
    ISRC GB8DH1200050
    INDEX 01 13:40:72
  TRACK 06 AUDIO
    TITLE "Living For The Weekend"
    PERFORMER "FM"
    ISRC GB8DH1200051
    INDEX 00 18:14:15
    INDEX 01 18:14:42
  TRACK 07 AUDIO
    TITLE "Forever And A Day"
    PERFORMER "FM"
    ISRC GB8DH1200052
    INDEX 01 22:07:32
  TRACK 08 AUDIO
    TITLE "Paradise Highway"
    PERFORMER "FM"
    ISRC GB8DH1200053
    INDEX 01 26:06:43
  TRACK 09 AUDIO
    TITLE "Brother Take Me Home"
    PERFORMER "FM"
    ISRC GB8DH1200054
    INDEX 01 30:43:09
  TRACK 10 AUDIO
    TITLE "Last Chance Saloon"
    PERFORMER "FM"
    ISRC GB8DH1200055
    INDEX 00 35:28:60
    INDEX 01 35:30:10

2014 - Futurama (EP) | 00:56:59

Лейбл издания: MEMBRAN
Страна-выпуска диска: EU
Номер по каталогу: 233839


01.Futurama (01:25)
02.Cold Hearted (04:12)
03.Bad That's Good In You (04:42)
04.Preying On My Mind (05:36)
05.Tough Love (live) (05:32)
06.All Or Nothing (live) (04:14)
07.Closer To Heaven (live) (06:54)
08.Crosstown Train (live) (06:14)
09.Story Of My Life (live) (05:12)
10.Breathe Fire (live) (05:17)
11.Cold Hearted (extended remix) (07:45)

лог создания рипа

Exact Audio Copy V1.0 beta 3 from 29. August 2011
EAC extraction logfile from 17. May 2015, 13:24
FM / Futurama
Used drive  : SlimtypeDVD A  DS8A5SH   Adapter: 0  ID: 0
Read mode               : Secure
Utilize accurate stream : Yes
Defeat audio cache      : Yes
Make use of C2 pointers : No
Read offset correction                      : 6
Overread into Lead-In and Lead-Out          : No
Fill up missing offset samples with silence : Yes
Delete leading and trailing silent blocks   : No
Null samples used in CRC calculations       : Yes
Used interface                              : Installed external ASPI interface
Used output format              : User Defined Encoder
Selected bitrate                : 320 kBit/s
Quality                         : High
Add ID3 tag                     : No
Command line compressor         : C:\Program Files (x86)\Exact Audio Copy\Flac\flac.exe
Additional command line options : -V -8 -T "Date=%year%" -T "Genre=%genre%" %source%
TOC of the extracted CD
     Track |   Start  |  Length  | Start sector | End sector
    ---------------------------------------------------------
        1  |  0:00.00 |  1:24.61 |         0    |     6360
        2  |  1:24.61 |  4:11.27 |      6361    |    25212
        3  |  5:36.13 |  4:41.66 |     25213    |    46353
        4  | 10:18.04 |  5:35.06 |     46354    |    71484
        5  | 15:53.10 |  5:31.72 |     71485    |    96381
        6  | 21:25.07 |  4:13.50 |     96382    |   115406
        7  | 25:38.57 |  6:53.45 |    115407    |   146426
        8  | 32:32.27 |  6:13.33 |    146427    |   174434
        9  | 38:45.60 |  5:11.68 |    174435    |   197827
       10  | 43:57.53 |  5:16.26 |    197828    |   221553
       11  | 49:14.04 |  7:44.05 |    221554    |   256358
Range status and errors
Selected range
     Filename D:\My Music\FM - 2014 Futurama (EP)\FM - Futurama.wav
     Peak level 98.0 %
     Extraction speed 4.6 X
     Range quality 100.0 %
     Test CRC 1ED0C2FB
     Copy CRC 1ED0C2FB
     Copy OK
No errors occurred
AccurateRip summary
Track  1  accurately ripped (confidence 8)  [96DBEF5B]  (AR v2)
Track  2  accurately ripped (confidence 8)  [14C0710D]  (AR v2)
Track  3  accurately ripped (confidence 8)  [9342612F]  (AR v2)
Track  4  accurately ripped (confidence 8)  [E7E80D19]  (AR v2)
Track  5  accurately ripped (confidence 6)  [CA814050]  (AR v2)
Track  6  accurately ripped (confidence 6)  [039898C8]  (AR v2)
Track  7  accurately ripped (confidence 6)  [1567DCF9]  (AR v2)
Track  8  accurately ripped (confidence 6)  [3B4E566D]  (AR v2)
Track  9  accurately ripped (confidence 6)  [F3855779]  (AR v2)
Track 10  accurately ripped (confidence 6)  [02A8A300]  (AR v2)
Track 11  accurately ripped (confidence 8)  [3690F168]  (AR v2)
All tracks accurately ripped
End of status report

содержание индексной карты *cue

REM GENRE "Melodic Hard Rock"
REM DATE 2014
REM DISCID A00D5A0B
REM COMMENT "ExactAudioCopy v1.0b3"
PERFORMER "FM"
TITLE "Futurama"
FILE "FM - Futurama.flac" WAVE
  TRACK 01 AUDIO
    TITLE "Futurama"
    PERFORMER "FM"
    INDEX 01 00:00:00
  TRACK 02 AUDIO
    TITLE "Cold Hearted"
    PERFORMER "FM"
    INDEX 01 01:24:61
  TRACK 03 AUDIO
    TITLE "Bad That's Good In You"
    PERFORMER "FM"
    INDEX 01 05:36:13
  TRACK 04 AUDIO
    TITLE "Preying On My Mind"
    PERFORMER "FM"
    INDEX 01 10:18:04
  TRACK 05 AUDIO
    TITLE "Tough Love (live)"
    PERFORMER "FM"
    INDEX 01 15:53:10
  TRACK 06 AUDIO
    TITLE "All Or Nothing (live)"
    PERFORMER "FM"
    INDEX 01 21:25:07
  TRACK 07 AUDIO
    TITLE "Closer To Heaven (live)"
    PERFORMER "FM"
    INDEX 01 25:38:57
  TRACK 08 AUDIO
    TITLE "Crosstown Train (live)"
    PERFORMER "FM"
    INDEX 01 32:32:27
  TRACK 09 AUDIO
    TITLE "Story Of My Life (live)"
    PERFORMER "FM"
    INDEX 01 38:45:60
  TRACK 10 AUDIO
    TITLE "Breathe Fire (live)"
    PERFORMER "FM"
    INDEX 01 43:57:53
  TRACK 11 AUDIO
    TITLE "Cold Hearted (extended remix)"
    PERFORMER "FM"
    INDEX 01 49:14:04

2015 - Heroes And Villains | 01:06:07

Лейбл издания: AVALON
Страна-выпуска диска: Japan
Номер по каталогу: MICP-11218


01.Digging Up The Dirt (04:33)
02.You're The Best Thing About Me (05:47)
03.Life Is A Highway (04:39)
04.Fire & Rain (04:47)
05.Incredible (03:54)
06.Call On Me (04:30)
07.Cold Hearted (04:14)
08.Shape I'm In (03:36)
09.Big Brother (05:30)
10.Somedays I Only Want To Rock & Roll (04:30)
11.I Want You (04:43)
12.Walking With Angels (04:54)
13.Bad That's Good In You (05:02)
14. Preying On My Mind (05:36)

лог создания рипа

Exact Audio Copy V1.0 beta 3 from 29. August 2011
EAC extraction logfile from 17. May 2015, 15:14
FM / Heroes And Villains
Used drive  : SlimtypeDVD A  DS8A5SH   Adapter: 0  ID: 0
Read mode               : Secure
Utilize accurate stream : Yes
Defeat audio cache      : Yes
Make use of C2 pointers : No
Read offset correction                      : 6
Overread into Lead-In and Lead-Out          : No
Fill up missing offset samples with silence : Yes
Delete leading and trailing silent blocks   : No
Null samples used in CRC calculations       : Yes
Used interface                              : Installed external ASPI interface
Used output format              : User Defined Encoder
Selected bitrate                : 320 kBit/s
Quality                         : High
Add ID3 tag                     : No
Command line compressor         : C:\Program Files (x86)\Exact Audio Copy\Flac\flac.exe
Additional command line options : -V -8 -T "Date=%year%" -T "Genre=%genre%" %source%
TOC of the extracted CD
     Track |   Start  |  Length  | Start sector | End sector
    ---------------------------------------------------------
        1  |  0:00.00 |  4:32.21 |         0    |    20420
        2  |  4:32.21 |  5:46.60 |     20421    |    46430
        3  | 10:19.06 |  4:38.46 |     46431    |    67326
        4  | 14:57.52 |  4:46.05 |     67327    |    88781
        5  | 19:43.57 |  3:53.33 |     88782    |   106289
        6  | 23:37.15 |  4:29.54 |    106290    |   126518
        7  | 28:06.69 |  4:13.32 |    126519    |   145525
        8  | 32:20.26 |  3:35.30 |    145526    |   161680
        9  | 35:55.56 |  5:29.59 |    161681    |   186414
       10  | 41:25.40 |  4:29.22 |    186415    |   206611
       11  | 45:54.62 |  4:42.25 |    206612    |   227786
       12  | 50:37.12 |  4:53.30 |    227787    |   249791
       13  | 55:30.42 |  5:01.22 |    249792    |   272388
       14  | 60:31.64 |  5:35.07 |    272389    |   297520
Range status and errors
Selected range
     Filename D:\My Music\FM - 2015 Heroes And Villains\FM - Heroes And Villains.wav
     Peak level 99.1 %
     Extraction speed 2.1 X
     Range quality 100.0 %
     Test CRC 4D0B119B
     Copy CRC 4D0B119B
     Copy OK
No errors occurred
AccurateRip summary
Track  1  not present in database
Track  2  not present in database
Track  3  not present in database
Track  4  not present in database
Track  5  not present in database
Track  6  not present in database
Track  7  not present in database
Track  8  not present in database
Track  9  not present in database
Track 10  not present in database
Track 11  not present in database
Track 12  not present in database
Track 13  not present in database
Track 14  not present in database
None of the tracks are present in the AccurateRip database
End of status report

содержание индексной карты *cue

REM GENRE "Melodic Hard Rock"
REM DATE 2015
REM DISCID D80F7E0E
REM COMMENT "ExactAudioCopy v1.0b3"
PERFORMER "FM"
TITLE "Heroes And Villains"
FILE "FM - Heroes And Villains.flac" WAVE
  TRACK 01 AUDIO
    TITLE "Digging Up The Dirt"
    PERFORMER "FM"
    INDEX 01 00:00:00
  TRACK 02 AUDIO
    TITLE "You're The Best Thing About Me"
    PERFORMER "FM"
    INDEX 01 04:32:21
  TRACK 03 AUDIO
    TITLE "Life Is A Highway"
    PERFORMER "FM"
    INDEX 01 10:19:06
  TRACK 04 AUDIO
    TITLE "Fire & Rain"
    PERFORMER "FM"
    INDEX 01 14:57:52
  TRACK 05 AUDIO
    TITLE "Incredible"
    PERFORMER "FM"
    INDEX 01 19:43:57
  TRACK 06 AUDIO
    TITLE "Call On Me"
    PERFORMER "FM"
    INDEX 01 23:37:15
  TRACK 07 AUDIO
    TITLE "Cold Hearted"
    PERFORMER "FM"
    INDEX 01 28:06:69
  TRACK 08 AUDIO
    TITLE "Shape I'm In"
    PERFORMER "FM"
    INDEX 01 32:20:26
  TRACK 09 AUDIO
    TITLE "Big Brother"
    PERFORMER "FM"
    INDEX 01 35:55:56
  TRACK 10 AUDIO
    TITLE "Somedays I Only Want To Rock & Roll"
    PERFORMER "FM"
    INDEX 01 41:25:40
  TRACK 11 AUDIO
    TITLE "I Want You"
    PERFORMER "FM"
    INDEX 01 45:54:62
  TRACK 12 AUDIO
    TITLE "Walking With Angels"
    PERFORMER "FM"
    INDEX 01 50:37:12
  TRACK 13 AUDIO
    TITLE "Bad That's Good In You"
    PERFORMER "FM"
    INDEX 00 55:28:42
    INDEX 01 55:30:42
  TRACK 14 AUDIO
    TITLE " Preying On My Mind"
    PERFORMER "FM"
    INDEX 01 60:31:64
-- --Не забываем говорить
[Профиль] [ЛС]
Показать сообщения:    

Текущее время: Сегодня 08:19

Часовой пояс: GMT



Вы не можете начинать темы
Вы не можете отвечать на сообщения
Вы не можете редактировать свои сообщения
Вы не можете удалять свои сообщения
Вы не можете голосовать в опросах
Вы не можете прикреплять файлы к сообщениям
Вы не можете скачивать файлы