Fleet Foxes - Rockpalast. 50 Jahre Grugahalle, Essen 2008 [2014, Indie folk/Baroque pop/Folk rock/Psychedelic folk, HDTV 720p]

 
Автор Сообщение

reversefile ®

Пол:

Стаж: 4 года 5 месяцев

Сообщений: 842

Откуда: ReverseFile.org



Награды: Нет

Торрент-статистика

Создавать темы 11-Авг-2014 18:53

[Цитировать]

Fleet Foxes - Rockpalast. 50 Jahre Grugahalle, Essen 2008
Жанр: Indie folk/Baroque pop/Folk rock/Psychedelic folk
Продолжительность: 00:46:04
Год выпуска: 2014
Описание: Выступление американского indie folk бэнда на музыкальном фестивале Rockpalast в немецком Ессене 2008 nov22
Доп. информация: Собственная запись со спутникового канала EinsPlus 2014 jul24
Треклист: Sun Giant
Sun It Rises
Drops In The River
English House
White Winter Hymnal
Ragged Wood
Your Protector
Crayon Angels
Oliver James
He Doesn't Know Why
Mykonos
Blue Ridge Mountains
Качество: HDTV 720p
Контейнер: TS
Видео кодек: H.264
Аудио кодек: AC3
Видео: Mpeg4 AVC, 1280x720, 12100 kbps, 50fps Progressive
Аудио: AC3, 448 kbps, 48 kHz, stereo
Аудио 2: MP2, 192 kbps, 48 kHz, stereo
Аудио 3: MP2, 192 kbps, 48 kHz, stereo

Отчёт MediaInfo / BDInfo

GeneralID : 1 (0x1)Complete name : D:\Downloads\Fleet Foxes - Rockpalast. 50 Jahre Grugahalle, Essen 2008.tsFormat : MPEG-TSFile size : 4.38 GiBDuration : 46mn 4sOverall bit rate mode : VariableOverall bit rate : 13.6 Mbps
VideoID : 5421 (0x152D)Menu ID : 1 (0x1)Format : AVCFormat/Info : Advanced Video CodecFormat profile : High@L4.0Format settings, CABAC : YesFormat settings, ReFrames : 4 framesCodec ID : 27Duration : 46mn 4sBit rate : 12.1 MbpsWidth : 1 280 pixelsHeight : 720 pixelsDisplay aspect ratio : 16:9Frame rate : 50.000 fpsColor space : YUVChroma subsampling : 4:2:0Bit depth : 8 bitsScan type : ProgressiveBits/(Pixel*Frame) : 0.263Stream size : 3.89 GiB (89%)
Audio #1ID : 5422 (0x152E)Menu ID : 1 (0x1)Format : MPEG AudioFormat version : Version 1Format profile : Layer 2Codec ID : 3Duration : 46mn 4sBit rate mode : ConstantBit rate : 192 KbpsChannel(s) : 2 channelsSampling rate : 48.0 KHzCompression mode : LossyStream size : 63.3 MiB (1%)Language : German
Audio #2ID : 5423 (0x152F)Menu ID : 1 (0x1)Format : MPEG AudioFormat version : Version 1Format profile : Layer 2Codec ID : 3Duration : 46mn 4sBit rate mode : ConstantBit rate : 192 KbpsChannel(s) : 2 channelsSampling rate : 48.0 KHzCompression mode : LossyStream size : 63.3 MiB (1%)
Audio #3ID : 5426 (0x1532)Menu ID : 1 (0x1)Format : AC-3Format/Info : Audio Coding 3Mode extension : CM (complete main)Format settings, Endianness : BigCodec ID : 6Duration : 46mn 4sBit rate mode : ConstantBit rate : 448 KbpsChannel(s) : 2 channelsChannel positions : Front: L RSampling rate : 48.0 KHzBit depth : 16 bitsCompression mode : LossyStream size : 148 MiB (3%)Language : German
TextID : 5424 (0x1530)-100Menu ID : 1 (0x1)Format : TeletextLanguage : German
MenuID : 5420 (0x152C)Menu ID : 1 (0x1)Duration : 46mn 4sList : 5421 (0x152D) (AVC) / 5422 (0x152E) (MPEG Audio, German) / 5423 (0x152F) (MPEG Audio) / 5426 (0x1532) (AC-3, German) / 5424 (0x1530) ()Language : / German / / German

Скриншоты

[Профиль] [ЛС]
Кто просматривает тему:

Показать сообщения:    

Текущее время: Сегодня 10:32

Часовой пояс: GMT



Вы не можете начинать темы
Вы не можете отвечать на сообщения
Вы не можете редактировать свои сообщения
Вы не можете удалять свои сообщения
Вы не можете голосовать в опросах
Вы не можете прикреплять файлы к сообщениям
Вы не можете скачивать файлы