(Italo Disco, Disco)Fancy - It`s me! Fancy! (1994) The Hits 1984-1994 [FLAC|Lossless]

 
Автор Сообщение

sergej644 ®

Пол:

Стаж: 4 года 11 месяцев

Сообщений: 6038

Откуда: Soviet Union



Награды: Нет

Торрент-статистика

Создавать темы 25-Дек-2014 00:20

[Цитировать]

-Fancy - It`s me! Fancy! (1994)- Год: 1994
Жанр: Italo Disco, Disco
Кодек: FLAC
Битрейт: Lossless
Тип рипа : Image+cue
Label: Koch International (Germany)
Catalog # : 341 31 - 2 W1
Трек лист:
Продолжительность: 01:01:04
01. Flames Of Love
02. Fools Cry
03. Lady Of Ice
04. Slice Me Nice
05. Chinese Eyes
06. Bolero (Hold Me In Your Arms Again)
07. When Guardian Angles Cry
08. Bride In Black
09. C'est La Vie
10. No More Sin
11. Cool Jerk
12. My Emotional Way
13. Running Man
14. Deep In My Heart
15. Long Way To Paradise
16. Wait By The Radio

Содержание файла .cue:

REM GENRE EuroDisco
REM DATE 1994
REM DISCID EB0E5010
REM COMMENT "ExactAudioCopy v0.99pb4"
PERFORMER "Fancy"
TITLE "It's Me Fancy (The Hits 1984 - 1994)"
FILE "Fancy - It's Me Fancy (The Hits 1984 - 1994).flac" WAVE
  TRACK 01 AUDIO
    TITLE "Flames Of Love"
    PERFORMER "Fancy"
    INDEX 01 00:00:00
  TRACK 02 AUDIO
    TITLE "Fools Cry"
    PERFORMER "Fancy"
    INDEX 01 04:02:30
  TRACK 03 AUDIO
    TITLE "Lady Of Ice"
    PERFORMER "Fancy"
    INDEX 01 07:57:13
  TRACK 04 AUDIO
    TITLE "Slice Me Nice"
    PERFORMER "Fancy"
    INDEX 01 12:33:55
  TRACK 05 AUDIO
    TITLE "Chinese Eyes"
    PERFORMER "Fancy"
    INDEX 01 16:43:10
  TRACK 06 AUDIO
    TITLE "Bolero (Hold Me In Your Arms Again)"
    PERFORMER "Fancy"
    INDEX 01 21:12:45
  TRACK 07 AUDIO
    TITLE "When Guardian Angles Cry"
    PERFORMER "Fancy"
    INDEX 01 25:17:53
  TRACK 08 AUDIO
    TITLE "Bride In Black"
    PERFORMER "Fancy"
    INDEX 01 29:16:00
  TRACK 09 AUDIO
    TITLE "C'est La Vie"
    PERFORMER "Fancy"
    INDEX 01 32:55:35
  TRACK 10 AUDIO
    TITLE "No More Sin"
    PERFORMER "Fancy"
    INDEX 01 36:44:70
  TRACK 11 AUDIO
    TITLE "Cool Jerk"
    PERFORMER "Fancy"
    INDEX 01 39:57:00
  TRACK 12 AUDIO
    TITLE "My Emotional Way"
    PERFORMER "Fancy"
    INDEX 01 43:12:53
  TRACK 13 AUDIO
    TITLE "Running Man"
    PERFORMER "Fancy"
    INDEX 01 47:03:18
  TRACK 14 AUDIO
    TITLE "Deep In My Heart"
    PERFORMER "Fancy"
    INDEX 01 50:10:68
  TRACK 15 AUDIO
    TITLE "Long Way To Paradise"
    PERFORMER "Fancy"
    INDEX 01 53:05:60
  TRACK 16 AUDIO
    TITLE "Wait By The Radio"
    PERFORMER "Fancy"
    INDEX 01 56:59:28

Отчёт ЕАС:

Exact Audio Copy V0.99 prebeta 4 from 23. January 2008
Отчёт EAC об извлечении, выполненном 31. октября 2008, 22:32
Fancy / It's Me Fancy (The Hits 1984 - 1994)
Дисковод: _NEC    DVD_RW ND-4571A   Adapter: 1  ID: 0
Режим чтения                 : Достоверность
Использование точного потока : Да
Отключение кэша аудио        : Да
Использование указателей C2  : Нет
Коррекция смещения при чтении                     : 48
Способность читать области Lead-in и Lead-out     : Нет
Заполнение пропущенных сэмплов тишиной            : Да
Удаление блоков с тишиной в начале и конце        : Нет
При вычислениях CRC использовались нулевые сэмплы : Да
Интерфейс                                         : Встроенный Win32-интерфейс для Win NT/2000
Выходной формат : Внутренние WAV-операции
Формат сэмплов  : 44.100 Гц; 16 бит; стерео
TOC извлечённого CD
     Трек |   Старт  | Длительность | Начальный сектор | Конечный сектор
    ---------------------------------------------------------------------
       1  |  0:00.00 |    4:02.30   |           0      |      18179
       2  |  4:02.30 |    3:54.58   |       18180      |      35787
       3  |  7:57.13 |    4:36.42   |       35788      |      56529
       4  | 12:33.55 |    4:09.30   |       56530      |      75234
       5  | 16:43.10 |    4:29.35   |       75235      |      95444
       6  | 21:12.45 |    4:05.08   |       95445      |     113827
       7  | 25:17.53 |    3:58.22   |      113828      |     131699
       8  | 29:16.00 |    3:39.35   |      131700      |     148159
       9  | 32:55.35 |    3:49.35   |      148160      |     165369
      10  | 36:44.70 |    3:12.05   |      165370      |     179774
      11  | 39:57.00 |    3:15.53   |      179775      |     194452
      12  | 43:12.53 |    3:50.40   |      194453      |     211742
      13  | 47:03.18 |    3:07.50   |      211743      |     225817
      14  | 50:10.68 |    2:54.67   |      225818      |     238934
      15  | 53:05.60 |    3:53.43   |      238935      |     256452
      16  | 56:59.28 |    4:05.05   |      256453      |     274832
Характеристики диапазона извлечения и сообщения об ошибках
Выбранный диапазон
     Имя файла Z:\Temp\Fancy - It's Me Fancy (The Hits 1984 - 1994).wav
     Пиковый уровень 100.0 %
     Качество диапазона 100.0 %
     CRC теста D9FE7C1E
     CRC копии D9FE7C1E
     Копирование... OK
Ошибок не произошло
AccurateRip: сводка
Трек  1  нет в базе данных
Трек  2  нет в базе данных
Трек  3  нет в базе данных
Трек  4  нет в базе данных
Трек  5  нет в базе данных
Трек  6  нет в базе данных
Трек  7  нет в базе данных
Трек  8  нет в базе данных
Трек  9  нет в базе данных
Трек 10  нет в базе данных
Трек 11  нет в базе данных
Трек 12  нет в базе данных
Трек 13  нет в базе данных
Трек 14  нет в базе данных
Трек 15  нет в базе данных
Трек 16  нет в базе данных
Ни одного трека нет в базе AccurateRip
Конец отчёта
[Профиль] [ЛС]

Создавать темы 13-Авг-2015 10:41 (спустя 7 месяцев 19 дней)

Топик был перенесен из форума Зарубежная в форум Technopop, Eurodance, Disco
sergej644
 
Показать сообщения:    

Текущее время: Сегодня 22:12

Часовой пояс: GMT



Вы не можете начинать темы
Вы не можете отвечать на сообщения
Вы не можете редактировать свои сообщения
Вы не можете удалять свои сообщения
Вы не можете голосовать в опросах
Вы не можете прикреплять файлы к сообщениям
Вы не можете скачивать файлы