Fancy - 25th Anniversary Box (1985-1990)5CD Box-Set /Remastered, 2010 4everMUSIC /[FLAC|Lossless]<Italo-Disco, Synth-pop, Disco>

 
Автор Сообщение

sergej644 ®

Пол:

Стаж: 4 года 11 месяцев

Сообщений: 6044

Откуда: Soviet Union



Награды: Нет

Торрент-статистика

Создавать темы 24-Дек-2014 23:58

[Цитировать]

-Fancy - 25th Anniversary Box (1985-1990)- -Год записи: 1985-1990 Год ремастеринга: 2010 Страна-производитель диска: Poland Издатель (лейбл): 4everMUSIC-Номер по каталогу #: 141-145 Жанр: Italo-Disco, Synth-pop, Disco Продолжительность: 06:23:13-Кодек: FLAC (*.flac) Битрейт: Lossless Тип рипа: image+.cue Спасибо: Stanics-Fancy (Манфред Алоис Зегит) — немецкий певец, исполняющий песни в стиле евродиско. В 2010 году в честь 25-ти летия начала музыкальной карьеры вышел в свет пятидисковый box включающий лучшие его альбомы с дополнительными бонусами. -

CD 1 - Get Your Kicks (1985&#41;

Продолжитeльность: 01:17:01
Треклист:
01.Colder Than Ice (5:06)
02.Get Your Kicks (5:32)
03.L.A.D.Y. O. (4:22)
04.Slice Me Nice (5:27)
05.Chinese Eyes (5:50)
06.Check It Out (6:56)
07.Blood And Honey (6:14)
08.In Shock (5:41)
Bonus Tracks:
09.L.A.D.Y. O. (Maxi Single Version) (5:37)
10.Don't Know How To Cool It (5:41)
11.Get Lost Tonight (12'' Version) (6:30)
12.Burnin' Out The Light (4:18)
13.Come Inside (American Remix #1) (9:47)

Отчёт ЕАС&#58;

Exact Audio Copy V0.99 prebeta 5 from 4. May 2009
Отчёт EAC об извлечении, выполненном 9. августа 2010, 10:50
Fancy / CD1.Get Your Kicks
Дисковод: ASUS    DRW-2014S1T   Adapter: 0  ID: 4
Режим чтения                 : Достоверность
Использование точного потока : Да
Отключение кэша аудио        : Да
Использование указателей C2  : Нет
Коррекция смещения при чтении                     : 6
Способность читать области Lead-in и Lead-out     : Нет
Заполнение пропущенных сэмплов тишиной            : Да
Удаление блоков с тишиной в начале и конце        : Нет
При вычислениях CRC использовались нулевые сэмплы : Да
Интерфейс                                         : Установленный внешний ASPI-интерфейс
Выходной формат : Внутренние WAV-операции
Формат сэмплов  : 44.100 Гц; 16 бит; стерео
TOC извлечённого CD
     Трек |   Старт  | Длительность | Начальный сектор | Конечный сектор
    ---------------------------------------------------------------------
       1  |  0:00.00 |    5:06.07   |           0      |      22956
       2  |  5:06.07 |    5:31.74   |       22957      |      47855
       3  | 10:38.06 |    4:21.74   |       47856      |      67504
       4  | 15:00.05 |    5:26.74   |       67505      |      92028
       5  | 20:27.04 |    5:49.74   |       92029      |     118277
       6  | 26:17.03 |    6:55.74   |      118278      |     149476
       7  | 33:13.02 |    6:14.00   |      149477      |     177526
       8  | 39:27.02 |    5:40.74   |      177527      |     203100
       9  | 45:08.01 |    5:36.74   |      203101      |     228374
      10  | 50:45.00 |    5:40.74   |      228375      |     253948
      11  | 56:25.74 |    6:29.74   |      253949      |     283197
      12  | 62:55.73 |    4:18.24   |      283198      |     302571
      13  | 67:14.22 |    9:46.74   |      302572      |     346595
Характеристики диапазона извлечения и сообщения об ошибках
Выбранный диапазон
     Имя файла Z:\Temp\Fancy - CD1.Get Your Kicks.wav
     Пиковый уровень 96.7 %
     Качество диапазона 100.0 %
     CRC теста D23D8D16
     CRC копии D23D8D16
     Копирование... OK
Ошибок не произошло
AccurateRip: сводка
Трек  1  нет в базе данных
Трек  2  нет в базе данных
Трек  3  нет в базе данных
Трек  4  нет в базе данных
Трек  5  нет в базе данных
Трек  6  нет в базе данных
Трек  7  нет в базе данных
Трек  8  нет в базе данных
Трек  9  нет в базе данных
Трек 10  нет в базе данных
Трек 11  нет в базе данных
Трек 12  нет в базе данных
Трек 13  нет в базе данных
Ни одного трека нет в базе AccurateRip
Конец отчёта

Отчёт auCDtect Task manager&#58;

-----------------------
DON'T MODIFY THIS FILE
-----------------------
PERFORMER: auCDtect Task Manager, ver. 1.6.0 RC1 build 1.6.0.1
Copyright (c) 2008-2010 y-soft. All rights reserved
http://y-soft.org
ANALYZER: auCDtect: CD records authenticity detector, version 0.8.2
Copyright (c) 2004 Oleg Berngardt. All rights reserved.
Copyright (c) 2004 Alexander Djourik. All rights reserved.
FILE: Fancy - CD1.Get Your Kicks.flac
  Size: 548590493 Hash: 4785777BEE888D971BC9A43213C58943 Accuracy: -m0
  Conclusion: CDDA 100%
  Signature: 64281CBC1318EEC60B001AFC4BF560C97ACA4D5F

Содержание индексной карты .CUE&#58;

REM GENRE EuroDisco
REM DATE 2010
REM DISCID C4120D0D
REM COMMENT "ExactAudioCopy v0.99pb5"
PERFORMER "Fancy"
TITLE "CD1.Get Your Kicks"
FILE "Fancy - CD1.Get Your Kicks.flac" WAVE
  TRACK 01 AUDIO
    TITLE "Colder Than Ice"
    PERFORMER "Fancy"
    INDEX 01 00:00:00
  TRACK 02 AUDIO
    TITLE "Get Your Kicks"
    PERFORMER "Fancy"
    INDEX 01 05:06:07
  TRACK 03 AUDIO
    TITLE "L.A.D.Y. O."
    PERFORMER "Fancy"
    INDEX 01 10:38:06
  TRACK 04 AUDIO
    TITLE "Slice Me Nice"
    PERFORMER "Fancy"
    INDEX 01 15:00:05
  TRACK 05 AUDIO
    TITLE "Chinese Eyes"
    PERFORMER "Fancy"
    INDEX 01 20:27:04
  TRACK 06 AUDIO
    TITLE "Check It Out"
    PERFORMER "Fancy"
    INDEX 01 26:17:03
  TRACK 07 AUDIO
    TITLE "Blood And Honey"
    PERFORMER "Fancy"
    INDEX 01 33:13:02
  TRACK 08 AUDIO
    TITLE "In Shock"
    PERFORMER "Fancy"
    INDEX 01 39:27:02
  TRACK 09 AUDIO
    TITLE "L.A.D.Y. O. (Maxi Single Version)"
    PERFORMER "Fancy"
    INDEX 01 45:08:01
  TRACK 10 AUDIO
    TITLE "Don't Know How To Cool It"
    PERFORMER "Fancy"
    INDEX 01 50:45:00
  TRACK 11 AUDIO
    TITLE "Get Lost Tonight (12'' Version)"
    PERFORMER "Fancy"
    INDEX 01 56:25:74
  TRACK 12 AUDIO
    TITLE "Burnin' Out The Light"
    PERFORMER "Fancy"
    INDEX 01 62:55:73
  TRACK 13 AUDIO
    TITLE "Come Inside (American Remix #1)"
    PERFORMER "Fancy"
    INDEX 01 67:14:22

CD 2 - Contact (1986&#41;

Продолжитeльность: 01:14:10
Трeклист:
01.Raving Queen (4:22)
02.I Don't Want To Go (4:07)
03.Bolero (Hold Me In Your Arms Again) (4:05)
04.Feedback, Feedback (5:04)
05.Save The Moment (4:21)
06.Lady Of Ice (4:37)
07.Girl Don't Let Me Down (4:21)
08.Latin Fire (5:12)
09.After Midnight (4:41)
Bonus Tracks:
10.Lady Of Ice (12'' Version) (4:56)
11.Transmutation (Instrumental) (4:01)
12.Raving Queen (12'' Version) (5:15)
13.Raving Queen (Instrumental) (3:54)
14.Bolero (Hold Me In Your Arms Again) (12'' Version) (5:41)
15.Play Me The Bolero (Dub Version) (3:43)
16.Latin Fire (12'' Version) (5:51)

Отчёт ЕАС&#58;

Exact Audio Copy V0.99 prebeta 5 from 4. May 2009
Отчёт EAC об извлечении, выполненном 9. августа 2010, 11:10
Fancy / CD2.Contact
Дисковод: ASUS    DRW-2014S1T   Adapter: 0  ID: 4
Режим чтения                 : Достоверность
Использование точного потока : Да
Отключение кэша аудио        : Да
Использование указателей C2  : Нет
Коррекция смещения при чтении                     : 6
Способность читать области Lead-in и Lead-out     : Нет
Заполнение пропущенных сэмплов тишиной            : Да
Удаление блоков с тишиной в начале и конце        : Нет
При вычислениях CRC использовались нулевые сэмплы : Да
Интерфейс                                         : Установленный внешний ASPI-интерфейс
Выходной формат : Внутренние WAV-операции
Формат сэмплов  : 44.100 Гц; 16 бит; стерео
TOC извлечённого CD
     Трек |   Старт  | Длительность | Начальный сектор | Конечный сектор
    ---------------------------------------------------------------------
       1  |  0:00.00 |    4:21.74   |           0      |      19648
       2  |  4:21.74 |    4:06.74   |       19649      |      38172
       3  |  8:28.73 |    4:04.74   |       38173      |      56546
       4  | 12:33.72 |    5:03.74   |       56547      |      79345
       5  | 17:37.71 |    4:20.74   |       79346      |      98919
       6  | 21:58.70 |    4:36.74   |       98920      |     119693
       7  | 26:35.69 |    4:20.74   |      119694      |     139267
       8  | 30:56.68 |    5:11.74   |      139268      |     162666
       9  | 36:08.67 |    4:40.74   |      162667      |     183740
      10  | 40:49.66 |    4:55.74   |      183741      |     205939
      11  | 45:45.65 |    4:00.74   |      205940      |     224013
      12  | 49:46.64 |    5:14.74   |      224014      |     247637
      13  | 55:01.63 |    3:53.74   |      247638      |     265186
      14  | 58:55.62 |    5:40.74   |      265187      |     290760
      15  | 64:36.61 |    3:42.74   |      290761      |     307484
      16  | 68:19.60 |    5:50.74   |      307485      |     333808
Характеристики диапазона извлечения и сообщения об ошибках
Выбранный диапазон
     Имя файла Z:\Temp\Fancy - CD2.Contact.wav
     Пиковый уровень 96.9 %
     Качество диапазона 100.0 %
     CRC теста 1074389E
     CRC копии 1074389E
     Копирование... OK
Ошибок не произошло
AccurateRip: сводка
Трек  1  нет в базе данных
Трек  2  нет в базе данных
Трек  3  нет в базе данных
Трек  4  нет в базе данных
Трек  5  нет в базе данных
Трек  6  нет в базе данных
Трек  7  нет в базе данных
Трек  8  нет в базе данных
Трек  9  нет в базе данных
Трек 10  нет в базе данных
Трек 11  нет в базе данных
Трек 12  нет в базе данных
Трек 13  нет в базе данных
Трек 14  нет в базе данных
Трек 15  нет в базе данных
Трек 16  нет в базе данных
Ни одного трека нет в базе AccurateRip
Конец отчёта

Отчёт auCDtect Task manager&#58;

-----------------------
DON'T MODIFY THIS FILE
-----------------------
PERFORMER: auCDtect Task Manager, ver. 1.6.0 RC1 build 1.6.0.1
Copyright (c) 2008-2010 y-soft. All rights reserved
http://y-soft.org
ANALYZER: auCDtect: CD records authenticity detector, version 0.8.2
Copyright (c) 2004 Oleg Berngardt. All rights reserved.
Copyright (c) 2004 Alexander Djourik. All rights reserved.
FILE: Fancy - CD2.Contact.flac
  Size: 528078555 Hash: F219C640B8A701DBB6A5CBEF8E7B00DA Accuracy: -m0
  Conclusion: CDDA 100%
  Signature: A92BE374B5161C989EAC2C1B85EA72C8BF5A2B19

Содержание индексной карты .CUE&#58;

REM GENRE EuroDisco
REM DATE 2010
REM DISCID E5116210
REM COMMENT "ExactAudioCopy v0.99pb5"
PERFORMER "Fancy"
TITLE "CD2.Contact"
FILE "Fancy - CD2.Contact.flac" WAVE
  TRACK 01 AUDIO
    TITLE "Raving Queen"
    PERFORMER "Fancy"
    INDEX 01 00:00:00
  TRACK 02 AUDIO
    TITLE "I Don't Want To Go"
    PERFORMER "Fancy"
    INDEX 00 04:20:74
    INDEX 01 04:21:74
  TRACK 03 AUDIO
    TITLE "Bolero (Hold Me In Your Arms Again)"
    PERFORMER "Fancy"
    INDEX 00 08:27:73
    INDEX 01 08:28:73
  TRACK 04 AUDIO
    TITLE "Feedback, Feedback"
    PERFORMER "Fancy"
    INDEX 00 12:32:72
    INDEX 01 12:33:72
  TRACK 05 AUDIO
    TITLE "Save The Moment"
    PERFORMER "Fancy"
    INDEX 00 17:36:71
    INDEX 01 17:37:71
  TRACK 06 AUDIO
    TITLE "Lady Of Ice"
    PERFORMER "Fancy"
    INDEX 00 21:57:70
    INDEX 01 21:58:70
  TRACK 07 AUDIO
    TITLE "Girl Don't Let Me Down"
    PERFORMER "Fancy"
    INDEX 00 26:34:69
    INDEX 01 26:35:69
  TRACK 08 AUDIO
    TITLE "Latin Fire"
    PERFORMER "Fancy"
    INDEX 00 30:55:68
    INDEX 01 30:56:68
  TRACK 09 AUDIO
    TITLE "After Midnight"
    PERFORMER "Fancy"
    INDEX 00 36:07:67
    INDEX 01 36:08:67
  TRACK 10 AUDIO
    TITLE "Lady Of Ice (12'' Version)"
    PERFORMER "Fancy"
    INDEX 00 40:48:66
    INDEX 01 40:49:66
  TRACK 11 AUDIO
    TITLE "Transmutation (Instrumental)"
    PERFORMER "Fancy"
    INDEX 00 45:44:65
    INDEX 01 45:45:65
  TRACK 12 AUDIO
    TITLE "Raving Queen (12'' Version)"
    PERFORMER "Fancy"
    INDEX 00 49:45:64
    INDEX 01 49:46:64
  TRACK 13 AUDIO
    TITLE "Raving Queen (Instrumental)"
    PERFORMER "Fancy"
    INDEX 00 55:00:63
    INDEX 01 55:01:63
  TRACK 14 AUDIO
    TITLE "Bolero (Hold Me In Your Arms Again) (12'' Version)"
    PERFORMER "Fancy"
    INDEX 00 58:54:62
    INDEX 01 58:55:62
  TRACK 15 AUDIO
    TITLE "Play Me The Bolero (Dub Version)"
    PERFORMER "Fancy"
    INDEX 00 64:35:61
    INDEX 01 64:36:61
  TRACK 16 AUDIO
    TITLE "Latin Fire (12'' Version)"
    PERFORMER "Fancy"
    INDEX 00 68:18:60
    INDEX 01 68:19:60

CD 3 - Flames Of Love (1988&#41;

Продолжитeльность: 01:19:12
Трeклист:
01.Flames Of Love (4:03)
02.Moscow Is Calling (5:11)
03.I Can't Live Without You (Lonely Nights) (5:36)
04.What's Your Name, What's Your Game (3:55)
05.Bodyguard (6:26)
06.Spy In The Night (3:28)
07.Tonight The Devil Wins My Soul (4:15)
08.Blue Eyed Lady (3:47)
09.China Blue (4:41)
10.Turbo Dancer Remix (8:14)
Bonus Tracks:
11.Flames Of Love (Extended Version) (5:23)
12.China Blue (Extended Version) (5:24)
13.China Blue (Instrumental) (3:38)
14.Fools Cry (Extended Version) (5:37)
15.Fools Cry (Remix) (5:59)
16.Fools Cry (Instrumental) (3:38)

Отчёт ЕАС&#58;

Exact Audio Copy V0.99 prebeta 5 from 4. May 2009
Отчёт EAC об извлечении, выполненном 9. августа 2010, 11:35
Fancy / CD3.Flames Of Love
Дисковод: ASUS    DRW-2014S1T   Adapter: 0  ID: 4
Режим чтения                 : Достоверность
Использование точного потока : Да
Отключение кэша аудио        : Да
Использование указателей C2  : Нет
Коррекция смещения при чтении                     : 6
Способность читать области Lead-in и Lead-out     : Нет
Заполнение пропущенных сэмплов тишиной            : Да
Удаление блоков с тишиной в начале и конце        : Нет
При вычислениях CRC использовались нулевые сэмплы : Да
Интерфейс                                         : Установленный внешний ASPI-интерфейс
Выходной формат : Внутренние WAV-операции
Формат сэмплов  : 44.100 Гц; 16 бит; стерео
TOC извлечённого CD
     Трек |   Старт  | Длительность | Начальный сектор | Конечный сектор
    ---------------------------------------------------------------------
       1  |  0:00.00 |    4:02.60   |           0      |      18209
       2  |  4:02.60 |    5:10.43   |       18210      |      41502
       3  |  9:13.28 |    5:35.59   |       41503      |      66686
       4  | 14:49.12 |    3:54.70   |       66687      |      84306
       5  | 18:44.07 |    6:25.38   |       84307      |     113219
       6  | 25:09.45 |    3:28.26   |      113220      |     128845
       7  | 28:37.71 |    4:14.47   |      128846      |     147942
       8  | 32:52.43 |    3:46.57   |      147943      |     164949
       9  | 36:39.25 |    4:40.73   |      164950      |     186022
      10  | 41:20.23 |    8:13.56   |      186023      |     223053
      11  | 49:34.04 |    5:22.74   |      223054      |     247277
      12  | 54:57.03 |    5:23.74   |      247278      |     271576
      13  | 60:21.02 |    3:37.74   |      271577      |     287925
      14  | 63:59.01 |    5:36.70   |      287926      |     313195
      15  | 69:35.71 |    5:58.74   |      313196      |     340119
      16  | 75:34.70 |    3:37.74   |      340120      |     356468
Характеристики диапазона извлечения и сообщения об ошибках
Выбранный диапазон
     Имя файла Z:\Temp\Fancy - CD3.Flames Of Love.wav
     Пиковый уровень 96.6 %
     Качество диапазона 100.0 %
     CRC теста 007E8023
     CRC копии 007E8023
     Копирование... OK
Ошибок не произошло
AccurateRip: сводка
Трек  1  нет в базе данных
Трек  2  нет в базе данных
Трек  3  нет в базе данных
Трек  4  нет в базе данных
Трек  5  нет в базе данных
Трек  6  нет в базе данных
Трек  7  нет в базе данных
Трек  8  нет в базе данных
Трек  9  нет в базе данных
Трек 10  нет в базе данных
Трек 11  нет в базе данных
Трек 12  нет в базе данных
Трек 13  нет в базе данных
Трек 14  нет в базе данных
Трек 15  нет в базе данных
Трек 16  нет в базе данных
Ни одного трека нет в базе AccurateRip
Конец отчёта

Отчёт auCDtect Task manager&#58;

-----------------------
DON'T MODIFY THIS FILE
-----------------------
PERFORMER: auCDtect Task Manager, ver. 1.6.0 RC1 build 1.6.0.1
Copyright (c) 2008-2010 y-soft. All rights reserved
http://y-soft.org
ANALYZER: auCDtect: CD records authenticity detector, version 0.8.2
Copyright (c) 2004 Oleg Berngardt. All rights reserved.
Copyright (c) 2004 Alexander Djourik. All rights reserved.
FILE: Fancy - CD3.Flames Of Love.flac
  Size: 576025341 Hash: 0C45750C0EE451C64D1ACF3B6FF9A72E Accuracy: -m0
  Conclusion: MPEG 95%
  Signature: 6FE9DD75D3B23D3D3BF8F921F9C535D94A17D214

Содержание индексной карты .CUE&#58;

REM GENRE EuroDisco
REM DATE 2010
REM DISCID ED129010
REM COMMENT "ExactAudioCopy v0.99pb5"
PERFORMER "Fancy"
TITLE "CD3.Flames Of Love"
FILE "Fancy - CD3.Flames Of Love.flac" WAVE
  TRACK 01 AUDIO
    TITLE "Flames Of Love"
    PERFORMER "Fancy"
    INDEX 01 00:00:00
  TRACK 02 AUDIO
    TITLE "Moscow Is Calling"
    PERFORMER "Fancy"
    INDEX 00 04:01:60
    INDEX 01 04:02:60
  TRACK 03 AUDIO
    TITLE "I Can't Live Without You (Lonely Nights)"
    PERFORMER "Fancy"
    INDEX 00 09:12:28
    INDEX 01 09:13:28
  TRACK 04 AUDIO
    TITLE "What's Your Name, What's Your Game"
    PERFORMER "Fancy"
    INDEX 00 14:48:12
    INDEX 01 14:49:12
  TRACK 05 AUDIO
    TITLE "Bodyguard"
    PERFORMER "Fancy"
    INDEX 00 18:43:07
    INDEX 01 18:44:07
  TRACK 06 AUDIO
    TITLE "Spy In The Night"
    PERFORMER "Fancy"
    INDEX 00 25:08:45
    INDEX 01 25:09:45
  TRACK 07 AUDIO
    TITLE "Tonight The Devil Wins My Soul"
    PERFORMER "Fancy"
    INDEX 00 28:36:71
    INDEX 01 28:37:71
  TRACK 08 AUDIO
    TITLE "Blue Eyed Lady"
    PERFORMER "Fancy"
    INDEX 00 32:51:43
    INDEX 01 32:52:43
  TRACK 09 AUDIO
    TITLE "China Blue"
    PERFORMER "Fancy"
    INDEX 00 36:38:25
    INDEX 01 36:39:25
  TRACK 10 AUDIO
    TITLE "Turbo Dancer Remix"
    PERFORMER "Fancy"
    INDEX 00 41:19:23
    INDEX 01 41:20:23
  TRACK 11 AUDIO
    TITLE "Flames Of Love (Extended Version)"
    PERFORMER "Fancy"
    INDEX 00 49:33:04
    INDEX 01 49:34:04
  TRACK 12 AUDIO
    TITLE "China Blue (Extended Version)"
    PERFORMER "Fancy"
    INDEX 00 54:56:03
    INDEX 01 54:57:03
  TRACK 13 AUDIO
    TITLE "China Blue (Instrumental)"
    PERFORMER "Fancy"
    INDEX 00 60:20:02
    INDEX 01 60:21:02
  TRACK 14 AUDIO
    TITLE "Fools Cry (Extended Version)"
    PERFORMER "Fancy"
    INDEX 00 63:58:01
    INDEX 01 63:59:01
  TRACK 15 AUDIO
    TITLE "Fools Cry (Remix)"
    PERFORMER "Fancy"
    INDEX 00 69:34:71
    INDEX 01 69:35:71
  TRACK 16 AUDIO
    TITLE "Fools Cry (Instrumental)"
    PERFORMER "Fancy"
    INDEX 00 75:33:70
    INDEX 01 75:34:70

Спектрограмма&#58;

CD 4 - All My Loving (1989&#41;

Продолжитeльность: 01:16:44
Трeклист:
01.Angel Eyes (3:46)
02.A Voice In The Dark (3:53)
03.Pure Love (3:23)
04.Don't Fight With The Moon (3:25)
05.Ways Of Love (4:26)
06.Sail Away (3:50)
07.Running Man (3:37)
08.My Emotional Way (4:11)
09.All My Loving (1:58)
10.Seven Sins (3:59)
11.Stand Up For Love (4:12)
12.Luxury Life (3:37)
Bonus Tracks:
13.Go Cha Cha (3:06)
14.No Tears (3:18)
15.Follow Me (4:35)
16.Angel Eyes (Extended Version) (5:02)
17.Running Man (Extended Version) (5:52)
18.No Tears (Extended Version) (5:29)
19.Fools Cry Rap (Feat. Grandmaster Tess & Steve D5) (Extended) (5:05)

Отчёт ЕАС&#58;

Exact Audio Copy V0.99 prebeta 5 from 4. May 2009
Отчёт EAC об извлечении, выполненном 9. августа 2010, 22:47
Fancy / CD4.All My Loving
Дисковод: ASUS    DRW-2014S1T   Adapter: 0  ID: 4
Режим чтения                 : Достоверность
Использование точного потока : Да
Отключение кэша аудио        : Да
Использование указателей C2  : Нет
Коррекция смещения при чтении                     : 6
Способность читать области Lead-in и Lead-out     : Нет
Заполнение пропущенных сэмплов тишиной            : Да
Удаление блоков с тишиной в начале и конце        : Нет
При вычислениях CRC использовались нулевые сэмплы : Да
Интерфейс                                         : Установленный внешний ASPI-интерфейс
Выходной формат : Внутренние WAV-операции
Формат сэмплов  : 44.100 Гц; 16 бит; стерео
TOC извлечённого CD
     Трек |   Старт  | Длительность | Начальный сектор | Конечный сектор
    ---------------------------------------------------------------------
       1  |  0:01.00 |    3:45.41   |          75      |      16990
       2  |  3:46.41 |    3:53.35   |       16991      |      34500
       3  |  7:40.01 |    3:23.15   |       34501      |      49740
       4  | 11:03.16 |    3:25.16   |       49741      |      65131
       5  | 14:28.32 |    4:25.65   |       65132      |      85071
       6  | 18:54.22 |    3:50.19   |       85072      |     102340
       7  | 22:44.41 |    3:36.66   |      102341      |     118606
       8  | 26:21.32 |    4:11.17   |      118607      |     137448
       9  | 30:32.49 |    1:58.23   |      137449      |     146321
      10  | 32:30.72 |    3:59.17   |      146322      |     164263
      11  | 36:30.14 |    4:12.00   |      164264      |     183163
      12  | 40:42.14 |    3:36.61   |      183164      |     199424
      13  | 44:19.00 |    3:05.65   |      199425      |     213364
      14  | 47:24.65 |    3:18.18   |      213365      |     228232
      15  | 50:43.08 |    4:35.28   |      228233      |     248885
      16  | 55:18.36 |    5:01.67   |      248886      |     271527
      17  | 60:20.28 |    5:51.62   |      271528      |     297914
      18  | 66:12.15 |    5:29.09   |      297915      |     322598
      19  | 71:41.24 |    5:04.38   |      322599      |     345436
Характеристики диапазона извлечения и сообщения об ошибках
Выбранный диапазон
     Имя файла Z:\Temp\Fancy - CD4.All My Loving.wav
     Пиковый уровень 96.6 %
     Качество диапазона 100.0 %
     CRC теста F46E0C9D
     CRC копии F46E0C9D
     Копирование... OK
Ошибок не произошло
AccurateRip: сводка
Трек  1  нет в базе данных
Трек  2  нет в базе данных
Трек  3  нет в базе данных
Трек  4  нет в базе данных
Трек  5  нет в базе данных
Трек  6  нет в базе данных
Трек  7  нет в базе данных
Трек  8  нет в базе данных
Трек  9  нет в базе данных
Трек 10  нет в базе данных
Трек 11  нет в базе данных
Трек 12  нет в базе данных
Трек 13  нет в базе данных
Трек 14  нет в базе данных
Трек 15  нет в базе данных
Трек 16  нет в базе данных
Трек 17  нет в базе данных
Трек 18  нет в базе данных
Трек 19  нет в базе данных
Ни одного трека нет в базе AccurateRip
Конец отчёта

Отчёт auCDtect Task manager&#58;

-----------------------
DON'T MODIFY THIS FILE
-----------------------
PERFORMER: auCDtect Task Manager, ver. 1.6.0 RC1 build 1.6.0.1
Copyright (c) 2008-2010 y-soft. All rights reserved
http://y-soft.org
ANALYZER: auCDtect: CD records authenticity detector, version 0.8.2
Copyright (c) 2004 Oleg Berngardt. All rights reserved.
Copyright (c) 2004 Alexander Djourik. All rights reserved.
FILE: Fancy - CD4.All My Loving.flac
  Size: 569496785 Hash: 55F7F6FFF202361109092359FCC8679F Accuracy: -m0
  Conclusion: MPEG 95%
  Signature: CE8A2ED870833882FC85D02E62CF0F638AF7348E

Содержание индексной карты .CUE&#58;

REM GENRE EuroDisco
REM DATE 2010
REM DISCID 0A11FC13
REM COMMENT "ExactAudioCopy v0.99pb5"
PERFORMER "Fancy"
TITLE "CD4.All My Loving"
FILE "Fancy - CD4.All My Loving.flac" WAVE
  TRACK 01 AUDIO
    TITLE "Angel Eyes"
    PERFORMER "Fancy"
    INDEX 00 00:00:00
    INDEX 01 00:01:00
  TRACK 02 AUDIO
    TITLE "A Voice In The Dark"
    PERFORMER "Fancy"
    INDEX 00 03:45:41
    INDEX 01 03:46:41
  TRACK 03 AUDIO
    TITLE "Pure Love"
    PERFORMER "Fancy"
    INDEX 00 07:39:01
    INDEX 01 07:40:01
  TRACK 04 AUDIO
    TITLE "Don't Fight With The Moon"
    PERFORMER "Fancy"
    INDEX 00 11:02:16
    INDEX 01 11:03:16
  TRACK 05 AUDIO
    TITLE "Ways Of Love"
    PERFORMER "Fancy"
    INDEX 00 14:27:32
    INDEX 01 14:28:32
  TRACK 06 AUDIO
    TITLE "Sail Away"
    PERFORMER "Fancy"
    INDEX 00 18:53:22
    INDEX 01 18:54:22
  TRACK 07 AUDIO
    TITLE "Running Man"
    PERFORMER "Fancy"
    INDEX 00 22:43:41
    INDEX 01 22:44:41
  TRACK 08 AUDIO
    TITLE "My Emotional Way"
    PERFORMER "Fancy"
    INDEX 00 26:20:32
    INDEX 01 26:21:32
  TRACK 09 AUDIO
    TITLE "All My Loving"
    PERFORMER "Fancy"
    INDEX 00 30:31:49
    INDEX 01 30:32:49
  TRACK 10 AUDIO
    TITLE "Seven Sins"
    PERFORMER "Fancy"
    INDEX 00 32:29:72
    INDEX 01 32:30:72
  TRACK 11 AUDIO
    TITLE "Stand Up For Love"
    PERFORMER "Fancy"
    INDEX 00 36:29:14
    INDEX 01 36:30:14
  TRACK 12 AUDIO
    TITLE "Luxury Life"
    PERFORMER "Fancy"
    INDEX 00 40:41:14
    INDEX 01 40:42:14
  TRACK 13 AUDIO
    TITLE "Go Cha Cha"
    PERFORMER "Fancy"
    INDEX 00 44:18:00
    INDEX 01 44:19:00
  TRACK 14 AUDIO
    TITLE "No Tears"
    PERFORMER "Fancy"
    INDEX 00 47:23:65
    INDEX 01 47:24:65
  TRACK 15 AUDIO
    TITLE "Follow Me"
    PERFORMER "Fancy"
    INDEX 00 50:42:08
    INDEX 01 50:43:08
  TRACK 16 AUDIO
    TITLE "Angel Eyes (Extended Version)"
    PERFORMER "Fancy"
    INDEX 00 55:17:36
    INDEX 01 55:18:36
  TRACK 17 AUDIO
    TITLE "Running Man (Extended Version)"
    PERFORMER "Fancy"
    INDEX 00 60:19:28
    INDEX 01 60:20:28
  TRACK 18 AUDIO
    TITLE "No Tears (Extended Version)"
    PERFORMER "Fancy"
    INDEX 00 66:11:15
    INDEX 01 66:12:15
  TRACK 19 AUDIO
    TITLE "Fools Cry Rap (Feat. Grandmaster Tess & Steve D5) (Extended)"
    PERFORMER "Fancy"
    INDEX 00 71:40:24
    INDEX 01 71:41:24

Спектрограмма&#58;

CD 5 - Five (1990&#41;

Продолжитeльность: 01:16:03
Трeклист:
01.When Guardian Angels Cry (4:10)
02.Like You (3:31)
03.Second Hand Paradise (3:42)
04.All We Need Is To Believe (4:03)
05.Island Of Dreams (4:15)
06.Love Never Dies (4:07)
07.Bride In Black (3:46)
08.It's Only Loneliness (3:26)
09.Saint Marie De La Mer (Stop It Right Now) (3:21)
10.In The Rain Again (3:35)
11.Lost In Love (3:48)
12.C'est La Vie (3:53)
Bonus Tracks:
13.When Guardian Angels Cry (Extended Version) (5:06)
14.When Guardian Angels Rap (The 4 On The Floor Maxi-Version) (5:52)
15.Sentimental Agent (4:13)
16.The 25th Anniversary Megamix (15:16)

Отчёт ЕАС&#58;

Exact Audio Copy V0.99 prebeta 5 from 4. May 2009
Отчёт EAC об извлечении, выполненном 10. августа 2010, 10:55
Fancy / CD5.Five
Дисковод: ASUS    DRW-2014S1T   Adapter: 0  ID: 4
Режим чтения                 : Достоверность
Использование точного потока : Да
Отключение кэша аудио        : Да
Использование указателей C2  : Нет
Коррекция смещения при чтении                     : 6
Способность читать области Lead-in и Lead-out     : Нет
Заполнение пропущенных сэмплов тишиной            : Да
Удаление блоков с тишиной в начале и конце        : Нет
При вычислениях CRC использовались нулевые сэмплы : Да
Интерфейс                                         : Установленный внешний ASPI-интерфейс
Выходной формат : Внутренние WAV-операции
Формат сэмплов  : 44.100 Гц; 16 бит; стерео
TOC извлечённого CD
     Трек |   Старт  | Длительность | Начальный сектор | Конечный сектор
    ---------------------------------------------------------------------
       1  |  0:00.00 |    4:09.74   |           0      |      18748
       2  |  4:09.74 |    3:30.74   |       18749      |      34572
       3  |  7:40.73 |    3:41.74   |       34573      |      51221
       4  | 11:22.72 |    4:02.74   |       51222      |      69445
       5  | 15:25.71 |    4:14.74   |       69446      |      88569
       6  | 19:40.70 |    4:06.74   |       88570      |     107093
       7  | 23:47.69 |    3:45.74   |      107094      |     124042
       8  | 27:33.68 |    3:25.74   |      124043      |     139491
       9  | 30:59.67 |    3:20.74   |      139492      |     154565
      10  | 34:20.66 |    3:34.74   |      154566      |     170689
      11  | 37:55.65 |    3:47.74   |      170690      |     187788
      12  | 41:43.64 |    3:52.74   |      187789      |     205262
      13  | 45:36.63 |    5:05.74   |      205263      |     228211
      14  | 50:42.62 |    5:52.32   |      228212      |     254643
      15  | 56:35.19 |    4:12.74   |      254644      |     273617
      16  | 60:48.18 |   15:15.51   |      273618      |     342293
Характеристики диапазона извлечения и сообщения об ошибках
Выбранный диапазон
     Имя файла Z:\Temp\Fancy - CD5.Five.wav
     Пиковый уровень 97.4 %
     Качество диапазона 100.0 %
     CRC теста FD661B05
     CRC копии FD661B05
     Копирование... OK
Ошибок не произошло
AccurateRip: сводка
Трек  1  нет в базе данных
Трек  2  нет в базе данных
Трек  3  нет в базе данных
Трек  4  нет в базе данных
Трек  5  нет в базе данных
Трек  6  нет в базе данных
Трек  7  нет в базе данных
Трек  8  нет в базе данных
Трек  9  нет в базе данных
Трек 10  нет в базе данных
Трек 11  нет в базе данных
Трек 12  нет в базе данных
Трек 13  нет в базе данных
Трек 14  нет в базе данных
Трек 15  нет в базе данных
Трек 16  нет в базе данных
Ни одного трека нет в базе AccurateRip
Конец отчёта

Отчёт auCDtect Task manager&#58;

-----------------------
DON'T MODIFY THIS FILE
-----------------------
PERFORMER: auCDtect Task Manager, ver. 1.6.0 RC1 build 1.6.0.1
Copyright (c) 2008-2010 y-soft. All rights reserved
http://y-soft.org
ANALYZER: auCDtect: CD records authenticity detector, version 0.8.2
Copyright (c) 2004 Oleg Berngardt. All rights reserved.
Copyright (c) 2004 Alexander Djourik. All rights reserved.
FILE: Fancy - CD5.Five.flac
  Size: 561081335 Hash: D9263D5025766DFA0BEC8FE7574090A3 Accuracy: -m0
  Conclusion: CDDA 100%
  Signature: 0311A7093FB122CC5381280F9D47AF9A6DCC0A0B

Содержание индексной карты .CUE&#58;

REM GENRE EuroDisco
REM DATE 2010
REM DISCID E211D310
REM COMMENT "ExactAudioCopy v0.99pb5"
PERFORMER "Fancy"
TITLE "CD5.Five"
FILE "Fancy - CD5.Five.flac" WAVE
  TRACK 01 AUDIO
    TITLE "When Guardian Angels Cry"
    PERFORMER "Fancy"
    INDEX 01 00:00:00
  TRACK 02 AUDIO
    TITLE "Like You"
    PERFORMER "Fancy"
    INDEX 00 04:07:74
    INDEX 01 04:09:74
  TRACK 03 AUDIO
    TITLE "Second Hand Paradise"
    PERFORMER "Fancy"
    INDEX 00 07:38:73
    INDEX 01 07:40:73
  TRACK 04 AUDIO
    TITLE "All We Need Is To Believe"
    PERFORMER "Fancy"
    INDEX 00 11:20:72
    INDEX 01 11:22:72
  TRACK 05 AUDIO
    TITLE "Island Of Dreams"
    PERFORMER "Fancy"
    INDEX 00 15:23:71
    INDEX 01 15:25:71
  TRACK 06 AUDIO
    TITLE "Love Never Dies"
    PERFORMER "Fancy"
    INDEX 00 19:38:70
    INDEX 01 19:40:70
  TRACK 07 AUDIO
    TITLE "Bride In Black"
    PERFORMER "Fancy"
    INDEX 00 23:45:69
    INDEX 01 23:47:69
  TRACK 08 AUDIO
    TITLE "It's Only Loneliness"
    PERFORMER "Fancy"
    INDEX 00 27:31:68
    INDEX 01 27:33:68
  TRACK 09 AUDIO
    TITLE "Saint Marie De La Mer (Stop It Right Now)"
    PERFORMER "Fancy"
    INDEX 00 30:57:67
    INDEX 01 30:59:67
  TRACK 10 AUDIO
    TITLE "In The Rain Again"
    PERFORMER "Fancy"
    INDEX 00 34:18:66
    INDEX 01 34:20:66
  TRACK 11 AUDIO
    TITLE "Lost In Love"
    PERFORMER "Fancy"
    INDEX 00 37:53:65
    INDEX 01 37:55:65
  TRACK 12 AUDIO
    TITLE "C'est La Vie"
    PERFORMER "Fancy"
    INDEX 00 41:41:64
    INDEX 01 41:43:64
  TRACK 13 AUDIO
    TITLE "When Guardian Angels Cry (Extended Version)"
    PERFORMER "Fancy"
    INDEX 00 45:34:63
    INDEX 01 45:36:63
  TRACK 14 AUDIO
    TITLE "When Guardian Angels Rap (The 4 On The Floor Maxi-Version)"
    PERFORMER "Fancy"
    INDEX 00 50:40:62
    INDEX 01 50:42:62
  TRACK 15 AUDIO
    TITLE "Sentimental Agent"
    PERFORMER "Fancy"
    INDEX 00 56:33:19
    INDEX 01 56:35:19
  TRACK 16 AUDIO
    TITLE "The 25th Anniversary Megamix"
    PERFORMER "Fancy"
    INDEX 00 60:46:18
    INDEX 01 60:48:18
Время раздачи: ( с 09:00 - 20:00 - до первых десяти сидов )-
[Профиль] [ЛС]

Создавать темы 13-Авг-2015 10:41 (спустя 7 месяцев 19 дней)

Топик был перенесен из форума Зарубежная в форум Technopop, Eurodance, Disco
sergej644
 
Кто просматривает тему:

Показать сообщения:    

Текущее время: Сегодня 10:07

Часовой пояс: GMT



Вы не можете начинать темы
Вы не можете отвечать на сообщения
Вы не можете редактировать свои сообщения
Вы не можете удалять свои сообщения
Вы не можете голосовать в опросах
Вы не можете прикреплять файлы к сообщениям
Вы не можете скачивать файлы