Fallout: Ядерный перекур / Fallout: Nuka Break [s02] (2013) WEBRip 720p | L

 
Автор Сообщение

достали все ®

Пол:

Стаж: 1 год 8 месяцев

Сообщений: 6581



Награды: 12 (Подробнее)

Mega Seeder 2 (Количество: 1) Mega Seeder 3 (Количество: 1) Mega Releaser 2 (Количество: 1)
Торрент-статистика

Создавать темы 20-Сен-2015 03:03

[Цитировать]

Информация о фильме
Название: Fallout: Ядерный перекур
Оригинальное название: Fallout: Nuka Break
Год выхода: 2013
Жанр: фантастика, боевик, приключения, веб-сериал
Режиссер: Винсент Таленти
В ролях: Зак Финфрок, Тайби Дискин, Аарон Д. Джилз, Мишель Спечт, Даг Джонс, Камерон Дискин, Роберт Хардин, Чад Виллелла, Николас Акоста, Стивен Денглер
О фильме:
Мини-сериал «Фоллаут – Ядерный перекур» снят по мотивам легендарной и невероятно популярной игры ее же фанатами. Действия фильма происходят в далеком 2077 году, через 100 лет после ужасной катастрофы. В результате утечки бактериологического оружия, созданного во время мировой войны, развязанной Китаем и США, вирус ВРЭ присутствует в атмосфере спустя много десятков лет. Земля уже не похожа на цветущую зеленую планету. Она превратилась в зловещий мир, наполненный бандами злодеев, а уцелевшим людям нужно очень постараться, чтобы выжить в нем.

Страна: США
Продолжительность: 6 x ~ 00:12:00
Перевод: Любительский многоголосный закадровый [STOPGAME]
Файл
Кодек: H.264
Качество: WEBRip 720p
Видео: AVC, 1280x720 (16:9), 25 fps ~ 1200 Kbps
Звук: AAC, 44.1 KHz 2 ch ~ 192 Kb/s
Субтитры: отсутствуют

MI:

Общее
Полное имя : Q:TorFFallout Nuka Break 2 SezonFallout Nuka Break.S2E1.mp4
Формат : MPEG-4
Профиль формата : Base Media / Version 2
Идентификатор кодека : mp42
Размер файла : 141 Мбайт
Продолжительность : 13 м.
Режим общего битрейта : Переменный
Общий поток : 1448 Кбит/сек
Дата кодирования : UTC 2014-01-10 05:29:06
Дата пометки : UTC 2014-01-10 05:29:06
gsst : 0
gstd : 819455
gssd : BADC29588MH1417610459161142
gshh : r8---sn-n8v7snel.googlevideo.com
Видео
Идентификатор : 1
Формат : AVC
Формат/Информация : Advanced Video Codec
Профиль формата : High@L3.1
Параметр CABAC формата : Да
Параметр ReFrames формата : 1 кадр
Идентификатор кодека : avc1
Идентификатор кодека/Информация : Advanced Video Coding
Продолжительность : 13 м.
Битрейт : 1253 Кбит/сек
Максимальный битрейт : 4419 Кбит/сек
Ширина : 1280 пикселей
Высота : 720 пикселей
Соотношение сторон : 16:9
Режим частоты кадров : Постоянный
Частота кадров : 25,000 кадров/сек
Цветовое пространство : YUV
Субдискретизация насыщенности : 4:2:0
Битовая глубина : 8 бит
Тип развёртки : Прогрессивная
Бит/(Пиксели*Кадры) : 0.054
Размер потока : 122 Мбайт (87%)
Дата пометки : UTC 2014-01-10 05:29:26
Аудио
Идентификатор : 2
Формат : AAC
Формат/Информация : Advanced Audio Codec
Профиль формата : LC
Идентификатор кодека : 40
Продолжительность : 13 м.
Вид битрейта : Переменный
Битрейт : 192 Кбит/сек
Максимальный битрейт : 201 Кбит/сек
Каналы : 2 канала
Расположение каналов : Front: L R
Частота : 44,1 КГц
Метод сжатия : С потерями
Размер потока : 18,8 Мбайт (13%)
Заголовок : IsoMedia File Produced by Google, 5-11-2011
Дата кодирования : UTC 2014-01-10 05:29:17
Дата пометки : UTC 2014-01-10 05:29:26

Скриншоты

[Профиль] [ЛС]
Кто просматривает тему:

Показать сообщения:    

Текущее время: Сегодня 20:19

Часовой пояс: GMT



Вы не можете начинать темы
Вы не можете отвечать на сообщения
Вы не можете редактировать свои сообщения
Вы не можете удалять свои сообщения
Вы не можете голосовать в опросах
Вы не можете прикреплять файлы к сообщениям
Вы не можете скачивать файлы