EXперименты (Эксперименты) 24 - 35 серии [2013, Документальный, HDTV 1080i]

 
Автор Сообщение

TorrentFilm ®

Пол:

Стаж: 2 года

Сообщений: 7741



Награды: Нет

Торрент-статистика

Создавать темы 07-Июн-2015 00:04

[Цитировать]

EXперименты (Эксперименты) 24 - 35 серии
Год выпуска: 2013
Страна: Россия
Жанр: Документальный
Продолжительность: 00:26:00 серия
Перевод: Не требуется
Описание: В каждой программе автор и ведущий Антон Войцеховский в доступной форме раскрывает зрителям суть явлений и научных открытий. Свои вопросы он задает ведущим экспертам разных областей. И с помощью анимации и графики рассказывает просто о самом сложном.
24. EXперименты. Небычные плавательные апараты фильм 1
25. EXперименты. Небычные плавательные апараты фильм 2
26. EXперименты. Небычные плавательные апараты фильм 3
27. EXперименты. Сила Земли фильм 1
28. EXперименты. Сила Земли фильм 2
29. EXперименты. Суда Балтийский завод
30. EXперименты. Энергетика
31. EXперименты. Эти непростые животные
32. EXперименты. Вездеходы фильм 1
33. EXперименты. Мосты фильм 3. Разводные мосты
34. EXперименты. Недетские игрушки. Фильм 3
35. EXперименты. Необычные здания мира. Фильм 1
Тип релиза: HDTV 1080i
Контейнер: TS
Видео: H264; 1920x1080 (16:9); 25.000 fps; ~7 616 Kbps
Аудио: MPEG Audio 48000Hz stereo 192 Кбит/сек

MediaInfo

GeneralID : 1 (0x1)Complete name : Q:\ДИСК-2\ДИСК-1\EXперименты (Эксперименты) 24 - 35 серии\24. EXперименты. Небычные плавательные апараты фильм 1.tsFormat : MPEG-TSFile size : 1.51 GiBDuration : 26mn 23sOverall bit rate mode : VariableOverall bit rate : 8 215 Kbps
VideoID : 2292 (0x8F4)Menu ID : 1 (0x1)Format : AVCFormat/Info : Advanced Video CodecFormat profile : High@L4.0Format settings, CABAC : YesFormat settings, ReFrames : 4 framesCodec ID : 27Duration : 26mn 23sBit rate : 7 616 KbpsWidth : 1 920 pixelsHeight : 1 080 pixelsDisplay aspect ratio : 16:9Frame rate : 25.000 fpsColor space : YUVChroma subsampling : 4:2:0Bit depth : 8 bitsScan type : MBAFFBits/(Pixel*Frame) : 0.147Stream size : 1.40 GiB (93%)
AudioID : 2295 (0x8F7)Menu ID : 1 (0x1)Format : MPEG AudioFormat version : Version 1Format profile : Layer 2Mode : Joint stereoMode extension : Intensity Stereo + MS StereoCodec ID : 3Duration : 26mn 23sBit rate mode : ConstantBit rate : 192 KbpsChannel(s) : 2 channelsSampling rate : 48.0 KHzCompression mode : LossyStream size : 36.2 MiB (2%)Language : English

Скриншоты


[Профиль] [ЛС]
Показать сообщения:    

Текущее время: Сегодня 00:37

Часовой пояс: GMT



Вы не можете начинать темы
Вы не можете отвечать на сообщения
Вы не можете редактировать свои сообщения
Вы не можете удалять свои сообщения
Вы не можете голосовать в опросах
Вы не можете прикреплять файлы к сообщениям
Вы не можете скачивать файлы