Europe - Live at Sweden Rock: 30th Anniversary Show (2013) BDRemux [1080i]

 
Автор Сообщение

sergej644 ®

Пол:

Стаж: 4 года 11 месяцев

Сообщений: 6043

Откуда: Soviet Union



Награды: Нет

Торрент-статистика

Создавать темы 02-Авг-2014 21:50

[Цитировать]

-Europe - Live at Sweden Rock: 30th Anniversary Show (2013) BDRemux- Год выпуска: 2013
Производство: Швеция / earMUSIC
Жанр: Hard Rock, Heavy Metal
Исполнители: Джой Темпест / Joey Tempest (вокал), Джон Норум / John Norum (гитара), Джон Левен / John Leven (бас), Мик Микаэли / Mic Michaeli (клавишные), Ян Хаугланд / Ian Haugland (барабаны)
Описание:
7 июня 2013 года, «Europe» вышли на сцену на своей родине Швеции по особому поводу: празднование своей 30-й годовщины в рок-музыке. Эта Шведская рок-группа праздновала это событие вместе с 30 тысячами человек на популярном Шведском Рок Фестивале, играя подборку из 28 песен собирая свои персональные любимые моменты, начиная с ранних лет вплоть до их наиболее свежих песен взятых из таких альбомов как “Last Look At Eden” и “Bag Of Bones”; для любителей статистики и раритетов некоторые из песен никогда до этого не исполнялись. В этом помпезном шоу лучших хитов присутствует также душевный момент, когда группа садится для исполнения акустической подборки, которое несёт массу ощущений клубного присутствия перед тем, как группа снова вернётся к своему известному хард-роковому амплуа. На свой праздник «Europe» пригласила двух особых гостей: Scott Gorham (Thin Lizzy) для версии «Jailbreak» и Michael Schenker (MSG, ex UFO и Scorpions) для одной из вечно живой хард-роковой классики от UFO «Lights Out»...
Язык: Английский
Субтитры: Отсутствуют
Продолжительность: 02:19:36
Качество видео: BDRemux
Видео: MPEG4_AVC/H.264, 1920x1080 (16:9), ~24989 kbps, 25 fps
Аудио 1: DTS-HD MA 5.1, 4578 kbps, 48 kHz, 24-bit [Английский]
Аудио 2: DTS-HD MA 2.0, 1653 kbps, 48 kHz, 16-bit [Английский]
Аудио 3: AC3 5.1, 640 kbps, 48 kHz, 16-bit [Английский]

Треклист

Треклист:
01. Intro / Riches To Rags
02. Firebox
03. Not Supposed To Sing The Blues
04. Scream Of Anger
05. Superstitious
06. No Stone Unturned
07. New Love In Town
08. In The Future To Come
09. Paradize Bay
10. Girl From Lebanon
11. Prisoners In Paradise
12. Always The Pretenders
13. Drink And A Smile
14. Open Your Heart
15. Love Is Not The Enemy
16. Sign Of The Times
17. Start From The Dark
18. Wings Of Tomorrow
19. Carrie
20. Jailbreak (feat. Scott Gorham)
21. Seven Doors Hotel
22. Drum Solo
23. The Beast
24. Let The Good Times Rock
25. Lights Out (feat. Michael Schenker)
26. Rock The Night
27. Last Look At Eden
28. The Final Countdown

Отчёт MediaInfo

Полное имя                               : D:\Europe-Live.at.Sweden.Rock.30th.Anniversary.Show.(2013).BDRemux.[1080i].mkv
Формат                                   : Matroska
Версия формата                           : Version 2
Размер файла                             : 31,1 Гбайт
Продолжительность                        : 2 ч. 19 м.
Режим общего битрейта                    : Переменный
Общий поток                              : 31,9 Мбит/сек
Название фильма                          : Europe (2013) / Lelya_K for NNM-Club
Дата кодирования                         : UTC 2014-04-30 07:27:41
Программа кодирования                    : mkvmerge v5.7.0 ('The Whirlwind') built on Aug  7 2012 14:11:40
Библиотека кодирования                   : libebml v1.2.3 + libmatroska v1.3.0
Attachment                               : Yes
Видео
Идентификатор                            : 1
Формат                                   : AVC
Формат/Информация                        : Advanced Video Codec
Профиль формата                          : [url=mailto:High@L4.1]High@L4.1[/url]
Параметр CABAC формата                   : Да
Параметр ReFrames формата                : 4 кадра
Идентификатор кодека                     : V_MPEG4/ISO/AVC
Продолжительность                        : 2 ч. 19 м.
Вид битрейта                             : Переменный
Битрейт                                  : 27,5 Мбит/сек
Номинальный битрейт                      : 25,0 Мбит/сек
Максимальный битрейт                     : 35,0 Мбит/сек
Ширина                                   : 1920 пикселей
Высота                                   : 1080 пикселей
Соотношение сторон                       : 16:9
Режим частоты кадров                     : Постоянный
Частота кадров                           : 25,000 кадров/сек
Стандарт вещания                         : Component
Цветовое пространство                    : YUV
Субдискретизация насыщенности            : 4:2:0
Битовая глубина                          : 8 бит
Тип развёртки                            : MBAFF
Бит/(Пиксели*Кадры)                      : 0.530
Размер потока                            : 26,8 Гбайт (86%)
Заголовок                                : Europe-Live.at.Sweden.Rock.30th.Anniversary.Show.(2013).BDRemux.[1080i]
Библиотека кодирования                   : x264 core 125
Настройки программы                      : cabac=1 / ref=4 / deblock=1:0:0 / analyse=0x3:0x133 / me=umh / subme=9 / psy=1 / psy_rd=1.00:0.00 / mixed_ref=1 / me_range=24 / chroma_me=1 / trellis=2 / 8x8dct=1 / cqm=2 / deadzone=21,11 / fast_pskip=1 / chroma_qp_offset=-4 / threads=12 / lookahead_threads=2 / sliced_threads=0 / slices=4 / nr=0 / decimate=1 / interlaced=tff / bluray_compat=1 / constrained_intra=0 / bframes=3 / b_pyramid=0 / b_adapt=2 / b_bias=0 / direct=3 / weightb=1 / open_gop=1 / weightp=0 / keyint=25 / keyint_min=1 / scenecut=40 / intra_refresh=0 / rc_lookahead=25 / rc=2pass / mbtree=1 / bitrate=25000 / ratetol=1.0 / qcomp=0.60 / qpmin=5 / qpmax=69 / qpstep=4 / cplxblur=20.0 / qblur=0.5 / vbv_maxrate=35000 / vbv_bufsize=30000 / nal_hrd=vbr / ip_ratio=1.40 / aq=1:1.00
Язык                                     : English
Default                                  : Да
Forced                                   : Нет
Основные цвета                           : BT.709
Характеристики трансфера                 : BT.709
Коэффициенты матрицы                     : BT.709
Аудио #1
Идентификатор                            : 2
Формат                                   : DTS
Формат/Информация                        : Digital Theater Systems
Профиль формата                          : MA / Core
Идентификатор кодека                     : A_DTS
Продолжительность                        : 2 ч. 19 м.
Вид битрейта                             : Переменный
Битрейт                                  : 1561 Кбит/сек / 1510 Кбит/сек
Каналы                                   : 6 каналов
Расположение каналов                     : Front: L C R, Side: L R, LFE
Частота                                  : 48,0 КГц
Битовая глубина                          : 24 бит
Метод сжатия                             : Без потерь / Lossy
Заголовок                                : DTS-HD MA 5.1 / 4578 kbps / Original
Язык                                     : English
Default                                  : Да
Forced                                   : Нет
Аудио #2
Идентификатор                            : 3
Формат                                   : DTS
Формат/Информация                        : Digital Theater Systems
Профиль формата                          : MA / Core
Идентификатор кодека                     : A_DTS
Продолжительность                        : 2 ч. 19 м.
Вид битрейта                             : Переменный
Битрейт                                  : 1555 Кбит/сек / 1510 Кбит/сек
Каналы                                   : 2 канала
Расположение каналов                     : Front: L R
Частота                                  : 48,0 КГц
Битовая глубина                          : 16 бит
Метод сжатия                             : Без потерь / Lossy
Заголовок                                : DTS-HD MA 2.0 / 1653 kbps / Original
Язык                                     : English
Default                                  : Нет
Forced                                   : Нет
Аудио #3
Идентификатор                            : 4
Формат                                   : AC-3
Формат/Информация                        : Audio Coding 3
Расширение режима                        : CM (complete main)
Параметр Endianness формата              : Big
Идентификатор кодека                     : A_AC3
Продолжительность                        : 2 ч. 19 м.
Вид битрейта                             : Постоянный
Битрейт                                  : 640 Кбит/сек
Каналы                                   : 6 каналов
Расположение каналов                     : Front: L C R, Side: L R, LFE
Частота                                  : 48,0 КГц
Битовая глубина                          : 16 бит
Метод сжатия                             : С потерями
Размер потока                            : 639 Мбайт (2%)
Заголовок                                : AC3 5.1 / 640 kbps / Original
Язык                                     : English
Default                                  : Нет
Forced                                   : Нет
Меню
00:00:00.000                             : en:01. Intro / Riches To Rags
00:04:07.720                             : en:02. Firebox
00:08:01.520                             : en:03. Not Supposed To Sing The Blues
00:13:25.000                             : en:04. Scream Of Anger
00:18:04.920                             : en:05. Superstitious
00:24:03.120                             : en:06. No Stone Unturned
00:29:55.040                             : en:07. New Love In Town
00:33:33.560                             : en:08. In The Future To Come
00:39:15.800                             : en:09. Paradize Bay
00:44:05.000                             : en:10. Girl From Lebanon
00:49:29.120                             : en:11. Prisoners In Paradise
00:54:13.040                             : en:12. Always The Pretenders
00:58:49.680                             : en:13. Drink And A Smile
01:01:38.200                             : en:14. Open Your Heart
01:05:36.000                             : en:15. Love Is Not The Enemy
01:10:06.400                             : en:16. Sign Of The Times
01:14:42.400                             : en:17. Start From The Dark
01:19:10.560                             : en:18. Wings Of Tomorrow
01:23:55.960                             : en:19. Carrie
01:29:02.560                             : en:20. Jailbreak (featuring Scott Gorham)
01:34:00.000                             : en:21. Seven Doors Hotel
01:39:23.360                             : en:22. Drum Solo
01:42:28.240                             : en:23. The Beast
01:47:48.120                             : en:24. Let The Good Times Rock
01:54:41.680                             : en:25. Lights Out (featuring Michael Schenker)
01:59:49.040                             : en:26. Rock The Night
02:06:07.920                             : en:27. Last Look At Eden
02:10:52.680                             : en:28. The Final Countdown
02:17:57.720                             : en:29. The titers

Обложка

Скриншоты:
[Профиль] [ЛС]
Кто просматривает тему:

Форум Тема Автор Размер
Зарубежные концерты Europe - Live! At Shepherd's Bush, London [2011 г., Hard Rock, Blu-ray Disc 1080i ] sergej644 37.6 GB
Показать сообщения:    

Текущее время: Сегодня 10:50

Часовой пояс: GMT



Вы не можете начинать темы
Вы не можете отвечать на сообщения
Вы не можете редактировать свои сообщения
Вы не можете удалять свои сообщения
Вы не можете голосовать в опросах
Вы не можете прикреплять файлы к сообщениям
Вы не можете скачивать файлы