Europe - Live! At Shepherd's Bush, London [2011 г., Hard Rock, Blu-ray Disc 1080i ]

 
Автор Сообщение

sergej644 ®

Пол:

Стаж: 4 года 11 месяцев

Сообщений: 6046

Откуда: Soviet Union



Награды: Нет

Торрент-статистика

Создавать темы 22-Июн-2014 08:20

[Цитировать]

-Europe - Live! At Shepherd's Bush, London-
Страна: Sweden
Год выпуска: 2011
Жанр: Hard Rock
Продолжительность: 01:32:29

В ролях:
Joey Tempest, John Norum, John Leven, Mic Michaeli, Ian Haugland-
Описание:
Europe — шведская рок-группа, созданная в Стокгольме в 1979 году вокалистом Джоуи Темпестом и гитаристом Джоном Норумом. Хотя многие относят команду к глэм-металу, их стиль объединяет элементы хард-рока и хеви-метала. На данном диске представлено выступление группы 19 февраля 2011 года в Лондоне.

треклист


01. Prelude
02. Last Look At Eden
03. The Beast
04. Rock The Night
05. Scream Of Anger
06. No Stone Unturned
07. Carrie
08. Guitar Feature: The Loner
09. The Getaway Plan
10. Seventh Sign
11. New Love In Town
12. Love Is Not The Enemy
13. More Than Meets The Eye
14. Drum Feature: William Tell Overture
15. Always The Pretenders
16. Start From The Dark
17. Superstitious
18. Doghouse (brand new song)
19. The Final Countdown

Доп. информация


Extras:
Live Footage From Stockholm Ice Stadium "Hovet", Dec. 28th 2009
Live Footage From Grona Lund In Stockholm, Sept. 17th 2010
Live Photo Gallery
Documentary: Interviews And Rehearsal
Last Look At Eden (Music Video)
New Love In Town (Music Video)

Качество: Blu-ray
Формат: BDMV
Видео кодек: AVC
Аудио кодек: DTS
Видео: MPEG-4 AVC Video 24980 kbps 1080i / 25 fps / 16:9 / High Profile 4.1
Аудио: DTS-HD Master Audio English 3269 kbps 5.1 / 48 kHz / 3269 kbps / 16-bit (DTS Core: 5.1 / 48 kHz / 1509 kbps / 16-bit)
--

BDInfo

Disc Title:     EUROPE LIVE AT SHEPARDS BUSH.2011.Blu-Ray.HDGeek
Disc Size:      40 376 488 036 bytes
Protection:     AACS
BD-Java:        No
Extras:         50Hz Content
BDInfo:         0.5.8
Notes:
BDINFO HOME:
  Cinema Squid
    http://www.cinemasquid.com/blu-ray/tools/bdinfo
INCLUDES FORUMS REPORT FOR:
  AVS Forum Blu-ray Audio and Video Specifications Thread
    http://www.avsforum.com/avs-vb/showthread.php?t=1155731
********************
PLAYLIST: 00008.MPLS
********************
<--- BEGIN FORUMS PASTE --->
[code]
                                                                                                                Total   Video
Title                                                           Codec   Length  Movie Size      Disc Size       Bitrate Bitrate Main Audio Track                          Secondary Audio Track
-----                                                           ------  ------- --------------  --------------  ------- ------- ------------------                        ---------------------
00008.MPLS                                                      AVC     1:32:29 20 665 159 680  40 376 488 036  29,79   24,98   DTS-HD Master 5.1 3269Kbps (48kHz/16-bit)
DISC INFO:
Disc Title:     EUROPE LIVE AT SHEPARDS BUSH.2011.Blu-Ray.HDGeek
Disc Size:      40 376 488 036 bytes
Protection:     AACS
BD-Java:        No
Extras:         50Hz Content
BDInfo:         0.5.8
PLAYLIST REPORT:
Name:                   00008.MPLS
Length:                 1:32:29.560 (h:m:s.ms)
Size:                   20 665 159 680 bytes
Total Bitrate:          29,79 Mbps
VIDEO:
Codec                   Bitrate             Description
-----                   -------             -----------
MPEG-4 AVC Video        24980 kbps          1080i / 25 fps / 16:9 / High Profile 4.1
AUDIO:
Codec                           Language        Bitrate         Description
-----                           --------        -------         -----------
DTS-HD Master Audio             English         3269 kbps       5.1 / 48 kHz / 3269 kbps / 16-bit (DTS Core: 5.1 / 48 kHz / 1509 kbps / 16-bit)
FILES:
Name            Time In         Length          Size            Total Bitrate
----            -------         ------          ----            -------------
00010.M2TS      0:00:00.000     1:32:29.560     20 665 159 680  29 790
CHAPTERS:
Number          Time In         Length          Avg Video Rate  Max 1-Sec Rate  Max 1-Sec Time  Max 5-Sec Rate  Max 5-Sec Time  Max 10Sec Rate  Max 10Sec Time  Avg Frame Size  Max Frame Size  Max Frame Time
------          -------         ------          --------------  --------------  --------------  --------------  --------------  --------------  --------------  --------------  --------------  --------------
1               0:00:00.000     0:01:36.759     18 893 kbps     36 289 kbps     00:00:25.480    33 070 kbps     00:00:22.440    28 958 kbps     00:00:20.800    94 427 bytes    384 182 bytes   00:00:54.279
2               0:01:36.759     0:03:49.760     23 831 kbps     36 379 kbps     00:04:11.159    31 106 kbps     00:04:10.960    29 076 kbps     00:05:04.280    119 157 bytes   461 756 bytes   00:05:13.640
3               0:05:26.520     0:03:57.480     26 710 kbps     39 629 kbps     00:06:16.840    35 128 kbps     00:08:22.480    32 208 kbps     00:06:12.000    133 549 bytes   415 837 bytes   00:08:24.359
4               0:09:24.000     0:06:38.760     25 244 kbps     40 706 kbps     00:15:46.320    34 537 kbps     00:10:58.079    32 916 kbps     00:10:55.440    126 222 bytes   477 956 bytes   00:13:09.160
5               0:16:02.760     0:04:37.520     28 462 kbps     42 545 kbps     00:16:08.359    32 165 kbps     00:16:07.520    30 773 kbps     00:16:13.880    142 310 bytes   400 188 bytes   00:16:02.880
6               0:20:40.280     0:06:40.879     23 739 kbps     41 086 kbps     00:25:18.880    35 037 kbps     00:25:15.239    31 693 kbps     00:26:31.440    118 696 bytes   468 220 bytes   00:25:53.719
7               0:27:21.159     0:04:35.160     22 525 kbps     43 856 kbps     00:30:22.560    33 791 kbps     00:30:19.880    29 524 kbps     00:29:58.120    112 625 bytes   479 120 bytes   00:30:08.120
8               0:31:56.320     0:04:34.919     24 289 kbps     39 603 kbps     00:34:20.040    32 773 kbps     00:34:18.320    30 375 kbps     00:34:18.040    121 443 bytes   436 503 bytes   00:34:20.840
9               0:36:31.239     0:03:33.160     24 953 kbps     39 440 kbps     00:39:23.360    34 528 kbps     00:38:31.000    31 081 kbps     00:38:31.320    124 763 bytes   462 544 bytes   00:39:04.200
10              0:40:04.400     0:05:55.839     25 306 kbps     37 235 kbps     00:40:19.239    32 527 kbps     00:41:03.400    30 670 kbps     00:40:58.360    126 529 bytes   470 790 bytes   00:40:20.200
11              0:46:00.239     0:03:49.760     21 800 kbps     37 021 kbps     00:46:54.320    33 291 kbps     00:46:52.280    29 994 kbps     00:46:50.320    109 002 bytes   458 834 bytes   00:46:57.239
12              0:49:50.000     0:05:31.079     25 381 kbps     42 322 kbps     00:54:47.760    37 243 kbps     00:54:43.760    33 122 kbps     00:54:39.840    126 904 bytes   459 044 bytes   00:54:42.840
13              0:55:21.080     0:03:32.520     25 753 kbps     38 185 kbps     00:58:28.680    31 626 kbps     00:57:14.440    30 619 kbps     00:57:10.640    128 766 bytes   471 991 bytes   00:58:29.360
14              0:58:53.600     0:02:33.479     24 923 kbps     40 736 kbps     01:00:35.280    31 899 kbps     01:00:41.120    30 593 kbps     01:00:42.280    124 617 bytes   459 392 bytes   01:01:04.920
15              1:01:27.080     0:04:49.920     24 718 kbps     39 402 kbps     01:03:10.760    32 878 kbps     01:04:12.040    31 094 kbps     01:05:09.760    123 591 bytes   468 913 bytes   01:02:45.080
16              1:06:17.000     0:04:23.760     23 795 kbps     40 648 kbps     01:06:54.560    34 442 kbps     01:09:28.400    30 316 kbps     01:08:30.480    118 975 bytes   448 588 bytes   01:07:46.280
17              1:10:40.760     0:07:26.960     26 110 kbps     40 639 kbps     01:13:43.160    34 203 kbps     01:17:39.120    32 167 kbps     01:10:57.120    130 551 bytes   465 950 bytes   01:13:31.160
18              1:18:07.720     0:06:15.920     26 422 kbps     37 813 kbps     01:22:44.479    33 153 kbps     01:21:40.920    30 259 kbps     01:21:37.200    132 112 bytes   429 506 bytes   01:20:26.280
19              1:24:23.640     0:07:01.799     27 559 kbps     43 104 kbps     01:25:20.800    35 951 kbps     01:25:16.600    33 878 kbps     01:25:15.400    137 797 bytes   458 991 bytes   01:30:59.439
20              1:31:25.439     0:01:04.120     14 311 kbps     31 686 kbps     01:31:25.520    26 788 kbps     01:31:25.479    23 093 kbps     01:31:25.600    71 602 bytes    407 586 bytes   01:31:39.439
STREAM DIAGNOSTICS:
File            PID             Type            Codec           Language                Seconds                 Bitrate                 Bytes           Packets
----            ---             ----            -----           --------                --------------          --------------          -------------   -----
00010.M2TS      4113 (0x1011)   0x1B            AVC                                     5549,480                24 980                  17 328 167 194  94 256 231
00010.M2TS      4352 (0x1100)   0x86            DTS-HD MA       eng (English)           5549,480                3 269                   2 267 530 768   13 188 869
<---- END FORUMS PASTE ---->
QUICK SUMMARY:
Disc Title: EUROPE LIVE AT SHEPARDS BUSH.2011.Blu-Ray.HDGeek
Disc Size: 40 376 488 036 bytes
Protection: AACS
BD-Java: No
Playlist: 00008.MPLS
Size: 20 665 159 680 bytes
Length: 1:32:29.560
Total Bitrate: 29,79 Mbps
Video: MPEG-4 AVC Video / 24980 kbps / 1080i / 25 fps / 16:9 / High Profile 4.1
Audio: English / DTS-HD Master Audio / 5.1 / 48 kHz / 3269 kbps / 16-bit (DTS Core: 5.1 / 48 kHz / 1509 kbps / 16-bit)
********************
PLAYLIST: 00006.MPLS
********************
<--- BEGIN FORUMS PASTE --->
Total   Video
Title                                                           Codec   Length  Movie Size      Disc Size       Bitrate Bitrate Main Audio Track                          Secondary Audio Track
-----                                                           ------  ------- --------------  --------------  ------- ------- ------------------                        ---------------------
00006.MPLS                                                      AVC     1:02:22 13 006 479 360  40 376 488 036  27,80   23,50   DTS-HD Master 5.1 2842Kbps (48kHz/16-bit)
DISC INFO:
Disc Title:     EUROPE LIVE AT SHEPARDS BUSH.2011.Blu-Ray.HDGeek
Disc Size:      40 376 488 036 bytes
Protection:     AACS
BD-Java:        No
Extras:         50Hz Content
BDInfo:         0.5.8
PLAYLIST REPORT:
Name:                   00006.MPLS
Length:                 1:02:22.960 (h:m:s.ms)
Size:                   13 006 479 360 bytes
Total Bitrate:          27,80 Mbps
VIDEO:
Codec                   Bitrate             Description
-----                   -------             -----------
MPEG-4 AVC Video        23498 kbps          1080i / 25 fps / 16:9 / High Profile 4.1
AUDIO:
Codec                           Language        Bitrate         Description
-----                           --------        -------         -----------
DTS-HD Master Audio             English         2842 kbps       5.1 / 48 kHz / 2842 kbps / 16-bit (DTS Core: 5.1 / 48 kHz / 1509 kbps / 16-bit)
FILES:
Name            Time In         Length          Size            Total Bitrate
----            -------         ------          ----            -------------
00008.M2TS      0:00:00.000     1:02:22.960     13 006 479 360  27 799
CHAPTERS:
Number          Time In         Length          Avg Video Rate  Max 1-Sec Rate  Max 1-Sec Time  Max 5-Sec Rate  Max 5-Sec Time  Max 10Sec Rate  Max 10Sec Time  Avg Frame Size  Max Frame Size  Max Frame Time
------          -------         ------          --------------  --------------  --------------  --------------  --------------  --------------  --------------  --------------  --------------  --------------
1               0:00:00.000     0:05:12.480     24 555 kbps     59 213 kbps     00:04:49.600    41 083 kbps     00:04:05.240    38 878 kbps     00:04:05.240    122 761 bytes   618 487 bytes   00:04:50.440
2               0:05:12.480     0:04:16.799     24 700 kbps     56 822 kbps     00:06:32.720    35 919 kbps     00:06:31.840    32 099 kbps     00:07:12.079    123 502 bytes   517 450 bytes   00:08:24.319
3               0:09:29.280     0:06:14.880     23 269 kbps     59 951 kbps     00:14:42.000    41 699 kbps     00:14:41.960    34 989 kbps     00:15:26.080    116 344 bytes   665 168 bytes   00:14:42.480
4               0:15:44.160     0:03:43.679     24 936 kbps     42 338 kbps     00:17:59.240    35 019 kbps     00:17:57.480    32 884 kbps     00:17:52.520    124 681 bytes   538 096 bytes   00:16:00.840
5               0:19:27.840     0:04:45.120     25 044 kbps     49 579 kbps     00:19:35.119    36 171 kbps     00:20:13.560    33 999 kbps     00:20:13.080    125 222 bytes   467 751 bytes   00:22:56.200
6               0:24:12.960     0:06:11.320     22 823 kbps     50 989 kbps     00:24:14.280    41 523 kbps     00:24:14.159    37 344 kbps     00:24:14.159    114 117 bytes   576 295 bytes   00:24:16.119
7               0:30:24.280     0:05:03.319     18 812 kbps     41 969 kbps     00:31:47.000    31 351 kbps     00:31:43.520    26 951 kbps     00:31:38.280    94 062 bytes    514 910 bytes   00:31:46.520
8               0:35:27.600     0:04:28.079     22 045 kbps     44 037 kbps     00:35:51.239    35 955 kbps     00:35:50.320    32 570 kbps     00:35:50.960    110 223 bytes   532 226 bytes   00:36:00.640
9               0:39:55.680     0:03:38.600     20 646 kbps     38 333 kbps     00:40:12.880    34 343 kbps     00:41:32.880    28 873 kbps     00:41:30.520    103 230 bytes   541 199 bytes   00:41:35.320
10              0:43:34.280     0:05:07.520     25 727 kbps     49 809 kbps     00:47:35.480    42 454 kbps     00:47:35.480    37 385 kbps     00:47:34.520    128 635 bytes   534 487 bytes   00:43:59.680
11              0:48:41.800     0:04:14.279     25 315 kbps     63 897 kbps     00:50:28.800    41 957 kbps     00:52:36.080    37 180 kbps     00:52:35.840    126 576 bytes   628 416 bytes   00:51:47.760
12              0:52:56.080     0:03:26.320     29 944 kbps     51 884 kbps     00:55:13.840    40 176 kbps     00:53:07.239    36 120 kbps     00:55:13.600    149 720 bytes   524 385 bytes   00:53:00.760
13              0:56:22.400     0:04:58.520     22 852 kbps     43 966 kbps     00:58:29.160    36 936 kbps     00:57:05.719    32 142 kbps     00:57:00.360    114 260 bytes   555 113 bytes   01:00:47.000
14              1:01:20.920     0:01:02.039     8 763 kbps      18 916 kbps     01:01:20.960    17 187 kbps     01:01:45.200    16 995 kbps     01:01:41.600    43 844 bytes    282 762 bytes   01:01:21.360
STREAM DIAGNOSTICS:
File            PID             Type            Codec           Language                Seconds                 Bitrate                 Bytes           Packets
----            ---             ----            -----           --------                --------------          --------------          -------------   -----
00008.M2TS      4113 (0x1011)   0x1B            AVC                                     3742,800                23 499                  10 994 211 608  59 806 225
00008.M2TS      4352 (0x1100)   0x86            DTS-HD MA       eng (English)           3742,800                2 842                   1 329 637 188   7 810 426
<---- END FORUMS PASTE ---->
QUICK SUMMARY:
Disc Title: EUROPE LIVE AT SHEPARDS BUSH.2011.Blu-Ray.HDGeek
Disc Size: 40 376 488 036 bytes
Protection: AACS
BD-Java: No
Playlist: 00006.MPLS
Size: 13 006 479 360 bytes
Length: 1:02:22.960
Total Bitrate: 27,80 Mbps
Video: MPEG-4 AVC Video / 23498 kbps / 1080i / 25 fps / 16:9 / High Profile 4.1
Audio: English / DTS-HD Master Audio / 5.1 / 48 kHz / 2842 kbps / 16-bit (DTS Core: 5.1 / 48 kHz / 1509 kbps / 16-bit)
********************
PLAYLIST: 00007.MPLS
********************
<--- BEGIN FORUMS PASTE --->
Total   Video
Title                                                           Codec   Length  Movie Size      Disc Size       Bitrate Bitrate Main Audio Track                          Secondary Audio Track
-----                                                           ------  ------- --------------  --------------  ------- ------- ------------------                        ---------------------
00007.MPLS                                                      AVC     0:15:34 2 774 587 392   40 376 488 036  23,74   19,09   DTS-HD Master 5.1 3362Kbps (48kHz/16-bit)
DISC INFO:
Disc Title:     EUROPE LIVE AT SHEPARDS BUSH.2011.Blu-Ray.HDGeek
Disc Size:      40 376 488 036 bytes
Protection:     AACS
BD-Java:        No
Extras:         50Hz Content
BDInfo:         0.5.8
PLAYLIST REPORT:
Name:                   00007.MPLS
Length:                 0:15:34.800 (h:m:s.ms)
Size:                   2 774 587 392 bytes
Total Bitrate:          23,74 Mbps
VIDEO:
Codec                   Bitrate             Description
-----                   -------             -----------
MPEG-4 AVC Video        19093 kbps          1080i / 25 fps / 16:9 / High Profile 4.1
AUDIO:
Codec                           Language        Bitrate         Description
-----                           --------        -------         -----------
DTS-HD Master Audio             English         3362 kbps       5.1 / 48 kHz / 3362 kbps / 16-bit (DTS Core: 5.1 / 48 kHz / 1509 kbps / 16-bit)
FILES:
Name            Time In         Length          Size            Total Bitrate
----            -------         ------          ----            -------------
00009.M2TS      0:00:00.000     0:15:34.800     2 774 587 392   23 745
CHAPTERS:
Number          Time In         Length          Avg Video Rate  Max 1-Sec Rate  Max 1-Sec Time  Max 5-Sec Rate  Max 5-Sec Time  Max 10Sec Rate  Max 10Sec Time  Avg Frame Size  Max Frame Size  Max Frame Time
------          -------         ------          --------------  --------------  --------------  --------------  --------------  --------------  --------------  --------------  --------------  --------------
1               0:00:00.000     0:03:53.760     19 921 kbps     41 948 kbps     00:00:04.000    34 414 kbps     00:00:03.999    28 389 kbps     00:00:03.960    99 586 bytes    371 314 bytes   00:00:04.320
2               0:03:53.760     0:02:08.639     20 151 kbps     28 169 kbps     00:05:48.440    23 733 kbps     00:03:54.000    22 184 kbps     00:03:54.000    100 753 bytes   326 717 bytes   00:04:25.640
3               0:06:02.400     0:04:24.480     19 745 kbps     37 234 kbps     00:06:16.880    25 267 kbps     00:07:39.200    23 378 kbps     00:07:18.440    98 726 bytes    382 489 bytes   00:07:18.559
4               0:10:26.880     0:04:15.239     20 256 kbps     38 179 kbps     00:11:29.319    27 395 kbps     00:10:34.319    27 257 kbps     00:10:29.280    101 281 bytes   488 280 bytes   00:11:16.720
5               0:14:42.119     0:00:50.960     4 004 kbps      16 729 kbps     00:14:42.680    8 500 kbps      00:14:42.119    6 324 kbps      00:15:00.520    20 021 bytes    153 209 bytes   00:14:43.560
6               0:15:33.080     0:00:01.720     1 506 kbps      1 767 kbps      00:15:33.280    0 kbps          00:00:00.000    0 kbps          00:00:00.000    7 710 bytes     31 499 bytes    00:15:33.320
STREAM DIAGNOSTICS:
File            PID             Type            Codec           Language                Seconds                 Bitrate                 Bytes           Packets
----            ---             ----            -----           --------                --------------          --------------          -------------   -----
00009.M2TS      4113 (0x1011)   0x1B            AVC                                     934,640                 19 096                  2 230 977 644   12 138 570
00009.M2TS      4352 (0x1100)   0x86            DTS-HD MA       eng (English)           934,640                 3 363                   392 877 612     2 281 040
<---- END FORUMS PASTE ---->
QUICK SUMMARY:
Disc Title: EUROPE LIVE AT SHEPARDS BUSH.2011.Blu-Ray.HDGeek
Disc Size: 40 376 488 036 bytes
Protection: AACS
BD-Java: No
Playlist: 00007.MPLS
Size: 2 774 587 392 bytes
Length: 0:15:34.800
Total Bitrate: 23,74 Mbps
Video: MPEG-4 AVC Video / 19093 kbps / 1080i / 25 fps / 16:9 / High Profile 4.1
Audio: English / DTS-HD Master Audio / 5.1 / 48 kHz / 3362 kbps / 16-bit (DTS Core: 5.1 / 48 kHz / 1509 kbps / 16-bit)
********************
PLAYLIST: 00003.MPLS
********************
<--- BEGIN FORUMS PASTE --->
Total   Video
Title                                                           Codec   Length  Movie Size      Disc Size       Bitrate Bitrate Main Audio Track                          Secondary Audio Track
-----                                                           ------  ------- --------------  --------------  ------- ------- ------------------                        ---------------------
00003.MPLS                                                      AVC     0:09:04 1 312 180 224   40 376 488 036  19,29   18,17   DD AC3 2.0 192Kbps
DISC INFO:
Disc Title:     EUROPE LIVE AT SHEPARDS BUSH.2011.Blu-Ray.HDGeek
Disc Size:      40 376 488 036 bytes
Protection:     AACS
BD-Java:        No
Extras:         50Hz Content
BDInfo:         0.5.8
PLAYLIST REPORT:
Name:                   00003.MPLS
Length:                 0:09:04.200 (h:m:s.ms)
Size:                   1 312 180 224 bytes
Total Bitrate:          19,29 Mbps
VIDEO:
Codec                   Bitrate             Description
-----                   -------             -----------
MPEG-4 AVC Video        18166 kbps          1080i / 25 fps / 16:9 / High Profile 4.1
AUDIO:
Codec                           Language        Bitrate         Description
-----                           --------        -------         -----------
Dolby Digital Audio             English         192 kbps        2.0 / 48 kHz / 192 kbps / DN -4dB
FILES:
Name            Time In         Length          Size            Total Bitrate
----            -------         ------          ----            -------------
00003.M2TS      0:00:00.000     0:09:04.200     1 312 180 224   19 290
CHAPTERS:
Number          Time In         Length          Avg Video Rate  Max 1-Sec Rate  Max 1-Sec Time  Max 5-Sec Rate  Max 5-Sec Time  Max 10Sec Rate  Max 10Sec Time  Avg Frame Size  Max Frame Size  Max Frame Time
------          -------         ------          --------------  --------------  --------------  --------------  --------------  --------------  --------------  --------------  --------------  --------------
1               0:00:00.000     0:01:20.639     19 776 kbps     51 870 kbps     00:00:04.039    31 151 kbps     00:00:04.039    27 589 kbps     00:00:04.040    98 829 bytes    515 728 bytes   00:00:04.480
2               0:01:20.639     0:01:54.720     20 119 kbps     47 728 kbps     00:01:21.320    27 151 kbps     00:01:21.320    24 069 kbps     00:01:21.320    100 594 bytes   408 748 bytes   00:01:21.639
3               0:03:15.360     0:02:01.439     19 976 kbps     49 476 kbps     00:03:21.120    29 744 kbps     00:03:21.360    26 607 kbps     00:03:21.240    99 881 bytes    450 322 bytes   00:03:51.919
4               0:05:16.799     0:01:33.120     20 075 kbps     51 620 kbps     00:05:20.400    27 200 kbps     00:05:26.480    26 274 kbps     00:05:20.600    100 375 bytes   590 077 bytes   00:06:43.520
5               0:06:49.919     0:01:08.639     20 058 kbps     38 505 kbps     00:06:52.400    28 444 kbps     00:06:52.000    22 770 kbps     00:06:51.760    100 291 bytes   239 034 bytes   00:06:52.640
6               0:07:58.559     0:01:05.640     4 737 kbps      15 522 kbps     00:07:58.559    13 362 kbps     00:08:32.319    12 819 kbps     00:08:31.120    23 700 bytes    116 084 bytes   00:07:58.800
STREAM DIAGNOSTICS:
File            PID             Type            Codec           Language                Seconds                 Bitrate                 Bytes           Packets
----            ---             ----            -----           --------                --------------          --------------          -------------   -----
00003.M2TS      4113 (0x1011)   0x1B            AVC                                     544,120                 18 168                  1 235 718 704   6 730 990
00003.M2TS      4352 (0x1100)   0x81            AC3             eng (English)           544,120                 192                     13 061 376      85 035
<---- END FORUMS PASTE ---->
QUICK SUMMARY:
Disc Title: EUROPE LIVE AT SHEPARDS BUSH.2011.Blu-Ray.HDGeek
Disc Size: 40 376 488 036 bytes
Protection: AACS
BD-Java: No
Playlist: 00003.MPLS
Size: 1 312 180 224 bytes
Length: 0:09:04.200
Total Bitrate: 19,29 Mbps
Video: MPEG-4 AVC Video / 18166 kbps / 1080i / 25 fps / 16:9 / High Profile 4.1
Audio: English / Dolby Digital Audio / 2.0 / 48 kHz / 192 kbps / DN -4dB
********************
PLAYLIST: 00002.MPLS
********************
<--- BEGIN FORUMS PASTE --->
Total   Video
Title                                                           Codec   Length  Movie Size      Disc Size       Bitrate Bitrate Main Audio Track                          Secondary Audio Track
-----                                                           ------  ------- --------------  --------------  ------- ------- ------------------                        ---------------------
00002.MPLS                                                      AVC     0:05:40 996 691 968     40 376 488 036  23,44   19,96   DTS-HD Master 5.1 2182Kbps (48kHz/16-bit)
DISC INFO:
Disc Title:     EUROPE LIVE AT SHEPARDS BUSH.2011.Blu-Ray.HDGeek
Disc Size:      40 376 488 036 bytes
Protection:     AACS
BD-Java:        No
Extras:         50Hz Content
BDInfo:         0.5.8
PLAYLIST REPORT:
Name:                   00002.MPLS
Length:                 0:05:40.120 (h:m:s.ms)
Size:                   996 691 968 bytes
Total Bitrate:          23,44 Mbps
VIDEO:
Codec                   Bitrate             Description
-----                   -------             -----------
MPEG-4 AVC Video        19961 kbps          1080i / 25 fps / 16:9 / High Profile 4.1
AUDIO:
Codec                           Language        Bitrate         Description
-----                           --------        -------         -----------
DTS-HD Master Audio             English         2182 kbps       5.1 / 48 kHz / 2182 kbps / 16-bit (DTS Core: 5.1 / 48 kHz / 1509 kbps / 16-bit)
FILES:
Name            Time In         Length          Size            Total Bitrate
----            -------         ------          ----            -------------
00002.M2TS      0:00:00.000     0:05:40.120     996 691 968     23 443
CHAPTERS:
Number          Time In         Length          Avg Video Rate  Max 1-Sec Rate  Max 1-Sec Time  Max 5-Sec Rate  Max 5-Sec Time  Max 10Sec Rate  Max 10Sec Time  Avg Frame Size  Max Frame Size  Max Frame Time
------          -------         ------          --------------  --------------  --------------  --------------  --------------  --------------  --------------  --------------  --------------  --------------
1               0:00:00.000     0:01:23.159     20 358 kbps     38 912 kbps     00:00:13.399    32 578 kbps     00:00:18.679    27 673 kbps     00:00:13.080    101 740 bytes   597 275 bytes   00:00:14.399
2               0:01:23.159     0:01:04.800     21 867 kbps     47 160 kbps     00:01:30.200    34 380 kbps     00:01:29.679    30 204 kbps     00:01:29.840    109 335 bytes   807 080 bytes   00:01:30.720
3               0:02:27.960     0:03:03.360     20 013 kbps     47 461 kbps     00:02:55.159    34 912 kbps     00:02:54.679    28 181 kbps     00:04:50.640    100 067 bytes   733 780 bytes   00:02:58.080
4               0:05:31.320     0:00:08.799     1 085 kbps      2 665 kbps      00:05:32.120    1 137 kbps      00:05:32.039    0 kbps          00:00:00.000    5 451 bytes     40 318 bytes    00:05:33.120
STREAM DIAGNOSTICS:
File            PID             Type            Codec           Language                Seconds                 Bitrate                 Bytes           Packets
----            ---             ----            -----           --------                --------------          --------------          -------------   -----
00002.M2TS      4113 (0x1011)   0x1B            AVC                                     339,960                 19 970                  848 642 076     4 622 120
00002.M2TS      4352 (0x1100)   0x86            DTS-HD MA       eng (English)           339,960                 2 183                   92 749 644      557 552
<---- END FORUMS PASTE ---->
QUICK SUMMARY:
Disc Title: EUROPE LIVE AT SHEPARDS BUSH.2011.Blu-Ray.HDGeek
Disc Size: 40 376 488 036 bytes
Protection: AACS
BD-Java: No
Playlist: 00002.MPLS
Size: 996 691 968 bytes
Length: 0:05:40.120
Total Bitrate: 23,44 Mbps
Video: MPEG-4 AVC Video / 19961 kbps / 1080i / 25 fps / 16:9 / High Profile 4.1
Audio: English / DTS-HD Master Audio / 5.1 / 48 kHz / 2182 kbps / 16-bit (DTS Core: 5.1 / 48 kHz / 1509 kbps / 16-bit)
********************
PLAYLIST: 00001.MPLS
********************
<--- BEGIN FORUMS PASTE --->
Total   Video
Title                                                           Codec   Length  Movie Size      Disc Size       Bitrate Bitrate Main Audio Track                          Secondary Audio Track
-----                                                           ------  ------- --------------  --------------  ------- ------- ------------------                        ---------------------
00001.MPLS                                                      AVC     0:04:09 862 286 400     40 376 488 036  27,69   24,11   LPCM 2.0 2304Kbps (48kHz/24-bit)
DISC INFO:
Disc Title:     EUROPE LIVE AT SHEPARDS BUSH.2011.Blu-Ray.HDGeek
Disc Size:      40 376 488 036 bytes
Protection:     AACS
BD-Java:        No
Extras:         50Hz Content
BDInfo:         0.5.8
PLAYLIST REPORT:
Name:                   00001.MPLS
Length:                 0:04:09.120 (h:m:s.ms)
Size:                   862 286 400 bytes
Total Bitrate:          27,69 Mbps
VIDEO:
Codec                   Bitrate             Description
-----                   -------             -----------
MPEG-4 AVC Video        24110 kbps          1080i / 25 fps / 16:9 / High Profile 4.1
AUDIO:
Codec                           Language        Bitrate         Description
-----                           --------        -------         -----------
LPCM Audio                      English         2304 kbps       2.0 / 48 kHz / 2304 kbps / 24-bit
FILES:
Name            Time In         Length          Size            Total Bitrate
----            -------         ------          ----            -------------
00001.M2TS      0:00:00.000     0:04:09.120     862 286 400     27 691
CHAPTERS:
Number          Time In         Length          Avg Video Rate  Max 1-Sec Rate  Max 1-Sec Time  Max 5-Sec Rate  Max 5-Sec Time  Max 10Sec Rate  Max 10Sec Time  Avg Frame Size  Max Frame Size  Max Frame Time
------          -------         ------          --------------  --------------  --------------  --------------  --------------  --------------  --------------  --------------  --------------  --------------
1               0:00:00.000     0:01:04.799     22 654 kbps     40 493 kbps     00:00:42.320    34 422 kbps     00:00:38.519    28 672 kbps     00:00:33.759    113 201 bytes   400 102 bytes   00:00:08.480
2               0:01:04.799     0:01:30.920     24 080 kbps     46 125 kbps     00:01:25.159    31 176 kbps     00:01:54.399    30 246 kbps     00:02:22.960    120 401 bytes   354 904 bytes   00:01:25.240
3               0:02:35.720     0:01:33.399     25 149 kbps     36 272 kbps     00:03:11.120    31 145 kbps     00:02:37.000    29 254 kbps     00:02:35.760    125 797 bytes   331 135 bytes   00:02:59.840
STREAM DIAGNOSTICS:
File            PID             Type            Codec           Language                Seconds                 Bitrate                 Bytes           Packets
----            ---             ----            -----           --------                --------------          --------------          -------------   -----
00001.M2TS      4113 (0x1011)   0x1B            AVC                                     250,040                 24 031                  751 082 384     4 085 651
00001.M2TS      4352 (0x1100)   0x80            LPCM            eng (English)           250,040                 2 312                   72 246 208      400 256
<---- END FORUMS PASTE ---->
QUICK SUMMARY:
Disc Title: EUROPE LIVE AT SHEPARDS BUSH.2011.Blu-Ray.HDGeek
Disc Size: 40 376 488 036 bytes
Protection: AACS
BD-Java: No
Playlist: 00001.MPLS
Size: 862 286 400 bytes
Length: 0:04:09.120
Total Bitrate: 27,69 Mbps
Video: MPEG-4 AVC Video / 24110 kbps / 1080i / 25 fps / 16:9 / High Profile 4.1
Audio: English / LPCM Audio / 2.0 / 48 kHz / 2304 kbps / 24-bit
********************
PLAYLIST: 00000.MPLS
********************
<--- BEGIN FORUMS PASTE --->
Total   Video
Title                                                           Codec   Length  Movie Size      Disc Size       Bitrate Bitrate Main Audio Track                          Secondary Audio Track
-----                                                           ------  ------- --------------  --------------  ------- ------- ------------------                        ---------------------
00000.MPLS                                                      AVC     0:03:34 737 961 984     40 376 488 036  27,57   24,00   LPCM 2.0 2304Kbps (48kHz/24-bit)
DISC INFO:
Disc Title:     EUROPE LIVE AT SHEPARDS BUSH.2011.Blu-Ray.HDGeek
Disc Size:      40 376 488 036 bytes
Protection:     AACS
BD-Java:        No
Extras:         50Hz Content
BDInfo:         0.5.8
PLAYLIST REPORT:
Name:                   00000.MPLS
Length:                 0:03:34.120 (h:m:s.ms)
Size:                   737 961 984 bytes
Total Bitrate:          27,57 Mbps
VIDEO:
Codec                   Bitrate             Description
-----                   -------             -----------
MPEG-4 AVC Video        23996 kbps          1080i / 25 fps / 16:9 / High Profile 4.1
AUDIO:
Codec                           Language        Bitrate         Description
-----                           --------        -------         -----------
LPCM Audio                      English         2304 kbps       2.0 / 48 kHz / 2304 kbps / 24-bit
FILES:
Name            Time In         Length          Size            Total Bitrate
----            -------         ------          ----            -------------
00000.M2TS      0:00:00.000     0:03:34.120     737 961 984     27 572
CHAPTERS:
Number          Time In         Length          Avg Video Rate  Max 1-Sec Rate  Max 1-Sec Time  Max 5-Sec Rate  Max 5-Sec Time  Max 10Sec Rate  Max 10Sec Time  Avg Frame Size  Max Frame Size  Max Frame Time
------          -------         ------          --------------  --------------  --------------  --------------  --------------  --------------  --------------  --------------  --------------  --------------
1               0:00:00.000     0:01:16.519     23 311 kbps     40 824 kbps     00:01:15.519    31 994 kbps     00:01:11.519    27 024 kbps     00:00:53.200    116 492 bytes   398 500 bytes   00:00:34.559
2               0:01:16.519     0:01:09.759     24 978 kbps     41 751 kbps     00:01:16.840    29 525 kbps     00:02:01.960    28 537 kbps     00:02:02.480    124 890 bytes   429 953 bytes   00:02:03.919
3               0:02:26.279     0:01:07.840     23 760 kbps     36 491 kbps     00:02:55.320    31 221 kbps     00:02:51.559    29 364 kbps     00:02:50.400    118 872 bytes   397 633 bytes   00:03:25.399
STREAM DIAGNOSTICS:
File            PID             Type            Codec           Language                Seconds                 Bitrate                 Bytes           Packets
----            ---             ----            -----           --------                --------------          --------------          -------------   -----
00000.M2TS      4113 (0x1011)   0x1B            AVC                                     214,040                 24 005                  642 261 758     3 493 753
00000.M2TS      4352 (0x1100)   0x80            LPCM            eng (English)           214,040                 2 311                   61 837 856      342 592
<---- END FORUMS PASTE ---->
QUICK SUMMARY:
Disc Title: EUROPE LIVE AT SHEPARDS BUSH.2011.Blu-Ray.HDGeek
Disc Size: 40 376 488 036 bytes
Protection: AACS
BD-Java: No
Playlist: 00000.MPLS
Size: 737 961 984 bytes
Length: 0:03:34.120
Total Bitrate: 27,57 Mbps
Video: MPEG-4 AVC Video / 23996 kbps / 1080i / 25 fps / 16:9 / High Profile 4.1
Audio: English / LPCM Audio / 2.0 / 48 kHz / 2304 kbps / 24-bit
********************
PLAYLIST: 00013.MPLS
********************
<--- BEGIN FORUMS PASTE --->
Total   Video
Title                                                           Codec   Length  Movie Size      Disc Size       Bitrate Bitrate Main Audio Track                          Secondary Audio Track
-----                                                           ------  ------- --------------  --------------  ------- ------- ------------------                        ---------------------
00013.MPLS                                                      AVC     0:00:20 12 435 456      40 376 488 036  4,84    4,55
DISC INFO:
Disc Title:     EUROPE LIVE AT SHEPARDS BUSH.2011.Blu-Ray.HDGeek
Disc Size:      40 376 488 036 bytes
Protection:     AACS
BD-Java:        No
Extras:         50Hz Content
BDInfo:         0.5.8
PLAYLIST REPORT:
Name:                   00013.MPLS
Length:                 0:00:20.559 (h:m:s.ms)
Size:                   12 435 456 bytes
Total Bitrate:          4,84 Mbps
VIDEO:
Codec                   Bitrate             Description
-----                   -------             -----------
MPEG-4 AVC Video        4548 kbps           1080i / 25 fps / 16:9 / High Profile 4.1
FILES:
Name            Time In         Length          Size            Total Bitrate
----            -------         ------          ----            -------------
00005.M2TS      0:00:00.000     0:00:06.000     4 608 000       6 144
00013.M2TS      0:00:06.000     0:00:06.039     4 319 232       5 721
00019.M2TS      0:00:12.039     0:00:02.480     2 918 400       9 414
00006.M2TS      0:00:14.519     0:00:06.039     589 824         781
CHAPTERS:
Number          Time In         Length          Avg Video Rate  Max 1-Sec Rate  Max 1-Sec Time  Max 5-Sec Rate  Max 5-Sec Time  Max 10Sec Rate  Max 10Sec Time  Avg Frame Size  Max Frame Size  Max Frame Time
------          -------         ------          --------------  --------------  --------------  --------------  --------------  --------------  --------------  --------------  --------------  --------------
1               0:00:00.000     0:00:20.559     4 548 kbps      15 000 kbps     00:00:13.480    7 389 kbps      00:00:09.919    6 693 kbps      00:00:04.480    22 738 bytes    260 620 bytes   00:00:09.000
STREAM DIAGNOSTICS:
File            PID             Type            Codec           Language                Seconds                 Bitrate                 Bytes           Packets
----            ---             ----            -----           --------                --------------          --------------          -------------   -----
00005.M2TS      4113 (0x1011)   0x1B            AVC                                     5,880                   5 926                   4 355 917       23 779
00013.M2TS      4113 (0x1011)   0x1B            AVC                                     5,960                   5 476                   4 079 560       22 283
00019.M2TS      4113 (0x1011)   0x1B            AVC                                     2,400                   9 250                   2 774 990       15 110
00006.M2TS      4113 (0x1011)   0x1B            AVC                                     5,960                   640                     477 065         2 865
<---- END FORUMS PASTE ---->
QUICK SUMMARY:
Disc Title: EUROPE LIVE AT SHEPARDS BUSH.2011.Blu-Ray.HDGeek
Disc Size: 40 376 488 036 bytes
Protection: AACS
BD-Java: No
Playlist: 00013.MPLS
Size: 12 435 456 bytes
Length: 0:00:20.559
Total Bitrate: 4,84 Mbps
Video: MPEG-4 AVC Video / 4548 kbps / 1080i / 25 fps / 16:9 / High Profile 4.1

MediaInfo

E:\torrent files\EUROPE LIVE AT SHEPARDS BUSH.2011.Blu-Ray.HDGeek\BDMV\STREAM\00010.m2ts
   General #0
      ID : 0 (0x0)
      Complete name : E:\torrent files\EUROPE LIVE AT SHEPARDS BUSH.2011.Blu-Ray.HDGeek\BDMV\STREAM\00010.m2ts
      Format : BDAV
      Format/Info : Blu-ray Video
      File size : 19.2 GiB
      Duration : 1h 32mn
      Overall bit rate mode : Variable
      Overall bit rate : 29.8 Mbps
      Maximum Overall bit rate : 48.0 Mbps
   Video #4113
      ID : 4113 (0x1011)
      Menu ID : 1 (0x1)
      Format : AVC
      Format/Info : Advanced Video Codec
      Format profile : High@L4.1
      Format settings, CABAC : Yes
      Format settings, ReFrames : 4 frames
      Codec ID : 27
      Duration : 1h 32mn
      Bit rate mode : Variable
      Maximum bit rate : 32.0 Mbps
      Width : 1 920 pixels
      Height : 1 080 pixels
      Display aspect ratio : 16:9
      Frame rate : 25.000 fps
      Standard : PAL
      Color space : YUV
      Chroma subsampling : 4:2:0
      Bit depth : 8 bits
      Scan type : MBAFF
      Color primaries : BT.709
      Transfer characteristics : BT.709
      Matrix coefficients : BT.709
   Audio #4352
      ID : 4352 (0x1100)
      Menu ID : 1 (0x1)
      Format : DTS
      Format/Info : Digital Theater Systems
      Format profile : MA / Core
      Mode : 16
      Format settings, Endianness : Big
      Muxing mode : Stream extension
      Codec ID : 134
      Duration : 1h 32mn
      Bit rate mode : Variable
      Bit rate : Unknown / 1 509 Kbps
      Channel(s) : 6 channels
      Channel positions : Front: L C R, Side: L R, LFE
      Sampling rate : 48.0 KHz
      Bit depth : 16 bits
      Compression mode : Lossless / Lossy
-- --
[Профиль] [ЛС]
Кто просматривает тему:

Форум Тема Автор Размер
Зарубежные концерты Europe - Live at Sweden Rock: 30th Anniversary Show (2013) BDRemux [1080i] sergej644 31.08 GB
Показать сообщения:    

Текущее время: Сегодня 13:01

Часовой пояс: GMT



Вы не можете начинать темы
Вы не можете отвечать на сообщения
Вы не можете редактировать свои сообщения
Вы не можете удалять свои сообщения
Вы не можете голосовать в опросах
Вы не можете прикреплять файлы к сообщениям
Вы не можете скачивать файлы