(Hard Rock)Europe - 4 Albums (1983 - 2009) / 2013, Blu-spec CD 2 Sony Music Japan / [FLAC(image+cue),Lossless]

 
Автор Сообщение

sergej644 ®

Пол:

Стаж: 4 года 11 месяцев

Сообщений: 6038

Откуда: Soviet Union



Награды: Нет

Торрент-статистика

Создавать темы 13-Окт-2014 08:17

[Цитировать]

-Europe - 4 Albums (1986 - 2009) / 2013- Год издания: 2013
Страна: Швеция
Издатель: Epic Records, Legacy Recordings, Sony Music Japan
Jewel Case / Blu-spec CD2
Каталог: SICP-30394/96 • SICP-30441
Страна производитель диска: Япония
Жанр: Hard Rock
Продолжительность: 03:46:21
Кодек: FLAC
Битрейт: Lossless
Тип рипа: image +.cue +.log
Наличие сканов: format PNG 600dpi/300dpi (booklets), full scans
Rip by ALLexxess спасибо
Треклист:
-

1983 - Europe

Продолжительность: 00:40:11
Трек лист:
-01 In The Future To Come
02 Farewell
03 Seven Doors Hotel
04 The King Will Return
05 Boyazont
06 Children Of This Time
07 Words Of Wisdom
08 Paradize Bay
09 Memories

Отчёт ЕАС:

Exact Audio Copy V1.0 beta 3 from 29. August 2011
EAC extraction logfile from 23. January 2014, 19:42
Europe / Europe BSCD2
Used drive  : PLEXTOR BD-R  PX-B950SA   Adapter: 6  ID: 0
Read mode               : Secure
Utilize accurate stream : Yes
Defeat audio cache      : Yes
Make use of C2 pointers : No
Read offset correction                      : 6
Overread into Lead-In and Lead-Out          : No
Fill up missing offset samples with silence : Yes
Delete leading and trailing silent blocks   : No
Null samples used in CRC calculations       : Yes
Used interface                              : Native Win32 interface for Win NT & 2000
Used output format : Internal WAV Routines
Sample format      : 44.100 Hz; 16 Bit; Stereo
TOC of the extracted CD
     Track |   Start  |  Length  | Start sector | End sector
    ---------------------------------------------------------
        1  |  0:00.00 |  5:00.50 |         0    |    22549
        2  |  5:00.50 |  4:16.07 |     22550    |    41756
        3  |  9:16.57 |  5:17.25 |     41757    |    65556
        4  | 14:34.07 |  5:34.50 |     65557    |    90656
        5  | 20:08.57 |  2:33.35 |     90657    |   102166
        6  | 22:42.17 |  4:55.15 |    102167    |   124306
        7  | 27:37.32 |  4:06.68 |    124307    |   142824
        8  | 31:44.25 |  3:53.20 |    142825    |   160319
        9  | 35:37.45 |  4:33.02 |    160320    |   180796
Range status and errors
Selected range
     Filename C:\Users\Meijin\Desktop\Lossless Galaxy ALLexxess\Europe\1983 Europe (BSCD2 Sony Music Japan 2013)\Europe - Europe BSCD2.wav
     Peak level 99.0 %
     Extraction speed 6.7 X
     Range quality 100.0 %
     Test CRC 6E6CB006
     Copy CRC 6E6CB006
     Copy OK
No errors occurred
AccurateRip summary
Track  1  cannot be verified as accurate (confidence 4)  [6E086137], AccurateRip returned [00F6D4DA]  (AR v2)
Track  2  cannot be verified as accurate (confidence 4)  [9A22AD82], AccurateRip returned [90B435A3]  (AR v2)
Track  3  cannot be verified as accurate (confidence 4)  [A39A035A], AccurateRip returned [6B823EE3]  (AR v2)
Track  4  cannot be verified as accurate (confidence 4)  [B5E36863], AccurateRip returned [116AE3BC]  (AR v2)
Track  5  cannot be verified as accurate (confidence 4)  [FD425D37], AccurateRip returned [534C7885]  (AR v2)
Track  6  cannot be verified as accurate (confidence 4)  [1A251EC0], AccurateRip returned [A8B1867C]  (AR v2)
Track  7  cannot be verified as accurate (confidence 4)  [48C166AF], AccurateRip returned [F86CF643]  (AR v2)
Track  8  cannot be verified as accurate (confidence 4)  [2DEC8D42], AccurateRip returned [10BD2EB1]  (AR v2)
Track  9  cannot be verified as accurate (confidence 4)  [F6C8AB08], AccurateRip returned [AB2F5004]  (AR v2)
No tracks could be verified as accurate
You may have a different pressing from the one(s) in the database
End of status report
==== Log checksum E37305193D835E69C4D9E7CB34220C6555FA31989773813754737FF244C7E2E4 ====

Отчёт auCDtect Task manager:

-----------------------
DON'T MODIFY THIS FILE
-----------------------
PERFORMER: auCDtect Task Manager, ver. 1.5.1RC3 build 1.5.1.4
Copyright (c) 2008-2010 y-soft. All rights reserved
http://y-soft.org
ANALYZER: auCDtect: CD records authenticity detector, version 0.8.2
Copyright (c) 2004 Oleg Berngardt. All rights reserved.
Copyright (c) 2004 Alexander Djourik. All rights reserved.
FILE: Europe - Europe BSCD2.wav
  Size: 425234588 Hash: 3E15F40149D31A61B977048CE2C846BA Accuracy: -m8
  Conclusion: CDDA 100%
  Signature: 5E1FA2F40E60EFABBB532A8FEA882E089C8252F7
FILE: Europe - Europe BSCD2.flac
  Size: 302302203 Hash: 3E15F40149D31A61B977048CE2C846BA Accuracy: -m8
  Conclusion: CDDA 100%
  Signature: F6A006F2ED4D72D4BCE03D52E7E9CC77678ADC02

1984 - Wings Of Tomorrow

Продолжительность: 00:39:00
Трек лист:
-01 Stormwind
02 Scream Of Anger
03 Open Your Heart
04 Treated Bad Again
05 Aphasia
06 Wing Of Tomorrow
07 Wasted Time
08 Lyin' Eyes
09 Dreamer
10 Dance The Night Away

Отчёт ЕАС:

Exact Audio Copy V1.0 beta 3 from 29. August 2011
EAC extraction logfile from 23. January 2014, 19:06
Europe / Wings Of Tomorrow BSCD2
Used drive  : PLEXTOR BD-R  PX-B950SA   Adapter: 6  ID: 0
Read mode               : Secure
Utilize accurate stream : Yes
Defeat audio cache      : Yes
Make use of C2 pointers : No
Read offset correction                      : 6
Overread into Lead-In and Lead-Out          : No
Fill up missing offset samples with silence : Yes
Delete leading and trailing silent blocks   : No
Null samples used in CRC calculations       : Yes
Used interface                              : Native Win32 interface for Win NT & 2000
Used output format : Internal WAV Routines
Sample format      : 44.100 Hz; 16 Bit; Stereo
TOC of the extracted CD
     Track |   Start  |  Length  | Start sector | End sector
    ---------------------------------------------------------
        1  |  0:00.00 |  4:30.00 |         0    |    20249
        2  |  4:30.00 |  4:06.57 |     20250    |    38756
        3  |  8:36.57 |  4:08.45 |     38757    |    57401
        4  | 12:45.27 |  3:45.63 |     57402    |    74339
        5  | 16:31.15 |  2:32.60 |     74340    |    85799
        6  | 19:04.00 |  3:58.15 |     85800    |   103664
        7  | 23:02.15 |  4:07.37 |    103665    |   122226
        8  | 27:09.52 |  3:47.55 |    122227    |   139306
        9  | 30:57.32 |  4:25.18 |    139307    |   159199
       10  | 35:22.50 |  3:37.30 |    159200    |   175504
Range status and errors
Selected range
     Filename C:\Users\Meijin\Desktop\Lossless Galaxy ALLexxess\Europe\1984 Wings Of Tomorrow (BSCD2 Sony Music Japan 2013)\Europe - Wings Of Tomorrow BSCD2.wav
     Peak level 96.8 %
     Extraction speed 6.7 X
     Range quality 100.0 %
     Test CRC C61E4E5A
     Copy CRC C61E4E5A
     Copy OK
No errors occurred
AccurateRip summary
Track  1  cannot be verified as accurate (confidence 4)  [4BB108D3], AccurateRip returned [33BD4FC9]  (AR v2)
Track  2  cannot be verified as accurate (confidence 4)  [720515FB], AccurateRip returned [9E3CA3FA]  (AR v2)
Track  3  cannot be verified as accurate (confidence 4)  [9227DFEB], AccurateRip returned [157E160F]  (AR v2)
Track  4  cannot be verified as accurate (confidence 4)  [A1C6AAB7], AccurateRip returned [61372D78]  (AR v2)
Track  5  cannot be verified as accurate (confidence 4)  [F9FF2659], AccurateRip returned [4066979E]  (AR v2)
Track  6  cannot be verified as accurate (confidence 4)  [9D2F673C], AccurateRip returned [92280BD6]  (AR v2)
Track  7  cannot be verified as accurate (confidence 4)  [153E3320], AccurateRip returned [236A277C]  (AR v2)
Track  8  cannot be verified as accurate (confidence 4)  [51BEE25E], AccurateRip returned [110DEDD5]  (AR v2)
Track  9  cannot be verified as accurate (confidence 4)  [DC2EC42D], AccurateRip returned [EA8B670A]  (AR v2)
Track 10  cannot be verified as accurate (confidence 4)  [82E89772], AccurateRip returned [CA9117AE]  (AR v2)
No tracks could be verified as accurate
You may have a different pressing from the one(s) in the database
End of status report
==== Log checksum 6F8859593027D61358341F924A055A453F76D6F92A9939CE9B15715E473124F6 ====

Отчёт auCDtect Task manager:

-----------------------
DON'T MODIFY THIS FILE
-----------------------
PERFORMER: auCDtect Task Manager, ver. 1.5.1RC3 build 1.5.1.4
Copyright (c) 2008-2010 y-soft. All rights reserved
http://y-soft.org
ANALYZER: auCDtect: CD records authenticity detector, version 0.8.2
Copyright (c) 2004 Oleg Berngardt. All rights reserved.
Copyright (c) 2004 Alexander Djourik. All rights reserved.
FILE: Europe - Wings Of Tomorrow BSCD2.wav
  Size: 412787804 Hash: 9C3518055F643C325839175C1505745B Accuracy: -m8
  Conclusion: CDDA 100%
  Signature: 3A66D857B649D9170A1662F952AABAF047BE1AC8
FILE: Europe - Wings Of Tomorrow BSCD2.flac
  Size: 302459105 Hash: 9C3518055F643C325839175C1505745B Accuracy: -m8
  Conclusion: CDDA 100%
  Signature: 18126AE6C14EBF1A3339214E90038DA4AE999631

1986 - The Final Countdown

Продолжительность: 00:54:04
Трек лист:
-01 The Final Countdown
02 Rock The Night
03 Carrie
04 Danger On The Track
05 Ninja
06 Cherokee
07 Time Has Come
08 Heart Of Stone
09 On The Loose
10 Love Chaser
Bonus Tracks
11 The Final Countdown (Live)
12 Danger On The Track (Live)
13 Carrie (Live)

Отчёт ЕАС:

Exact Audio Copy V1.0 beta 3 from 29. August 2011
EAC extraction logfile from 23. January 2014, 16:24
Europe / The Final Countdown BSCD2
Used drive  : PLEXTOR BD-R  PX-B950SA   Adapter: 6  ID: 0
Read mode               : Secure
Utilize accurate stream : Yes
Defeat audio cache      : Yes
Make use of C2 pointers : No
Read offset correction                      : 6
Overread into Lead-In and Lead-Out          : No
Fill up missing offset samples with silence : Yes
Delete leading and trailing silent blocks   : No
Null samples used in CRC calculations       : Yes
Used interface                              : Native Win32 interface for Win NT & 2000
Used output format : Internal WAV Routines
Sample format      : 44.100 Hz; 16 Bit; Stereo
TOC of the extracted CD
     Track |   Start  |  Length  | Start sector | End sector
    ---------------------------------------------------------
        1  |  0:00.00 |  5:10.45 |         0    |    23294
        2  |  5:10.45 |  4:07.25 |     23295    |    41844
        3  |  9:17.70 |  4:32.15 |     41845    |    62259
        4  | 13:50.10 |  3:46.35 |     62260    |    79244
        5  | 17:36.45 |  3:47.20 |     79245    |    96289
        6  | 21:23.65 |  4:15.07 |     96290    |   115421
        7  | 25:38.72 |  4:02.43 |    115422    |   133614
        8  | 29:41.40 |  3:47.25 |    133615    |   150664
        9  | 33:28.65 |  3:10.00 |    150665    |   164914
       10  | 36:38.65 |  3:32.50 |    164915    |   180864
       11  | 40:11.40 |  5:12.05 |    180865    |   204269
       12  | 45:23.45 |  3:59.65 |    204270    |   222259
       13  | 49:23.35 |  4:40.72 |    222260    |   243331
Range status and errors
Selected range
     Filename C:\Users\Meijin\Desktop\Lossless Galaxy ALLexxess\Europe\1986 The Final Countdown (BSCD2 Sony Music Japan 2013)\Europe - The Final Countdown BSCD2.wav
     Peak level 100.0 %
     Extraction speed 7.3 X
     Range quality 100.0 %
     Test CRC 362674D8
     Copy CRC 362674D8
     Copy OK
No errors occurred
AccurateRip summary
Track  1  cannot be verified as accurate (confidence 3)  [33755C45], AccurateRip returned [11943714]  (AR v2)
Track  2  cannot be verified as accurate (confidence 3)  [8B345DD2], AccurateRip returned [5032E507]  (AR v2)
Track  3  cannot be verified as accurate (confidence 3)  [30507096], AccurateRip returned [35D4B04B]  (AR v2)
Track  4  cannot be verified as accurate (confidence 3)  [89DE9DC6], AccurateRip returned [ADAC5BFF]  (AR v2)
Track  5  cannot be verified as accurate (confidence 3)  [5E3F111E], AccurateRip returned [DA887F3F]  (AR v2)
Track  6  cannot be verified as accurate (confidence 3)  [3544E6E6], AccurateRip returned [AEDB43BC]  (AR v2)
Track  7  cannot be verified as accurate (confidence 3)  [61C798BA], AccurateRip returned [B34EEC82]  (AR v2)
Track  8  cannot be verified as accurate (confidence 3)  [82966841], AccurateRip returned [AAE85141]  (AR v2)
Track  9  cannot be verified as accurate (confidence 3)  [A6EA4430], AccurateRip returned [B8DA4278]  (AR v2)
Track 10  cannot be verified as accurate (confidence 3)  [24830251], AccurateRip returned [4EA43312]  (AR v2)
Track 11  cannot be verified as accurate (confidence 3)  [0B7E0689], AccurateRip returned [139E1660]  (AR v2)
Track 12  cannot be verified as accurate (confidence 3)  [FAB7136E], AccurateRip returned [1669D5BF]  (AR v2)
Track 13  cannot be verified as accurate (confidence 3)  [D88C9678], AccurateRip returned [8B52A637]  (AR v2)
No tracks could be verified as accurate
You may have a different pressing from the one(s) in the database
End of status report
==== Log checksum BBA45C5BB2FB3C8B4C4F33F65754D380F23D233F59996EEF990BADA5D07FF8D1 ====

Отчёт auCDtect Task manager:

-----------------------
DON'T MODIFY THIS FILE
-----------------------
PERFORMER: auCDtect Task Manager, ver. 1.5.1RC3 build 1.5.1.4
Copyright (c) 2008-2010 y-soft. All rights reserved
http://y-soft.org
ANALYZER: auCDtect: CD records authenticity detector, version 0.8.2
Copyright (c) 2004 Oleg Berngardt. All rights reserved.
Copyright (c) 2004 Alexander Djourik. All rights reserved.
FILE: Europe - The Final Countdown BSCD2.wav
  Size: 572316908 Hash: 2226550073961A116F40FE7F8C9FCBC0 Accuracy: -m8
  Conclusion: CDDA 100%
  Signature: C90E20E9D8BFA70515EADDBF6C7C90B4062AFCD4
FILE: Europe - The Final Countdown BSCD2.flac
  Size: 414028606 Hash: 2226550073961A116F40FE7F8C9FCBC0 Accuracy: -m8
  Conclusion: CDDA 100%
  Signature: 8FFBA196FB6EC0DC5FE847FB0B969AAEA7101FBA

2009 - The Collection

Продолжительность: 01:14:30
Трек лист:
-01 The Final Countdown
02 Prisoners In Paradise
03 Rock The Night
04 Seven Doors Hotel
05 Farewell
06 Memories
07 I'll Cry For You
08 In The Future To Come
09 Paradize Bay
10 Superstitious
11 Let The Good Times Rock
12 Cherokee
13 The King Will Return
14 Danger On The Track
15 Children Of This Time
16 Words Of Wisdom

Отчёт ЕАС:

Exact Audio Copy V1.0 beta 3 from 29. August 2011
EAC extraction logfile from 22. January 2014, 22:53
Europe / The Collection BSCD2
Used drive  : PLEXTOR BD-R  PX-B950SA   Adapter: 6  ID: 0
Read mode               : Secure
Utilize accurate stream : Yes
Defeat audio cache      : Yes
Make use of C2 pointers : No
Read offset correction                      : 6
Overread into Lead-In and Lead-Out          : No
Fill up missing offset samples with silence : Yes
Delete leading and trailing silent blocks   : No
Null samples used in CRC calculations       : Yes
Used interface                              : Native Win32 interface for Win NT & 2000
Used output format : Internal WAV Routines
Sample format      : 44.100 Hz; 16 Bit; Stereo
TOC of the extracted CD
     Track |   Start  |  Length  | Start sector | End sector
    ---------------------------------------------------------
        1  |  0:00.00 |  5:11.38 |         0    |    23362
        2  |  5:11.38 |  5:38.09 |     23363    |    48721
        3  | 10:49.47 |  4:07.39 |     48722    |    67285
        4  | 14:57.11 |  5:17.05 |     67286    |    91065
        5  | 20:14.16 |  4:06.14 |     91066    |   109529
        6  | 24:20.30 |  4:33.59 |    109530    |   130063
        7  | 28:54.14 |  5:22.71 |    130064    |   154284
        8  | 34:17.10 |  5:01.35 |    154285    |   176894
        9  | 39:18.45 |  3:53.49 |    176895    |   194418
       10  | 43:12.19 |  4:35.29 |    194419    |   215072
       11  | 47:47.48 |  4:04.72 |    215073    |   233444
       12  | 51:52.45 |  4:13.54 |    233445    |   252473
       13  | 56:06.24 |  5:35.20 |    252474    |   277618
       14  | 61:41.44 |  3:47.01 |    277619    |   294644
       15  | 65:28.45 |  4:56.17 |    294645    |   316861
       16  | 70:24.62 |  4:05.67 |    316862    |   335303
Range status and errors
Selected range
     Filename C:\Users\Meijin\Desktop\Lossless Galaxy ALLexxess\Europe\2009 The Collection (BSCD2 Sony Music Japan 2013)\Europe - The Collection BSCD2.wav
     Peak level 99.0 %
     Extraction speed 8.7 X
     Range quality 99.9 %
     Test CRC 716DA052
     Copy CRC 716DA052
     Copy OK
No errors occurred
AccurateRip summary
Track  1  cannot be verified as accurate (confidence 2)  [BE91E2AF], AccurateRip returned [7B781CD8]  (AR v2)
Track  2  cannot be verified as accurate (confidence 2)  [890A6410], AccurateRip returned [434864C1]  (AR v2)
Track  3  cannot be verified as accurate (confidence 2)  [E1765C10], AccurateRip returned [9C328343]  (AR v2)
Track  4  cannot be verified as accurate (confidence 2)  [4B1F264E], AccurateRip returned [082BB8CD]  (AR v2)
Track  5  cannot be verified as accurate (confidence 2)  [EF35964D], AccurateRip returned [A70C4FBF]  (AR v2)
Track  6  cannot be verified as accurate (confidence 2)  [770B6392], AccurateRip returned [79F10F5C]  (AR v2)
Track  7  cannot be verified as accurate (confidence 2)  [0EB5432F], AccurateRip returned [A3753C84]  (AR v2)
Track  8  cannot be verified as accurate (confidence 2)  [3D39AE48], AccurateRip returned [ED8B0095]  (AR v2)
Track  9  cannot be verified as accurate (confidence 2)  [9AFF7208], AccurateRip returned [33983233]  (AR v2)
Track 10  cannot be verified as accurate (confidence 2)  [F5E6E59B], AccurateRip returned [40B22F13]  (AR v2)
Track 11  cannot be verified as accurate (confidence 2)  [0849BF55], AccurateRip returned [E696BB41]  (AR v2)
Track 12  cannot be verified as accurate (confidence 2)  [C8299EE3], AccurateRip returned [E84F1856]  (AR v2)
Track 13  cannot be verified as accurate (confidence 2)  [9CFAAD40], AccurateRip returned [8ECDD184]  (AR v2)
Track 14  cannot be verified as accurate (confidence 2)  [4A495A89], AccurateRip returned [9BE27E09]  (AR v2)
Track 15  cannot be verified as accurate (confidence 2)  [40B0FFE5], AccurateRip returned [C56A3837]  (AR v2)
Track 16  cannot be verified as accurate (confidence 2)  [B4817EE9], AccurateRip returned [B6178EB2]  (AR v2)
No tracks could be verified as accurate
You may have a different pressing from the one(s) in the database
End of status report
==== Log checksum 05FD4E02DED083B0DE39629E48153848FFF6EA874DAB8DFA5838E7C38A8A58AB ====

Отчёт auCDtect Task manager:

-----------------------
DON'T MODIFY THIS FILE
-----------------------
PERFORMER: auCDtect Task Manager, ver. 1.5.1RC3 build 1.5.1.4
Copyright (c) 2008-2010 y-soft. All rights reserved
http://y-soft.org
ANALYZER: auCDtect: CD records authenticity detector, version 0.8.2
Copyright (c) 2004 Oleg Berngardt. All rights reserved.
Copyright (c) 2004 Alexander Djourik. All rights reserved.
FILE: Europe - The Collection BSCD2.wav
  Size: 788635052 Hash: 9E80A39A42D941AF356A573B4393A0AC Accuracy: -m8
  Conclusion: CDDA 100%
  Signature: 6FDEC510DC8244E2BB0FA87128CFF17B353BE31C
FILE: Europe - The Collection BSCD2.flac
  Size: 566759472 Hash: 9E80A39A42D941AF356A573B4393A0AC Accuracy: -m8
  Conclusion: CDDA 100%
  Signature: D63897C964C273F4AFB2AC860F6B4D4A9306F037
--
[Профиль] [ЛС]
Показать сообщения:    

Текущее время: Сегодня 12:30

Часовой пояс: GMT



Вы не можете начинать темы
Вы не можете отвечать на сообщения
Вы не можете редактировать свои сообщения
Вы не можете удалять свои сообщения
Вы не можете голосовать в опросах
Вы не можете прикреплять файлы к сообщениям
Вы не можете скачивать файлы