(Progressive Rock) Emerson, Lake & Palmer - Once Upon A Time In South America (4CD) - 2015 [FLAC, image+.cue, lossless]

 
Автор Сообщение

sergej644 ®

Пол:

Стаж: 4 года 11 месяцев

Сообщений: 6041

Откуда: Soviet Union



Награды: Нет

Торрент-статистика

Создавать темы 04-Июл-2015 19:27

[Цитировать]

-Emerson, Lake & Palmer / Once Upon A Time In South America (4CD)-- Год издания: 2015
Страна: UK
Жанр: Progressive Rock
Продолжительность: 04:46:10-Лейбл издания: Rock Beat
Тип альбома: Live
Страна-выпуска диска: EU
Номер по каталогу: ROC-CD-3301
Формат: FLAC
Битрейт аудио: lossless
Тип рипа: image+.cue
Наличие сканов в содержимом раздачи: да
-"Конкретные выступления на Стадионах Чили в Сантьяго, 1 апреля 1993 года; Obras стадион, Буэнос-Айрес, Аргентина 5 апреля 1993 года; и митрополит театр, Рио-де-Жанейро, Бразилия 16 августа 1997 года "

Трэклист

CD 1 | 01:11:40

01.Introduction Fanfare (live Satntiago, Chile - April 1, 1993) (00:47)
02.Tarkus (live Satntiago, Chile - April 1, 1993) (09:11)
03.Knife Edge (live Satntiago, Chile - April 1, 1993) (05:33)
04.Paper Blood (live Satntiago, Chile - April 1, 1993) (04:43)
05.Black Moon (live Satntiago, Chile - April 1, 1993) (06:34)
06.Close To Home (live Satntiago, Chile - April 1, 1993) (03:37)
07.Creole Dance (live Satntiago, Chile - April 1, 1993) (05:16)
08.Still... You Turn Me On (live Satntiago, Chile - April 1, 1993) (03:53)
09.C'est La Vie (live Satntiago, Chile - April 1, 1993) (05:05)
10.Lucky Man (live Satntiago, Chile - April 1, 1993) (05:34)
11.Honky Tonk Train Blues (live Satntiago, Chile - April 1, 1993) (04:03)
12.Touch And Go (live Satntiago, Chile - April 1, 1993) (03:11)
13.Pirates (live Satntiago, Chile - April 1, 1993) (14:19)

CD 2 | 01:16:34

01.Hoedown (live Satntiago, Chile - April 1, 1993) (03:08)
02.Pictures At An Exhibition (live Satntiago, Chile - April 1, 1993) (23:33)
03.Fanfare For The Common Man - America - Rondo (live Satntiago, Chile - April 1, 1993) (17:57)
04.Introductory Fanfare (live Buenos Aires, Argentina - April 5, 1993) (00:25)
05.Tarkus (live Buenos Aires, Argentina - April 5, 1993) (09:21)
06.Knife Edge (live Buenos Aires, Argentina - April 5, 1993) (05:37)
07.Paper Blood (live Buenos Aires, Argentina - April 5, 1993) (04:16)
08.Black Moon (live Buenos Aires, Argentina - April 5, 1993) (06:58)
09.Emerson Piano Solo (live Buenos Aires, Argentina - April 5, 1993) (05:24)

CD 3 | 01:10:53

01.Creole Dance (live Buenos Aires, Argentina - April 5, 1993) (06:35)
02.From The Beginning (live Buenos Aires, Argentina - April 5, 1993) (03:04)
03.C'est La Vie (live Buenos Aires, Argentina - April 5, 1993) (05:30)
04.Lucky Man (live Buenos Aires, Argentina - April 5, 1993) (05:07)
05.Honky Tonk Train Blues (live Buenos Aires, Argentina - April 5, 1993) (04:29)
06.Touch And Go (live Buenos Aires, Argentina - April 5, 1993) (03:20)
07.Pirates (live Buenos Aires, Argentina - April 5, 1993) (14:36)
08.Hoedown (live Buenos Aires, Argentina - April 5, 1993) (03:10)
09.Instrumental Jam (live Buenos Aires, Argentina - April 5, 1993) (01:53)
10.Pictures At An Exhibition (live Buenos Aires, Argentina - April 5, 1993) (23:12)

CD 4 | 01:07:05

01.Fanfare For The Common Man - America - Rondo (live Buenos Aires, Argentina - ... (16:20)
02.Karn Evil 9 1st Impression part 2 (live Rio de Janeiro, Brasil - August 16, 1... (05:01)
03.Hoedown (live Rio de Janeiro, Brasil - August 16, 1997) (04:37)
04.Touch and Go (live Rio de Janeiro, Brasil - August 16, 1997) (03:59)
05.From the Beginning (live Rio de Janeiro, Brasil - August 16, 1997) (04:03)
06.Knife Edge (live Rio de Janeiro, Brasil - August 16, 1997) (06:20)
07.Lucky Man (live Rio de Janeiro, Brasil - August 16, 1997) (04:39)
08.Tarkus (live Rio de Janeiro, Brasil - August 16, 1997) (08:28)
09.Pictures at an Exhibition (live Rio de Janeiro, Brasil - August 16, 1997) (10:38)
10.21st Century Schizoid Man (live Rio de Janeiro, Brasil - August 16, 1997) (01:46)
11.America (live Rio de Janeiro, Brasil - August 16, 1997) (01:20)

Лог создания рипа

CD 1

Exact Audio Copy V1.0 beta 4 from 7. December 2014
EAC extraction logfile from 27. June 2015, 15:12
Emerson Lake and Palmer / Once Upon A Time In South America CD1 (2015, 4CD, ROC-CD-3301)
Used drive  : ATAPI   iHAS124   B   Adapter: 1  ID: 0
Read mode               : Secure
Utilize accurate stream : Yes
Defeat audio cache      : Yes
Make use of C2 pointers : No
Read offset correction                      : 6
Overread into Lead-In and Lead-Out          : No
Fill up missing offset samples with silence : Yes
Delete leading and trailing silent blocks   : No
Null samples used in CRC calculations       : Yes
Used interface                              : Installed external ASPI interface
Used output format              : User Defined Encoder
Selected bitrate                : 128 kBit/s
Quality                         : High
Add ID3 tag                     : Yes
Command line compressor         : C:\Program Files (x86)\Exact Audio Copy\Flac\flac.exe
Additional command line options : -V -8 -T "Date=%year%" -T "Genre=%genre%" %source%
TOC of the extracted CD
     Track |   Start  |  Length  | Start sector | End sector
    ---------------------------------------------------------
        1  |  0:00.00 |  0:46.49 |         0    |     3498
        2  |  0:46.49 |  9:10.56 |      3499    |    44804
        3  |  9:57.30 |  5:32.24 |     44805    |    69728
        4  | 15:29.54 |  4:42.49 |     69729    |    90927
        5  | 20:12.28 |  6:33.37 |     90928    |   120439
        6  | 26:45.65 |  3:36.09 |    120440    |   136648
        7  | 30:21.74 |  5:15.25 |    136649    |   160298
        8  | 35:37.24 |  3:52.42 |    160299    |   177740
        9  | 39:29.66 |  5:04.16 |    177741    |   200556
       10  | 44:34.07 |  5:33.49 |    200557    |   225580
       11  | 50:07.56 |  4:02.38 |    225581    |   243768
       12  | 54:10.19 |  3:10.45 |    243769    |   258063
       13  | 57:20.64 | 14:18.50 |    258064    |   322463
Range status and errors
Selected range
     Filename G:\CD\ELP - Once Upon A Time In South America CD1.wav
     Peak level 100.0 %
     Extraction speed 9.7 X
     Range quality 100.0 %
     Test CRC 58445671
     Copy CRC 58445671
     Copy OK
No errors occurred
AccurateRip summary
Track  1  not present in database
Track  2  not present in database
Track  3  not present in database
Track  4  not present in database
Track  5  not present in database
Track  6  not present in database
Track  7  not present in database
Track  8  not present in database
Track  9  not present in database
Track 10  not present in database
Track 11  not present in database
Track 12  not present in database
Track 13  not present in database
None of the tracks are present in the AccurateRip database
End of status report
---- CUETools DB Plugin V2.1.4
[CTDB TOCID: FSOVJ8hybtcTZqzp4WirSDuiFAQ-] disk not present in database
Submit result: FSOVJ8hybtcTZqzp4WirSDuiFAQ- has been uploaded

CD 2

Exact Audio Copy V1.0 beta 4 from 7. December 2014
EAC extraction logfile from 27. June 2015, 18:50
Emerson, Lake & Palmer / Once Upon A Time In South America CD2 (2015, 4CD, ROC-CD-3301)
Used drive  : ATAPI   iHAS124   B   Adapter: 1  ID: 0
Read mode               : Secure
Utilize accurate stream : Yes
Defeat audio cache      : Yes
Make use of C2 pointers : No
Read offset correction                      : 6
Overread into Lead-In and Lead-Out          : No
Fill up missing offset samples with silence : Yes
Delete leading and trailing silent blocks   : No
Null samples used in CRC calculations       : Yes
Used interface                              : Installed external ASPI interface
Used output format              : User Defined Encoder
Selected bitrate                : 128 kBit/s
Quality                         : High
Add ID3 tag                     : Yes
Command line compressor         : C:\Program Files (x86)\Exact Audio Copy\Flac\flac.exe
Additional command line options : -V -8 -T "Date=%year%" -T "Genre=%genre%" %source%
TOC of the extracted CD
     Track |   Start  |  Length  | Start sector | End sector
    ---------------------------------------------------------
        1  |  0:00.00 |  3:07.26 |         0    |    14050
        2  |  3:07.26 | 23:32.58 |     14051    |   120008
        3  | 26:40.09 | 17:56.17 |    120009    |   200725
        4  | 44:36.26 |  0:24.07 |    200726    |   202532
        5  | 45:00.33 |  9:20.08 |    202533    |   244540
        6  | 54:20.41 |  5:36.70 |    244541    |   269810
        7  | 59:57.36 |  4:15.12 |    269811    |   288947
        8  | 64:12.48 |  6:57.55 |    288948    |   320277
        9  | 71:10.28 |  5:23.10 |    320278    |   344512
Range status and errors
Selected range
     Filename G:\CD\ELP - Once Upon A Time In South America CD2.wav
     Peak level 100.0 %
     Extraction speed 2.0 X
     Range quality 100.0 %
     Test CRC 0AE34496
     Copy CRC 0AE34496
     Copy OK
No errors occurred
AccurateRip summary
Track  1  not present in database
Track  2  not present in database
Track  3  not present in database
Track  4  not present in database
Track  5  not present in database
Track  6  not present in database
Track  7  not present in database
Track  8  not present in database
Track  9  not present in database
None of the tracks are present in the AccurateRip database
End of status report
---- CUETools DB Plugin V2.1.4
[CTDB TOCID: l71R6bwy82vu8iwQiUbpDf6BGSE-] found
Submit result: l71R6bwy82vu8iwQiUbpDf6BGSE- has been confirmed
Track | CTDB Status
  1   | (1/1) Accurately ripped
  2   | (1/1) Accurately ripped
  3   | (1/1) Accurately ripped
  4   | (1/1) Accurately ripped
  5   | (1/1) Accurately ripped
  6   | (1/1) Accurately ripped
  7   | (1/1) Accurately ripped
  8   | (1/1) Accurately ripped
  9   | (1/1) Accurately ripped

CD 3

Exact Audio Copy V1.0 beta 4 from 7. December 2014
EAC extraction logfile from 27. June 2015, 19:56
Emerson, Lake & Palmer / Once Upon A Time In South America CD3 (2015, 4CD, ROC-CD-3301)
Used drive  : ATAPI   iHAS124   B   Adapter: 1  ID: 0
Read mode               : Secure
Utilize accurate stream : Yes
Defeat audio cache      : Yes
Make use of C2 pointers : No
Read offset correction                      : 6
Overread into Lead-In and Lead-Out          : No
Fill up missing offset samples with silence : Yes
Delete leading and trailing silent blocks   : No
Null samples used in CRC calculations       : Yes
Used interface                              : Installed external ASPI interface
Used output format              : User Defined Encoder
Selected bitrate                : 128 kBit/s
Quality                         : High
Add ID3 tag                     : Yes
Command line compressor         : C:\Program Files (x86)\Exact Audio Copy\Flac\flac.exe
Additional command line options : -V -8 -T "Date=%year%" -T "Genre=%genre%" %source%
TOC of the extracted CD
     Track |   Start  |  Length  | Start sector | End sector
    ---------------------------------------------------------
        1  |  0:00.00 |  6:34.68 |         0    |    29617
        2  |  6:34.68 |  3:03.27 |     29618    |    43369
        3  |  9:38.20 |  5:29.58 |     43370    |    68102
        4  | 15:08.03 |  5:06.40 |     68103    |    91092
        5  | 20:14.43 |  4:28.60 |     91093    |   111252
        6  | 24:43.28 |  3:19.35 |    111253    |   126212
        7  | 28:02.63 | 14:35.36 |    126213    |   191873
        8  | 42:38.24 |  3:09.20 |    191874    |   206068
        9  | 45:47.44 |  1:52.55 |    206069    |   214523
       10  | 47:40.24 | 23:11.59 |    214524    |   318907
Range status and errors
Selected range
     Filename G:\CD\ELP - Once Upon A Time In South America CD3.wav
     Peak level 97.8 %
     Extraction speed 9.5 X
     Range quality 100.0 %
     Test CRC 7A873CCA
     Copy CRC 7A873CCA
     Copy OK
No errors occurred
AccurateRip summary
Track  1  not present in database
Track  2  not present in database
Track  3  not present in database
Track  4  not present in database
Track  5  not present in database
Track  6  not present in database
Track  7  not present in database
Track  8  not present in database
Track  9  not present in database
Track 10  not present in database
None of the tracks are present in the AccurateRip database
End of status report
---- CUETools DB Plugin V2.1.4
[CTDB TOCID: uwrKLCuDiKdeyt6t0Ktq8U65BOE-] disk not present in database
Submit result: uwrKLCuDiKdeyt6t0Ktq8U65BOE- has been uploaded

CD 4

Exact Audio Copy V1.0 beta 4 from 7. December 2014
EAC extraction logfile from 27. June 2015, 22:34
Emerson, Lake & Palmer / Once Upon A Time In South America CD4 (2015, 4CD, ROC-CD-3301)
Used drive  : ATAPI   iHAS124   B   Adapter: 1  ID: 0
Read mode               : Secure
Utilize accurate stream : Yes
Defeat audio cache      : Yes
Make use of C2 pointers : No
Read offset correction                      : 6
Overread into Lead-In and Lead-Out          : No
Fill up missing offset samples with silence : Yes
Delete leading and trailing silent blocks   : No
Null samples used in CRC calculations       : Yes
Used interface                              : Installed external ASPI interface
Used output format              : User Defined Encoder
Selected bitrate                : 128 kBit/s
Quality                         : High
Add ID3 tag                     : Yes
Command line compressor         : C:\Program Files (x86)\Exact Audio Copy\Flac\flac.exe
Additional command line options : -V -8 -T "Date=%year%" -T "Genre=%genre%" %source%
TOC of the extracted CD
     Track |   Start  |  Length  | Start sector | End sector
    ---------------------------------------------------------
        1  |  0:00.00 | 16:19.13 |         0    |    73437
        2  | 16:19.13 |  5:00.68 |     73438    |    96005
        3  | 21:20.06 |  4:36.47 |     96006    |   116752
        4  | 25:56.53 |  3:58.23 |    116753    |   134625
        5  | 29:55.01 |  4:02.39 |    134626    |   152814
        6  | 33:57.40 |  6:19.22 |    152815    |   181261
        7  | 40:16.62 |  4:38.60 |    181262    |   202171
        8  | 44:55.47 |  8:27.06 |    202172    |   240202
        9  | 53:22.53 | 10:37.68 |    240203    |   288045
       10  | 64:00.46 |  1:45.08 |    288046    |   295928
       11  | 65:45.54 |  1:19.10 |    295929    |   301863
Range status and errors
Selected range
     Filename G:\CD\ELP - Once Upon A Time In South America CD4.wav
     Peak level 98.1 %
     Extraction speed 9.3 X
     Range quality 99.9 %
     Test CRC 2BFB7E6B
     Copy CRC 2BFB7E6B
     Copy OK
No errors occurred
AccurateRip summary
Track  1  not present in database
Track  2  not present in database
Track  3  not present in database
Track  4  not present in database
Track  5  not present in database
Track  6  not present in database
Track  7  not present in database
Track  8  not present in database
Track  9  not present in database
Track 10  not present in database
Track 11  not present in database
None of the tracks are present in the AccurateRip database
End of status report
---- CUETools DB Plugin V2.1.4
[CTDB TOCID: 1UZqf4FggYPLsStcebCUKWEDZSE-] disk not present in database
Submit result: 1UZqf4FggYPLsStcebCUKWEDZSE- has been uploaded

Индексная карта (non-compilant .cue)

CD 1

REM GENRE "Progressive Rock"
REM DATE 2015
REM DISCID AC10CB0D
REM COMMENT "ExactAudioCopy v1.0b4"
PERFORMER "Emerson, Lake & Palmer"
TITLE "Once Upon A Time In South America CD1 (2015, 4CD, ROC-CD-3301)"
FILE "ELP - Once Upon A Time In South America CD1.flac" WAVE
  TRACK 01 AUDIO
    TITLE "Introduction Fanfare (live Satntiago, Chile - April 1, 1993)"
    PERFORMER "Emerson, Lake & Palmer"
    INDEX 01 00:00:00
  TRACK 02 AUDIO
    TITLE "Tarkus (live Satntiago, Chile - April 1, 1993)"
    PERFORMER "Emerson, Lake & Palmer"
    INDEX 01 00:46:49
  TRACK 03 AUDIO
    TITLE "Knife Edge (live Satntiago, Chile - April 1, 1993)"
    PERFORMER "Emerson, Lake & Palmer"
    INDEX 01 09:57:30
  TRACK 04 AUDIO
    TITLE "Paper Blood (live Satntiago, Chile - April 1, 1993)"
    PERFORMER "Emerson, Lake & Palmer"
    INDEX 01 15:29:54
  TRACK 05 AUDIO
    TITLE "Black Moon (live Satntiago, Chile - April 1, 1993)"
    PERFORMER "Emerson, Lake & Palmer"
    INDEX 01 20:12:28
  TRACK 06 AUDIO
    TITLE "Close To Home (live Satntiago, Chile - April 1, 1993)"
    PERFORMER "Emerson, Lake & Palmer"
    INDEX 01 26:45:65
  TRACK 07 AUDIO
    TITLE "Creole Dance (live Satntiago, Chile - April 1, 1993)"
    PERFORMER "Emerson, Lake & Palmer"
    INDEX 01 30:21:74
  TRACK 08 AUDIO
    TITLE "Still... You Turn Me On (live Satntiago, Chile - April 1, 1993)"
    PERFORMER "Emerson, Lake & Palmer"
    INDEX 01 35:37:24
  TRACK 09 AUDIO
    TITLE "C'est La Vie (live Satntiago, Chile - April 1, 1993)"
    PERFORMER "Emerson, Lake & Palmer"
    INDEX 01 39:29:66
  TRACK 10 AUDIO
    TITLE "Lucky Man (live Satntiago, Chile - April 1, 1993)"
    PERFORMER "Emerson, Lake & Palmer"
    INDEX 01 44:34:07
  TRACK 11 AUDIO
    TITLE "Honky Tonk Train Blues (live Satntiago, Chile - April 1, 1993)"
    PERFORMER "Emerson, Lake & Palmer"
    INDEX 01 50:07:56
  TRACK 12 AUDIO
    TITLE "Touch And Go (live Satntiago, Chile - April 1, 1993)"
    PERFORMER "Emerson, Lake & Palmer"
    INDEX 01 54:10:19
  TRACK 13 AUDIO
    TITLE "Pirates (live Satntiago, Chile - April 1, 1993)"
    PERFORMER "Emerson, Lake & Palmer"
    INDEX 01 57:20:64

CD 2

REM GENRE "Progressive Rock"
REM DATE 2015
REM DISCID 8911F109
REM COMMENT "ExactAudioCopy v1.0b4"
PERFORMER "Emerson, Lake & Palmer"
TITLE "Once Upon A Time In South America CD2 (2015, 4CD, ROC-CD-3301)"
FILE "ELP - Once Upon A Time In South America CD2.flac" WAVE
  TRACK 01 AUDIO
    TITLE "Hoedown (live Satntiago, Chile - April 1, 1993)"
    PERFORMER "Emerson, Lake & Palmer"
    INDEX 01 00:00:00
  TRACK 02 AUDIO
    TITLE "Pictures At An Exhibition (live Satntiago, Chile - April 1, 1993)"
    PERFORMER "Emerson, Lake & Palmer"
    INDEX 01 03:07:26
  TRACK 03 AUDIO
    TITLE "Fanfare For The Common Man - America - Rondo (live Satntiago, Chile - April 1, 1993)"
    PERFORMER "Emerson, Lake & Palmer"
    INDEX 00 26:36:09
    INDEX 01 26:40:09
  TRACK 04 AUDIO
    TITLE "Introductory Fanfare (live Buenos Aires, Argentina - April 5, 1993)"
    PERFORMER "Emerson, Lake & Palmer"
    INDEX 00 44:34:26
    INDEX 01 44:36:26
  TRACK 05 AUDIO
    TITLE "Tarkus (live Buenos Aires, Argentina - April 5, 1993)"
    PERFORMER "Emerson, Lake & Palmer"
    INDEX 01 45:00:33
  TRACK 06 AUDIO
    TITLE "Knife Edge (live Buenos Aires, Argentina - April 5, 1993)"
    PERFORMER "Emerson, Lake & Palmer"
    INDEX 01 54:20:41
  TRACK 07 AUDIO
    TITLE "Paper Blood (live Buenos Aires, Argentina - April 5, 1993)"
    PERFORMER "Emerson, Lake & Palmer"
    INDEX 01 59:57:36
  TRACK 08 AUDIO
    TITLE "Black Moon (live Buenos Aires, Argentina - April 5, 1993)"
    PERFORMER "Emerson, Lake & Palmer"
    INDEX 01 64:12:48
  TRACK 09 AUDIO
    TITLE "Emerson Piano Solo (live Buenos Aires, Argentina - April 5, 1993)"
    PERFORMER "Emerson, Lake & Palmer"
    INDEX 01 71:10:28

CD 3

REM GENRE "Progressive Rock"
REM DATE 2015
REM DISCID 8F109C0A
REM COMMENT "ExactAudioCopy v1.0b4"
PERFORMER "Emerson, Lake & Palmer"
TITLE "Once Upon A Time In South America CD3 (2015, 4CD, ROC-CD-3301)"
FILE "ELP - Once Upon A Time In South America CD3.flac" WAVE
  TRACK 01 AUDIO
    TITLE "Creole Dance (live Buenos Aires, Argentina - April 5, 1993)"
    PERFORMER "Emerson, Lake & Palmer"
    INDEX 01 00:00:00
  TRACK 02 AUDIO
    TITLE "From The Beginning (live Buenos Aires, Argentina - April 5, 1993)"
    PERFORMER "Emerson, Lake & Palmer"
    INDEX 01 06:34:68
  TRACK 03 AUDIO
    TITLE "C'est La Vie (live Buenos Aires, Argentina - April 5, 1993)"
    PERFORMER "Emerson, Lake & Palmer"
    INDEX 01 09:38:20
  TRACK 04 AUDIO
    TITLE "Lucky Man (live Buenos Aires, Argentina - April 5, 1993)"
    PERFORMER "Emerson, Lake & Palmer"
    INDEX 01 15:08:03
  TRACK 05 AUDIO
    TITLE "Honky Tonk Train Blues (live Buenos Aires, Argentina - April 5, 1993)"
    PERFORMER "Emerson, Lake & Palmer"
    INDEX 01 20:14:43
  TRACK 06 AUDIO
    TITLE "Touch And Go (live Buenos Aires, Argentina - April 5, 1993)"
    PERFORMER "Emerson, Lake & Palmer"
    INDEX 00 24:41:28
    INDEX 01 24:43:28
  TRACK 07 AUDIO
    TITLE "Pirates (live Buenos Aires, Argentina - April 5, 1993)"
    PERFORMER "Emerson, Lake & Palmer"
    INDEX 01 28:02:63
  TRACK 08 AUDIO
    TITLE "Hoedown (live Buenos Aires, Argentina - April 5, 1993)"
    PERFORMER "Emerson, Lake & Palmer"
    INDEX 01 42:38:24
  TRACK 09 AUDIO
    TITLE "Instrumental Jam (live Buenos Aires, Argentina - April 5, 1993)"
    PERFORMER "Emerson, Lake & Palmer"
    INDEX 01 45:47:44
  TRACK 10 AUDIO
    TITLE "Pictures At An Exhibition (live Buenos Aires, Argentina - April 5, 1993)"
    PERFORMER "Emerson, Lake & Palmer"
    INDEX 01 47:40:24

CD 4

REM GENRE "Progressive Rock"
REM DATE 2015
REM DISCID B20FB80B
REM COMMENT "ExactAudioCopy v1.0b4"
PERFORMER "Emerson, Lake & Palmer"
TITLE "Once Upon A Time In South America CD4 (2015, 4CD, ROC-CD-3301)"
FILE "ELP - Once Upon A Time In South America CD4.flac" WAVE
  TRACK 01 AUDIO
    TITLE "Fanfare For The Common Man - America - Rondo (live Buenos Aires, Argentina - ..."
    PERFORMER "Emerson, Lake & Palmer"
    INDEX 01 00:00:00
  TRACK 02 AUDIO
    TITLE "Karn Evil 9 1st Impression part 2 (live Rio de Janeiro, Brasil - August 16, 1..."
    PERFORMER "Emerson, Lake & Palmer"
    INDEX 00 16:17:13
    INDEX 01 16:19:13
  TRACK 03 AUDIO
    TITLE "Hoedown (live Rio de Janeiro, Brasil - August 16, 1997)"
    PERFORMER "Emerson, Lake & Palmer"
    INDEX 01 21:20:06
  TRACK 04 AUDIO
    TITLE "Touch and Go (live Rio de Janeiro, Brasil - August 16, 1997)"
    PERFORMER "Emerson, Lake & Palmer"
    INDEX 01 25:56:53
  TRACK 05 AUDIO
    TITLE "From the Beginning (live Rio de Janeiro, Brasil - August 16, 1997)"
    PERFORMER "Emerson, Lake & Palmer"
    INDEX 01 29:55:01
  TRACK 06 AUDIO
    TITLE "Knife Edge (live Rio de Janeiro, Brasil - August 16, 1997)"
    PERFORMER "Emerson, Lake & Palmer"
    INDEX 01 33:57:40
  TRACK 07 AUDIO
    TITLE "Lucky Man (live Rio de Janeiro, Brasil - August 16, 1997)"
    PERFORMER "Emerson, Lake & Palmer"
    INDEX 01 40:16:62
  TRACK 08 AUDIO
    TITLE "Tarkus (live Rio de Janeiro, Brasil - August 16, 1997)"
    PERFORMER "Emerson, Lake & Palmer"
    INDEX 01 44:55:47
  TRACK 09 AUDIO
    TITLE "Pictures at an Exhibition (live Rio de Janeiro, Brasil - August 16, 1997)"
    PERFORMER "Emerson, Lake & Palmer"
    INDEX 01 53:22:53
  TRACK 10 AUDIO
    TITLE "21st Century Schizoid Man (live Rio de Janeiro, Brasil - August 16, 1997)"
    PERFORMER "Emerson, Lake & Palmer"
    INDEX 01 64:00:46
  TRACK 11 AUDIO
    TITLE "America (live Rio de Janeiro, Brasil - August 16, 1997)"
    PERFORMER "Emerson, Lake & Palmer"
    INDEX 01 65:45:54

Скриншот спектра частот

-- Не забываем говорить
[Профиль] [ЛС]
Показать сообщения:    

Текущее время: Сегодня 16:57

Часовой пояс: GMT



Вы не можете начинать темы
Вы не можете отвечать на сообщения
Вы не можете редактировать свои сообщения
Вы не можете удалять свои сообщения
Вы не можете голосовать в опросах
Вы не можете прикреплять файлы к сообщениям
Вы не можете скачивать файлы