(Classic Rock) Eagles - Greatest Hits (2CD) - 2011 [FLAC, image+.cue, lossless]

 
Автор Сообщение

sergej644 ®

Пол:

Стаж: 4 года 11 месяцев

Сообщений: 6045

Откуда: Soviet Union



Награды: Нет

Торрент-статистика

Создавать темы 06-Июл-2015 12:24

[Цитировать]

-Eagles / Greatest Hits (2CD)-- Год издания: 2011
Страна: USA
Жанр: Classic Rock
Продолжительность: 02:39:52-Лейбл издания: Eagle Recording Russia
Тип альбома: Compilation
Страна-выпуска диска: Russia
Формат: FLAC
Битрейт аудио: lossless
Тип рипа: image+.cue
Наличие сканов в содержимом раздачи: да
-

Трэклист

CD 1 | 01:19:56

01. Hotel California (06:32)
02. The Best Of My Love (04:37)
03. Lyin' Eyes (06:22)
04. New Kid in Town (05:08)
05. I Can't Tell You Why (04:56)
06. One Of These Nights (04:53)
07. Tequila Sunrise (02:55)
08. Doolin' Dalton (03:29)
09. Take It To The Limit (04:50)
10. Take It Easy (03:33)
11. Witchy Woman (04:14)
12. Heartache Tonight (04:28)
13. Life in the Fast Lane (04:48)
14. How Long (03:18)
15. Get Over It (03:33)
16. No More Cloudy Days (04:04)
17. Love Will Keep Us Alive (04:05)
18. Busy Being Fabulous (04:20)

CD 2 | 01:19:56

01. Peaceful Easy Feeling (04:17)
02. The Sad Cafe (05:34)
03. After The Trill Is Gone (03:57)
04. The Last Resort (07:26)
05. Desperado (03:32)
06. In The City (03:45)
07. Wasted Time (04:53)
08. The Long Run (03:42)
09. On The Border (04:23)
10. Victim Of Love (04:11)
11. Already Gone (04:16)
12. Please Come Home for Christmas (02:56)
13. Hole In The World (04:12)
14. Learn To Be Still (04:25)
15. What Do I Do With My Heart (03:52)
16. I Don't Want To Hear Anymore (04:22)
17. Long Road Out Of Eden (10:18)
-

Лог создания рипа

CD 1

Exact Audio Copy V1.0 beta 3 from 29. August 2011
Отчёт EAC об извлечении, выполненном 3. июля 2015, 22:43
Eagles / Greatest Hits [CD 1]
Дисковод: Optiarc DVD RW AD-5200S   Adapter: 3  ID: 0
Режим чтения                 : Достоверность
Использование точного потока : Да
Отключение кэша аудио        : Да
Использование указателей C2  : Нет
Коррекция смещения при чтении                     : 48
Способность читать области Lead-in и Lead-out     : Нет
Заполнение пропущенных сэмплов тишиной            : Да
Удаление блоков с тишиной в начале и конце        : Нет
При вычислениях CRC использовались нулевые сэмплы : Да
Интерфейс                                         : Установленный внешний ASPI-интерфейс
Выходной формат          : Пользовательский кодировщик
Выбранный битрейт        : 32 kBit/s
Качество                 : Высокий
Добавление ID3-тега      : Нет
Утилита сжатия           : C:\Program Files\Exact Audio Copy\FLAC\FLAC.EXE
Дополнительные параметры : -6 -V -T "ARTIST=%artist%" -T "TITLE=%title%" -T "ALBUM=%albumtitle%" -T "DATE=%year%" -T "TRACKNUMBER=%tracknr%" -T "GENRE=%genre%" -T "COMMENT=%comment%" -T "BAND=%albuminterpret%" -T "ALBUMARTIST=%albuminterpret%" -T "COMPOSER=%composer%" %haslyrics%--tag-from-file=LYRICS="%lyricsfile%"%haslyrics% -T "DISCNUMBER=%cdnumber%" -T "TOTALDISCS=%totalcds%" -T "TOTALTRACKS=%numtracks%" %hascover%--picture="%coverfile%"%hascover% %source% -o %dest%
TOC извлечённого CD
     Трек |   Старт  | Длительность | Начальный сектор | Конечный сектор
    ---------------------------------------------------------------------
       1  |  0:00.00 |    6:32.00   |           0      |      29399
       2  |  6:32.00 |    4:36.02   |       29400      |      50101
       3  | 11:08.02 |    6:21.74   |       50102      |      78750
       4  | 17:30.01 |    5:07.63   |       78751      |     101838
       5  | 22:37.64 |    4:55.25   |      101839      |     123988
       6  | 27:33.14 |    4:52.34   |      123989      |     145922
       7  | 32:25.48 |    2:54.16   |      145923      |     158988
       8  | 35:19.64 |    3:28.69   |      158989      |     174657
       9  | 38:48.58 |    4:49.33   |      174658      |     196365
      10  | 43:38.16 |    3:32.51   |      196366      |     212316
      11  | 47:10.67 |    4:13.04   |      212317      |     231295
      12  | 51:23.71 |    4:27.39   |      231296      |     251359
      13  | 55:51.35 |    4:47.08   |      251360      |     272892
      14  | 60:38.43 |    3:17.08   |      272893      |     287675
      15  | 63:55.51 |    3:32.01   |      287676      |     303576
      16  | 67:27.52 |    4:03.71   |      303577      |     321872
      17  | 71:31.48 |    4:04.41   |      321873      |     340213
      18  | 75:36.14 |    4:19.35   |      340214      |     359673
Характеристики диапазона извлечения и сообщения об ошибках
Выбранный диапазон
     Имя файла F:\LOSSLESS\Рипы\Eagles - Greatest Hits [CD 1].wav
     Пиковый уровень 100.0 %
     Скорость извлечения 4.6 X
     Качество диапазона 100.0 %
     CRC теста 710AC94F
     CRC копии 710AC94F
     Копирование... OK
Ошибок не произошло
AccurateRip: сводка
Трек  1  отсутствует в базе данных
Трек  2  отсутствует в базе данных
Трек  3  отсутствует в базе данных
Трек  4  отсутствует в базе данных
Трек  5  отсутствует в базе данных
Трек  6  отсутствует в базе данных
Трек  7  отсутствует в базе данных
Трек  8  отсутствует в базе данных
Трек  9  отсутствует в базе данных
Трек 10  отсутствует в базе данных
Трек 11  отсутствует в базе данных
Трек 12  отсутствует в базе данных
Трек 13  отсутствует в базе данных
Трек 14  отсутствует в базе данных
Трек 15  отсутствует в базе данных
Трек 16  отсутствует в базе данных
Трек 17  отсутствует в базе данных
Трек 18  отсутствует в базе данных
Ни одного трека нет в базе AccurateRip
Конец отчёта

CD 2

Exact Audio Copy V1.0 beta 3 from 29. August 2011
Отчёт EAC об извлечении, выполненном 3. июля 2015, 23:58
Eagles / Greatest Hits [CD 2]
Дисковод: Optiarc DVD RW AD-5200S   Adapter: 3  ID: 0
Режим чтения                 : Достоверность
Использование точного потока : Да
Отключение кэша аудио        : Да
Использование указателей C2  : Нет
Коррекция смещения при чтении                     : 48
Способность читать области Lead-in и Lead-out     : Нет
Заполнение пропущенных сэмплов тишиной            : Да
Удаление блоков с тишиной в начале и конце        : Нет
При вычислениях CRC использовались нулевые сэмплы : Да
Интерфейс                                         : Установленный внешний ASPI-интерфейс
Выходной формат          : Пользовательский кодировщик
Выбранный битрейт        : 32 kBit/s
Качество                 : Высокий
Добавление ID3-тега      : Нет
Утилита сжатия           : C:\Program Files\Exact Audio Copy\FLAC\FLAC.EXE
Дополнительные параметры : -6 -V -T "ARTIST=%artist%" -T "TITLE=%title%" -T "ALBUM=%albumtitle%" -T "DATE=%year%" -T "TRACKNUMBER=%tracknr%" -T "GENRE=%genre%" -T "COMMENT=%comment%" -T "BAND=%albuminterpret%" -T "ALBUMARTIST=%albuminterpret%" -T "COMPOSER=%composer%" %haslyrics%--tag-from-file=LYRICS="%lyricsfile%"%haslyrics% -T "DISCNUMBER=%cdnumber%" -T "TOTALDISCS=%totalcds%" -T "TOTALTRACKS=%numtracks%" %hascover%--picture="%coverfile%"%hascover% %source% -o %dest%
TOC извлечённого CD
     Трек |   Старт  | Длительность | Начальный сектор | Конечный сектор
    ---------------------------------------------------------------------
       1  |  0:00.00 |    4:16.12   |           0      |      19211
       2  |  4:16.12 |    5:33.60   |       19212      |      44246
       3  |  9:49.72 |    3:56.62   |       44247      |      62008
       4  | 13:46.59 |    7:25.70   |       62009      |      95453
       5  | 21:12.54 |    3:31.74   |       95454      |     111352
       6  | 24:44.53 |    3:44.71   |      111353      |     128223
       7  | 28:29.49 |    4:53.00   |      128224      |     150198
       8  | 33:22.49 |    3:41.40   |      150199      |     166813
       9  | 37:04.14 |    4:22.71   |      166814      |     186534
      10  | 41:27.10 |    4:10.23   |      186535      |     205307
      11  | 45:37.33 |    4:15.70   |      205308      |     224502
      12  | 49:53.28 |    2:55.74   |      224503      |     237701
      13  | 52:49.27 |    4:11.63   |      237702      |     256589
      14  | 57:01.15 |    4:24.08   |      256590      |     276397
      15  | 61:25.23 |    3:51.67   |      276398      |     293789
      16  | 65:17.15 |    4:21.09   |      293790      |     313373
      17  | 69:38.24 |   10:17.06   |      313374      |     359654
Характеристики диапазона извлечения и сообщения об ошибках
Выбранный диапазон
     Имя файла F:\LOSSLESS\Рипы\Eagles - Greatest Hits [CD 2].wav
     Пиковый уровень 100.0 %
     Скорость извлечения 4.6 X
     Качество диапазона 99.9 %
     CRC теста A7C5B037
     CRC копии A7C5B037
     Копирование... OK
Ошибок не произошло
AccurateRip: сводка
Трек  1  отсутствует в базе данных
Трек  2  отсутствует в базе данных
Трек  3  отсутствует в базе данных
Трек  4  отсутствует в базе данных
Трек  5  отсутствует в базе данных
Трек  6  отсутствует в базе данных
Трек  7  отсутствует в базе данных
Трек  8  отсутствует в базе данных
Трек  9  отсутствует в базе данных
Трек 10  отсутствует в базе данных
Трек 11  отсутствует в базе данных
Трек 12  отсутствует в базе данных
Трек 13  отсутствует в базе данных
Трек 14  отсутствует в базе данных
Трек 15  отсутствует в базе данных
Трек 16  отсутствует в базе данных
Трек 17  отсутствует в базе данных
Ни одного трека нет в базе AccurateRip
Конец отчёта

Индексная карта (non-compilant .cue)

CD 1

REM GENRE "Classic Rock"
REM DATE 2011
REM DISCID FD12BB12
REM COMMENT "ExactAudioCopy v1.0b3"
PERFORMER "Eagles"
TITLE "Greatest Hits [CD 1]"
FILE "Eagles - Greatest Hits [CD 1].flac" WAVE
  TRACK 01 AUDIO
    TITLE "Hotel California"
    PERFORMER "Eagles"
    FLAGS DCP
    INDEX 01 00:00:00
  TRACK 02 AUDIO
    TITLE "The Best Of My Love"
    PERFORMER "Eagles"
    FLAGS DCP
    INDEX 00 06:30:00
    INDEX 01 06:32:00
  TRACK 03 AUDIO
    TITLE "Lyin' Eyes"
    PERFORMER "Eagles"
    FLAGS DCP
    INDEX 00 11:06:02
    INDEX 01 11:08:02
  TRACK 04 AUDIO
    TITLE "New Kid in Town"
    PERFORMER "Eagles"
    FLAGS DCP
    INDEX 00 17:28:01
    INDEX 01 17:30:01
  TRACK 05 AUDIO
    TITLE "I Can't Tell You Why"
    PERFORMER "Eagles"
    FLAGS DCP
    INDEX 00 22:35:64
    INDEX 01 22:37:64
  TRACK 06 AUDIO
    TITLE "One Of These Nights"
    PERFORMER "Eagles"
    FLAGS DCP
    INDEX 00 27:31:14
    INDEX 01 27:33:14
  TRACK 07 AUDIO
    TITLE "Tequila Sunrise"
    PERFORMER "Eagles"
    FLAGS DCP
    INDEX 00 32:23:48
    INDEX 01 32:25:48
  TRACK 08 AUDIO
    TITLE "Doolin' Dalton"
    PERFORMER "Eagles"
    FLAGS DCP
    INDEX 00 35:17:64
    INDEX 01 35:19:64
  TRACK 09 AUDIO
    TITLE "Take It To The Limit"
    PERFORMER "Eagles"
    FLAGS DCP
    INDEX 00 38:46:58
    INDEX 01 38:48:58
  TRACK 10 AUDIO
    TITLE "Take It Easy"
    PERFORMER "Eagles"
    FLAGS DCP
    INDEX 00 43:36:16
    INDEX 01 43:38:16
  TRACK 11 AUDIO
    TITLE "Witchy Woman"
    PERFORMER "Eagles"
    FLAGS DCP
    INDEX 00 47:08:67
    INDEX 01 47:10:67
  TRACK 12 AUDIO
    TITLE "Heartache Tonight"
    PERFORMER "Eagles"
    FLAGS DCP
    INDEX 00 51:21:71
    INDEX 01 51:23:71
  TRACK 13 AUDIO
    TITLE "Life in the Fast Lane"
    PERFORMER "Eagles"
    FLAGS DCP
    INDEX 00 55:49:35
    INDEX 01 55:51:35
  TRACK 14 AUDIO
    TITLE "How Long"
    PERFORMER "Eagles"
    FLAGS DCP
    INDEX 00 60:36:44
    INDEX 01 60:38:43
  TRACK 15 AUDIO
    TITLE "Get Over It"
    PERFORMER "Eagles"
    FLAGS DCP
    INDEX 00 63:53:51
    INDEX 01 63:55:51
  TRACK 16 AUDIO
    TITLE "No More Cloudy Days"
    PERFORMER "Eagles"
    FLAGS DCP
    INDEX 00 67:25:53
    INDEX 01 67:27:52
  TRACK 17 AUDIO
    TITLE "Love Will Keep Us Alive"
    PERFORMER "Eagles"
    FLAGS DCP
    INDEX 00 71:29:48
    INDEX 01 71:31:48
  TRACK 18 AUDIO
    TITLE "Busy Being Fabulous"
    PERFORMER "Eagles"
    FLAGS DCP
    INDEX 00 75:34:14
    INDEX 01 75:36:14

CD 2

REM GENRE "Classic Rock"
REM DATE 2011
REM DISCID 0812BB11
REM COMMENT "ExactAudioCopy v1.0b3"
PERFORMER "Eagles"
TITLE "Greatest Hits [CD 2]"
FILE "Eagles - Greatest Hits [CD 2].flac" WAVE
  TRACK 01 AUDIO
    TITLE "Peaceful Easy Feeling"
    PERFORMER "Eagles"
    FLAGS DCP
    INDEX 01 00:00:00
  TRACK 02 AUDIO
    TITLE "The Sad Cafe"
    PERFORMER "Eagles"
    FLAGS DCP
    INDEX 01 04:16:12
  TRACK 03 AUDIO
    TITLE "After The Trill Is Gone"
    PERFORMER "Eagles"
    FLAGS DCP
    INDEX 01 09:49:72
  TRACK 04 AUDIO
    TITLE "The Last Resort"
    PERFORMER "Eagles"
    FLAGS DCP
    INDEX 01 13:46:59
  TRACK 05 AUDIO
    TITLE "Desperado"
    PERFORMER "Eagles"
    FLAGS DCP
    INDEX 01 21:12:54
  TRACK 06 AUDIO
    TITLE "In The City"
    PERFORMER "Eagles"
    FLAGS DCP
    INDEX 01 24:44:53
  TRACK 07 AUDIO
    TITLE "Wasted Time"
    PERFORMER "Eagles"
    FLAGS DCP
    INDEX 01 28:29:49
  TRACK 08 AUDIO
    TITLE "The Long Run"
    PERFORMER "Eagles"
    FLAGS DCP
    INDEX 01 33:22:49
  TRACK 09 AUDIO
    TITLE "On The Border"
    PERFORMER "Eagles"
    FLAGS DCP
    INDEX 01 37:04:14
  TRACK 10 AUDIO
    TITLE "Victim Of Love"
    PERFORMER "Eagles"
    FLAGS DCP
    INDEX 01 41:27:10
  TRACK 11 AUDIO
    TITLE "Already Gone"
    PERFORMER "Eagles"
    FLAGS DCP
    INDEX 01 45:37:33
  TRACK 12 AUDIO
    TITLE "Please Come Home for Christmas"
    PERFORMER "Eagles"
    FLAGS DCP
    INDEX 01 49:53:28
  TRACK 13 AUDIO
    TITLE "Hole In The World"
    PERFORMER "Eagles"
    FLAGS DCP
    INDEX 01 52:49:27
  TRACK 14 AUDIO
    TITLE "Learn To Be Still"
    PERFORMER "Eagles"
    FLAGS DCP
    INDEX 01 57:01:15
  TRACK 15 AUDIO
    TITLE "What Do I Do With My Heart"
    PERFORMER "Eagles"
    FLAGS DCP
    INDEX 01 61:25:23
  TRACK 16 AUDIO
    TITLE "I Don't Want To Hear Anymore"
    PERFORMER "Eagles"
    FLAGS DCP
    INDEX 01 65:17:15
  TRACK 17 AUDIO
    TITLE "Long Road Out Of Eden"
    PERFORMER "Eagles"
    FLAGS DCP
    INDEX 01 69:38:24
--Не забываем говорить
[Профиль] [ЛС]
Показать сообщения:    

Текущее время: Сегодня 00:15

Часовой пояс: GMT



Вы не можете начинать темы
Вы не можете отвечать на сообщения
Вы не можете редактировать свои сообщения
Вы не можете удалять свои сообщения
Вы не можете голосовать в опросах
Вы не можете прикреплять файлы к сообщениям
Вы не можете скачивать файлы