(Country Rock)Eagles - Eagles - 1972 [Ape, image +.cue, lossless]

 
Автор Сообщение

sergej644 ®

Пол:

Стаж: 4 года 11 месяцев

Сообщений: 6043

Откуда: Soviet Union



Награды: Нет

Торрент-статистика

Создавать темы 30-Июл-2016 23:05

[Цитировать]

-Eagles - Eagles--
Год издания: 1972
Страна: USA
Жанр: Country Rock
Продолжительность: 00:37:07-Лейбл издания: Asylum Records
Страна-выпуска диска: Germany
Номер по каталогу: 7559606232-Формат: Ape
Битрейт аудио: Lossless
Тип рипа: image +.cue
Наличие сканов в содержимом раздачи: да
-

Трэклист


01. Take It Easy (3:32)
02. Witchy Woman (4:12)
03. Chug All Night (3:16)
04. Most of Us Are Sad (3:36)
05. Nightingale (4:08)
06. Train Leaves Here This Morning (4:10)
07. Take the Devil (4:01)
08. Earlybird (3:00)
09. Peaceful Easy Feeling (4:18)
10. Tryin (2:53)
-

Лог создания рипа

Exact Audio Copy V0.99 prebeta 5 from 4. May 2009
EAC extraction logfile from 30. July 2016, 7:38
Eagles / Eagles
Used drive  : ASUS    DRW-20B1ST   Adapter: 3  ID: 0
Read mode               : Secure
Utilize accurate stream : Yes
Defeat audio cache      : Yes
Make use of C2 pointers : No
Read offset correction                      : 6
Overread into Lead-In and Lead-Out          : No
Fill up missing offset samples with silence : Yes
Delete leading and trailing silent blocks   : No
Null samples used in CRC calculations       : Yes
Used interface                              : Native Win32 interface for Win NT & 2000
Used output format              : Monkey's Audio Lossless Encoder
Selected bitrate                : High Lossless Compression
Quality                         : High
Add ID3 tag                     : No
Command line compressor         : C:\Program Files (x86)\Monkey's Audio\MAC.exe
Additional command line options :  %source% %dest% -c3000
Use compression offset          : 0
TOC of the extracted CD
     Track |   Start  |  Length  | Start sector | End sector
    ---------------------------------------------------------
        1  |  0:00.00 |  3:32.35 |         0    |    15934
        2  |  3:32.35 |  4:11.42 |     15935    |    34801
        3  |  7:44.02 |  3:16.23 |     34802    |    49524
        4  | 11:00.25 |  3:35.57 |     49525    |    65706
        5  | 14:36.07 |  4:08.10 |     65707    |    84316
        6  | 18:44.17 |  4:10.30 |     84317    |   103096
        7  | 22:54.47 |  4:01.33 |    103097    |   121204
        8  | 26:56.05 |  3:00.30 |    121205    |   134734
        9  | 29:56.35 |  4:17.57 |    134735    |   154066
       10  | 34:14.17 |  2:53.08 |    154067    |   167049
Range status and errors
Selected range
     Filename E:\Eagles - Eagles.wav
     Peak level 99.8 %
     Range quality 100.0 %
     Copy CRC 95B47DDF
     Copy OK
No errors occurred
AccurateRip summary
Track  1  accurately ripped (confidence 49)  [20D7E0D4]
Track  2  accurately ripped (confidence 47)  [67A1E75F]
Track  3  accurately ripped (confidence 48)  [E8F532E1]
Track  4  accurately ripped (confidence 50)  [D46411A8]
Track  5  accurately ripped (confidence 50)  [A895B798]
Track  6  accurately ripped (confidence 47)  [394EF822]
Track  7  accurately ripped (confidence 49)  [FA5D51A6]
Track  8  accurately ripped (confidence 49)  [0851CDE4]
Track  9  accurately ripped (confidence 49)  [3EDA9F9F]
Track 10  accurately ripped (confidence 49)  [6674D3F9]
All tracks accurately ripped
End of status report

Индексная карта (non-compilant .cue)

REM GENRE Rock
REM DATE 1972
REM DISCID 8F08B30A
REM COMMENT "ExactAudioCopy v0.99pb5"
PERFORMER "Eagles"
TITLE "Eagles"
FILE "Eagles - Eagles.ape" WAVE
   TRACK 01 AUDIO
    TITLE "Take It Easy"
    PERFORMER Eagles
    INDEX 01 00:00:00
  TRACK 02 AUDIO
    TITLE "Witchy Woman"
    PERFORMER Eagles
    INDEX 00 03:30:67
    INDEX 01 03:32:35
  TRACK 03 AUDIO
    TITLE "Chug All Night"
    PERFORMER Eagles
    INDEX 01 07:44:02
  TRACK 04 AUDIO
    TITLE "Most of Us Are Sad"
    PERFORMER Eagles
    INDEX 00 10:58:17
    INDEX 01 11:00:25
  TRACK 05 AUDIO
    TITLE Nightingale
    PERFORMER Eagles
    INDEX 00 14:34:35
    INDEX 01 14:36:07
  TRACK 06 AUDIO
    TITLE "Train Leaves Here This Morning"
    PERFORMER Eagles
    INDEX 00 18:42:27
    INDEX 01 18:44:17
  TRACK 07 AUDIO
    TITLE "Take the Devil"
    PERFORMER Eagles
    INDEX 00 22:52:60
    INDEX 01 22:54:47
  TRACK 08 AUDIO
    TITLE Earlybird
    PERFORMER Eagles
    INDEX 00 26:54:45
    INDEX 01 26:56:05
  TRACK 09 AUDIO
    TITLE "Peaceful Easy Feeling"
    PERFORMER Eagles
    INDEX 01 29:56:35
  TRACK 10 AUDIO
    TITLE Tryin
    PERFORMER Eagles
    INDEX 00 34:13:05
    INDEX 01 34:14:17
--
[Профиль] [ЛС]
Кто просматривает тему:

Показать сообщения:    

Текущее время: Сегодня 14:38

Часовой пояс: GMT



Вы не можете начинать темы
Вы не можете отвечать на сообщения
Вы не можете редактировать свои сообщения
Вы не можете удалять свои сообщения
Вы не можете голосовать в опросах
Вы не можете прикреплять файлы к сообщениям
Вы не можете скачивать файлы