(Eurodance) E-Type - 7 Albums + 6 Singles (14 CD) - 1994-2007, FLAC (image+.cue), lossless

 
Автор Сообщение

sergej644 ®

Пол:

Стаж: 4 года 11 месяцев

Сообщений: 6046

Откуда: Soviet Union



Награды: Нет

Торрент-статистика

Создавать темы 27-Авг-2014 09:12

[Цитировать]

E-Type - 7 Albums + 6 Singles (14 CD)-Страна: Швеция
Жанр: Eurodance
Годы выпуска: 1994-2007
Аудио кодек: FLAC
Тип рипа: image+.cue
Битрейт аудио: lossless
Общая продолжительность: 06:47:01-Описание: 14 дисков одной из самых известных и долгоживущих Eurodance-групп E-Type.
Мои благодарности: Эта раздача не состоялась бы, если не помощь многих людей, которые прислали/передали мне рипы своих оригинальных дисков E-Type. Итак, я благодарю aylaayla за Last Man Standing и сразу 4 сингла Russian Lullaby, I Just Wanna Be With You, Here I Go Again, Princess Of Egypt, a1 за Euro IV Ever, Loud Pipes Save Lives, Eurotopia и Angels Crying CDM (жаль, что у него нет сканера), Ivancho за Greatest Hits + Greatest Remixes (2CD), а также DENnv за сингл This Is The Way. Остальные рипы (Made In Sweden, The Explorer) - собственные.-
http://www.e-type.se/ - Official Web Site (in English)
http://www.etype.dk/ - Official Danish Site
http://www.etype.nl/ - Official Dutch Site
http://www.e-type.ru/ - Unofficial Russian Site

Биография

E-Type — музыкант, родился в городе Уппсала (Швеция) в 1965 году. Зовут этого человека Bo Martin Erik Eriksson. Родился он в шведском городе Uppsala, 27 августа 1965 года. В юном возрасте его семья переезжает в Стокгольм, в район под навзанием Bromma. В Стокгольме Мартин Эрикссон живёт и по сей день.
Касательно истории происхождения псевдонима существует 2 версии. Общее у обеих версий то, что E-Type - это очень популярная модель автомобиля 60-х марки Jaguar, одна из самых стильных за всю историю автомобилестроения. Значит можно предположить, что музыкант, который так себя назвал, хотел выработать свой неповторимый стиль. Согласно первой версии, приехав на студию, чтобы подписать свой самый первый контракт, Мартин припарковал свой автомобиль возле Ягуара E-Type и подумал, что это могло бы стать подходящим сценическим именем. Согласно второй версии, Мартин выбрал для себя этот псевдоним во время службы в армии, чтобы хоть как-то отличаться от великого множества других Эрикссонов, служивших вместе с ним, так как это одна из самых распространенных фамилий в Швеции.
E-Type известен широкой публике уже давно, когда Мартин, под псевдонимом MC Werewolf, являлся ударником в шведской металлической группе Hexenhaus (thrash metal, technical thrash metal), музыку которую он сейчас описывает как "брутальную разновидность метала". С тех времён и остались у него длинные волосы. Было время, когда авторитетный европейский журнал "Kerrang" даже признавал Hexenhaus самой быстрой среди себе подобных. Как бы то ни было, Бо требовалось нечто большее, чтобы умерить свои амбиции. И в 1991 году судьба сводит его с малоизвестным шведским реппером Stakka Bo (настоящее имя Johan Renck), вместе с которым в 1991 году они выпускают свой дебютный сингл "We Got The Atmosphere". Сингл вскоре добрался до верхушки шведских чартов. Позже, в 1992 году, был выпущен ещё один сингл "Numania 1" с би-сайдом, песней "Obey", приглашенной вокалистой в которой была La Camilla (Army Of Lovers), а также песня "The Dream", так и не вышедшая в итоге отдельным синглом. Дуэт обретает достаточную популярность в Скандинавии и Эрикссона приглашают поработать в качестве VJ на шведском музыкальном канале Z-TV. В течение этого времени E-Type становится известной личностью в шведской индустрии развлечений не только как популярный телеведущий, но также как композитор саундтреков для телепередач, автор песен для нескольких шведских исполнителей и уже летом 1993 года он выпускает свой первый сольный сингл "I'm Falling", который, впрочем, ровным счетом ничего не достигает, несмотря на довольно большие затраты на его запись и съёмку видеоклипа.
Успешная сольная карьера началась в 1994 году, когда E-Type, поняв, что ему необходима команда и хорошие продюсеры, обращается за помощью в продюсерскую компанию "Cheiron", во главе которой стояли Denniz PoP и Max Martin (продюсировал Backstreet Boys, Britney Spears, Celine Dion и других). Летом 1994 года первый результат сотрудничества, сингл "Set The World On Fire", покорил шведские чарты и молниеносно обрел статус "золотого", выйдя на 2-е место по продажам за год. Последующий сингл "This Is The Way", как и его предшественник, также стал «золотым». Дебютный альбом "Made In Sweden" был выпущен в ноябре 1994 года.
1995 танцевальный год вновь проходит под символом "E-Type", благодаря успеху синглов "Do You Always (Have To Be Alone)" и "Russian Lullaby". Последний записан в соавторстве с известным хитмейкером Йонасом Берггреном (Jonas Berggren) из Ace Of Base. Успехи в Швеции в 1994 были отмечены тремя заслуженными наградами на Swedish Dance Music Awards как «Лучший дебют, «Лучший исполнитель», «Лучшая песня», в то время как на их общем успехе Denniz PoP признан второй раз подряд лучшим продюсером. После такого оглушительного успеха, Мартин Эриксон, со своей группой из 9 музыкантов, танцоров (среди которых была танцовщица Dilnarin "Dee" Demirbag, признанная 8-й среди самых сексуальных женщин Швеции по итогам 1996 года) и аранжировщиков, устремляется завоёвывать мир.
В продолжение этих успехов Европа стала проявлять повышенный интерес к новой шведской звезде. В 1995 году синглы "Set The World On Fire" and "This Is The Way" появились в чартах Франции и Германии. В течение весны 1996 года танцполы США стали все более узнавать E-Type по композиции "This Is The Way", которая очень хорошо показала себя в «клубном» чарте Billboard.
Наступает 1996 год и E-Type вновь стучится в студию к Дэннизу и Максу со своими идеями. Новое лицо в их команде - Kristian Lundin, половинка продюсерского дуэта Amadin и лучший друг E-Type, сочиняет вместе с ним большинство песен для нового диска и становится сопродюсером второго альбома "The Explorer". Выходу альбома (23 октября) предшествует релиз сингла "Free Like A Flying Demon", который удерживает 1 место в шведских чартах 3 недели подряд и становится "золотым". После его прослушивания становится ясным, что E-Type скорректировал своё звучание в сторону гитарного звука и несколько отошёл от техно-ритмов. Но с появлением "The Explorer" самые страшные опасения улетучиваются - E-Type всё ещё не разучился делать классные танцевальные вещи. И все 5 синглов, выпущенных в его поддержку, плюс сотни тысяч проданных копий говорят сами за себя. Второй альбом действительно звучал тяжелее первого, но скорее всего это только сыграло на руку E-Type, дабы мы не смогли обвинить его в самоповторении, к тому же его песни стали намного более содержательными.
27 ноября 1998 года E-Type в рыцарском облачении выпускает свой 3-й альбом "Last Man Standing", предварительно добившись значительного успеха синглами "Angels Crying" и "Here I Go Again". E-Type и на этот раз остался верен своей фирменной скороговорной манере исполнения и заводным ритмам современного евроденса. 22 января 1999 года его альбом разживается третьим синглом "Princess Of Egypt", чем-то напоминающим знаменитую песню E-Type "When Religion Comes To Town". Несмотря на успех, 1998-й год стал самым мрачным для E-Type и всей шведской музыкальной индустрии. 30 августа 1998 года известный продюсер и близкий друг E-Type Дэнниз Поп скончался от рака в возрасте 35 лет. О своей болезни он узнал ещё в декабре 97-го, но уже в феврале он был слишком слаб, чтобы получить награду от Swedish Grammy Awards. Новый альбом "Last Man Standing" Мартин Эрикссон посвящает памяти своего друга Denniz PoP.
В 2000 году Мартину Эрикссону было предложено написать официальный гимн Чемпионата Европы по футболу, проходивший в июне/июле 2000 года. Результатом этой работы явилась песня “Campione 2000”. Она стала прорывом для E-Type в Голландии, Бельгии и других странах Бенелюкс. В этом же году E-Type идёт на ещё один эксперимент - он записывает двуязычный сингл "Es Ist Nie Vorbei" вместе с немецкой исполнительницей Blumchen (Jasmin Wagner). E-Type также проявляет себя и областях, отличных от музыки. В 2000 году он публикует свою первую книгу "Sveakampen". Это полуавтобиографическая книга о викингах, персонажи которой основаны на друзьях и знакомых E-Type. К концу 2001 года Sveakampen выходит в виде компьютерной игры.
Четвёртый альбом "Euro IV Ever" выходит 21 ноября 2001 года и являет собой подборку любимых евро-техно хитов E-Type в его же исполнении. Выход этого альбома фанаты ждали в течение 3-х лет. Первый сингл с альбома, "Life", вышедший 4 ноября 2001 года, не обманул ожидания поклонников E-Type и попал на верхние строчки шведского хит-парада. Альбом имеет бешенный успех на западе и становится "золотым" в Швеции. Будет важно отметить, что в преддверии выпуска название альбома и лирика одной из песен были изменены по причине событий, произошедших в США 11 сентября 2001 года. Изначально альбом носил название "Eurofighter". Также, фраза из припева "Arabian Star" "I saw the Arabian star falling from the sky" была откорректирована и перепета заново как "I saw the Arabian star brightest of them all". К счастью, оригинальное исполнение всё-таки можно услышать на промо-альбоме "Euro IV Ever".
В 2004 году E-Type принял участие в отборе на Евровидение в рамках локального шведского конкурса исполнителей Melodifestivalen, где исполнил песню "Paradise", которая стала первым успешным синглом с очередного альбома "Loud Pipes Save Lives" и прошёл с этой песней до финала. В этом же году композиция E-Type "Olympia", являющаяся кавер-версией песни "Camilla", стала официальным гимном олимпийской сборной Швеции. "Loud Pipes Save Lives" выходит 24 марта 2004 года не без помощи Max Martin, Rami и John Amatiello (Amadin).
Источник: http://ru.wikipedia.org/wiki/E-Type
Albums

1994 - Made In Sweden

Сканы - 600 dpi, PNG (отдельной папкой постеры в PNG, 214 Мб)
Треклист:
01. Made In Sweden (1:35)
02. Set The World On Fire (3:45)
03. This Is The Way (3:56)
04. So Dem A Com (3:32)
05. Fight It Back (3:29)
06. Until The End (3:32)
07. When Religion Comes To Town (3:23)
08. Will I See You Again? (4:01)
09. Do You Always (4:10)
10. Russian Lullaby (3:14)
11. Me No Want Miseria (4:51)
12. Set The World Unplugged (4:01)

Отчет EAC

Exact Audio Copy V0.99 prebeta 5 from 4. May 2009
Отчёт EAC об извлечении, выполненном 29. июля 2009, 10:03
E-Type / Made In Sweden
Дисковод: LITE-ON LTR-52327S   Adapter: 1  ID: 0
Режим чтения                 : Достоверность
Использование точного потока : Да
Отключение кэша аудио        : Да
Использование указателей C2  : Нет
Коррекция смещения при чтении                     : 6
Способность читать области Lead-in и Lead-out     : Нет
Заполнение пропущенных сэмплов тишиной            : Да
Удаление блоков с тишиной в начале и конце        : Нет
При вычислениях CRC использовались нулевые сэмплы : Да
Интерфейс                                         : Установленный внешний ASPI-интерфейс
Выходной формат : Внутренние WAV-операцииФормат сэмплов  : 44.100 Гц; 16 бит; стерео
TOC извлечённого CD
Трек |   Старт  | Длительность | Начальный сектор | Конечный сектор    ---------------------------------------------------------------------       1  |  0:00.00 |    1:35.02   |           0      |       7126       2  |  1:35.02 |    3:44.38   |        7127      |      23964       3  |  5:19.40 |    3:56.27   |       23965      |      41691       4  |  9:15.67 |    3:31.50   |       41692      |      57566       5  | 12:47.42 |    3:28.48   |       57567      |      73214       6  | 16:16.15 |    3:32.10   |       73215      |      89124       7  | 19:48.25 |    3:22.50   |       89125      |     104324       8  | 23:11.00 |    4:01.22   |      104325      |     122421       9  | 27:12.22 |    4:09.65   |      122422      |     141161      10  | 31:22.12 |    3:13.68   |      141162      |     155704      11  | 34:36.05 |    4:50.45   |      155705      |     177499      12  | 39:26.50 |    4:00.57   |      177500      |     195556
Характеристики диапазона извлечения и сообщения об ошибках
Выбранный диапазон
Имя файла K:\Lossless Eurodance\!E-Type Lossless\Albums\E-Type - Made In Sweden (1994-FLAC-aZo)\E-Type - Made In Sweden.wav
Пиковый уровень 100.0 %
Качество диапазона 100.0 %
CRC теста 5781455D
CRC копии 5781455D
Копирование... OK
Ошибок не произошло
AccurateRip: сводка
Трек  1  точное извлечение (доверие 15)  [1C852B42]
Трек  2  точное извлечение (доверие 15)  [2B42BA10]
Трек  3  точное извлечение (доверие 15)  [F4009A74]
Трек  4  точное извлечение (доверие 15)  [C7AF2C48]
Трек  5  точное извлечение (доверие 15)  [4AA881FD]
Трек  6  точное извлечение (доверие 15)  [A94A0E4E]
Трек  7  точное извлечение (доверие 15)  [78C8DF73]
Трек  8  точное извлечение (доверие 15)  [CB55E831]
Трек  9  точное извлечение (доверие 14)  [86A1BD78]
Трек 10  точное извлечение (доверие 15)  [0E30DB5C]
Трек 11  точное извлечение (доверие 15)  [B5926F6E]
Трек 12  точное извлечение (доверие 15)  [14869A8A]
Все треки извлечены точно
Конец отчёта

1996 - The Explorer

Сканы - 600 dpi, PNG
Треклист:
01. The Explorer (1:10)
02. Calling Your Name (3:38)
03. Back In The Loop (3:26)
04. I Just Wanna Be With You (3:51)
05. Free Like A Flying Demon (3:36)
06. You Know (3:58)
07. Forever Wild (3:41)
08. Fall From The Sky (3:26)
09. I'm Not Alone (4:34)
10. We Gotta Go (3:25)
11. You Will Always Be A Part Of Me (4:07)
12. So Dem A Com (Explorer Version) (4:49)

Отчет EAC

Exact Audio Copy V0.99 prebeta 5 from 4. May 2009
Отчёт EAC об извлечении, выполненном 29. июля 2009, 10:36
E-Type / The Explorer
Дисковод: LITE-ON LTR-52327S   Adapter: 1  ID: 0
Режим чтения                 : Достоверность
Использование точного потока : Да
Отключение кэша аудио        : Да
Использование указателей C2  : Нет
Коррекция смещения при чтении                     : 6
Способность читать области Lead-in и Lead-out     : Нет
Заполнение пропущенных сэмплов тишиной            : Да
Удаление блоков с тишиной в начале и конце        : Нет
При вычислениях CRC использовались нулевые сэмплы : Да
Интерфейс                                         : Установленный внешний ASPI-интерфейс
Выходной формат : Внутренние WAV-операцииФормат сэмплов  : 44.100 Гц; 16 бит; стерео
TOC извлечённого CD
Трек |   Старт  | Длительность | Начальный сектор | Конечный сектор    ---------------------------------------------------------------------       1  |  0:00.00 |    1:10.02   |           0      |       5251       2  |  1:10.02 |    3:37.50   |        5252      |      21576       3  |  4:47.52 |    3:26.33   |       21577      |      37059       4  |  8:14.10 |    3:51.32   |       37060      |      54416       5  | 12:05.42 |    3:35.40   |       54417      |      70581       6  | 15:41.07 |    3:57.45   |       70582      |      88401       7  | 19:38.52 |    3:41.30   |       88402      |     105006       8  | 23:20.07 |    3:25.40   |      105007      |     120421       9  | 26:45.47 |    4:34.25   |      120422      |     140996      10  | 31:19.72 |    3:25.28   |      140997      |     156399      11  | 34:45.25 |    4:06.45   |      156400      |     174894      12  | 38:51.70 |    4:48.65   |      174895      |     196559
Характеристики диапазона извлечения и сообщения об ошибках
Выбранный диапазон
Имя файла K:\Lossless Eurodance\!E-Type Lossless\Albums\E-Type - The Explorer (1996-FLAC-aZo)\E-Type - The Explorer.wav
Пиковый уровень 100.0 %
Качество диапазона 100.0 %
CRC теста DDFAEBAD
CRC копии DDFAEBAD
Копирование... OK
Ошибок не произошло
AccurateRip: сводка
Трек  1  точное извлечение (доверие 3)  [0228340A]
Трек  2  точное извлечение (доверие 3)  [0976C7BD]
Трек  3  точное извлечение (доверие 3)  [732FD4DD]
Трек  4  точное извлечение (доверие 3)  [5C92A8F5]
Трек  5  точное извлечение (доверие 3)  [A7688B9F]
Трек  6  точное извлечение (доверие 3)  [A275DAB6]
Трек  7  точное извлечение (доверие 3)  [21B27433]
Трек  8  точное извлечение (доверие 3)  [F2F8B15A]
Трек  9  точное извлечение (доверие 3)  [F5F96626]
Трек 10  точное извлечение (доверие 3)  [0A6F9A33]
Трек 11  точное извлечение (доверие 3)  [9381CCBA]
Трек 12  точность не определена (достоверность 2)  [7E7FE7C9], AccurateRip вернул [B70EC93B]
11 трек(и) скопированы точно 1 трек(и) не удалось проверить на точность
Некоторые треки не прошли проверку на точность
Конец отчёта

1998 - Last Man Standing

Сканы - 300 dpi, TIFF
Треклист:
01. Ultimos Homo Statans (Last Man Standing) (0:57)
02. Angels Crying (3:50)
03. Here I Go Again (3:54)
04. Princess Of Egypt (3:40)
05. Hold Your Horses (4:01)
06. I'm Flying (4:20)
07. Morning Light (3:34)
08. I'll Always Be Around (3:41)
09. Walk Away (3:30)
10. I'll Find A Way (3:35)
11. So Far Away (6:46)
12. Angels Country (4:01)
13. Pop Preludium (1:34)

Отчет EAC

Exact Audio Copy V0.99 prebeta 4 from 23. January 2008
Отчёт EAC об извлечении, выполненном 30. июля 2009, 0:29
E-Type / Last Man Standing
Дисковод: TSSTcorpCDDVDW SH-S223F   Adapter: 1  ID: 1
Режим чтения                 : Достоверность
Использование точного потока : Да
Отключение кэша аудио        : Да
Использование указателей C2  : Нет
Коррекция смещения при чтении                     : 6
Способность читать области Lead-in и Lead-out     : Нет
Заполнение пропущенных сэмплов тишиной            : Да
Удаление блоков с тишиной в начале и конце        : Нет
При вычислениях CRC использовались нулевые сэмплы : Да
Интерфейс                                         : Установленный внешний ASPI-интерфейс
Выходной формат : Внутренние WAV-операцииФормат сэмплов  : 44.100 Гц; 16 бит; стерео
TOC извлечённого CD
Трек |   Старт  | Длительность | Начальный сектор | Конечный сектор    ---------------------------------------------------------------------       1  |  0:00.00 |    0:57.35   |           0      |       4309       2  |  0:57.35 |    3:50.32   |        4310      |      21591       3  |  4:47.67 |    3:53.50   |       21592      |      39116       4  |  8:41.42 |    3:39.58   |       39117      |      55599       5  | 12:21.25 |    4:01.10   |       55600      |      73684       6  | 16:22.35 |    4:19.67   |       73685      |      93176       7  | 20:42.27 |    3:33.53   |       93177      |     109204       8  | 24:16.05 |    3:40.60   |      109205      |     125764       9  | 27:56.65 |    3:30.10   |      125765      |     141524      10  | 31:27.00 |    3:35.05   |      141525      |     157654      11  | 35:02.05 |    6:45.42   |      157655      |     188071      12  | 41:47.47 |    4:01.10   |      188072      |     206156      13  | 45:48.57 |    1:34.00   |      206157      |     213206
Характеристики диапазона извлечения и сообщения об ошибках
Выбранный диапазон
Имя файла J:\TORRENTS\E-Type\E-Type (1998) - Last Man Standing\E-Type - Last Man Standing.wav
Пиковый уровень 97.8 %
Качество диапазона 100.0 %
CRC копии BF8A0059
Копирование... OK
Ошибок не произошло
AccurateRip: сводка
Трек  1  точное извлечение (доверие 3)  [F0632771]
Трек  2  точное извлечение (доверие 3)  [59A85AF4]
Трек  3  точное извлечение (доверие 2)  [E6162180]
Трек  4  точное извлечение (доверие 3)  [B1A8C453]
Трек  5  точное извлечение (доверие 3)  [7CDB29B4]
Трек  6  точное извлечение (доверие 3)  [6A24E7EB]
Трек  7  точное извлечение (доверие 3)  [B0624646]
Трек  8  точное извлечение (доверие 3)  [D0E50BD0]
Трек  9  точное извлечение (доверие 3)  [50DF11A0]
Трек 10  точное извлечение (доверие 3)  [6EC21825]
Трек 11  точное извлечение (доверие 3)  [4519B8B1]
Трек 12  точное извлечение (доверие 3)  [90EA13A4]
Трек 13  точное извлечение (доверие 3)  [EE68935D]
Все треки извлечены точно
Конец отчёта

1999 - Greatest Hits + Greatest Remixes (2CD)

Треклист (Greatest Hits):
01. Set The World On Fire (3:45)
02. This Is The Way (3:56)
03. Do You Always? (4:10)
04. So Dem A Com (3:32)
05. Russian Lullaby (3:14)
06. Free Like A Flying Demon (3:36)
07. Calling Your Name (3:38)
08. Back In The Loop (3:26)
09. I Just Wanna Be With You (3:51)
10. You Will Always Be A Part Of Me (4:07)
11. Angels Crying (3:50)
12. Here I Go Again (3:54)
13. Princess Of Egypt (3:40)
14. Hold Your Horses (4:01)
15. I'm Falling (3:44)
Треклист (Greatest Remixes):
01. This Is The Way (Waterdreamix) (6:50)
02. Back In The Loop (3:40)
03. I Just Wanna Be With You (Andre's Boogie Buster Short Mix) (3:38)
04. Calling Your Name (Antiloop Garage Club Mix) (5:46)
05. Angels Crying (C&N Radio Edit) (3:36)
06. Russian Lullaby (Dogshit Le Club Mix) (6:00)
07. Princess Of Egypt (Pinocchio Remix) (5:42)
08. Here I Go Again (Richi's Extended Version) (7:05)
09. So Dem A Com (Lori Brune Edit) (3:53)
10. Hold Your Horses (Hartmann / Langhoff Club Mix) (7:47)
11. Set The World On Fire (U.K. Biff & Memphis Remix) (12:48)

Отчет EAC (Greatest Hits)

Exact Audio Copy V0.99 prebeta 4 from 23. January 2008
Отчёт EAC об извлечении, выполненном 16. мая 2008, 2:44
E-Type / Greatest Hits, CD1
Дисковод: PLEXTOR DVDR   PX-712A   Adapter: 4  ID: 0
Режим чтения                 : Достоверность
Использование точного потока : Да
Отключение кэша аудио        : Да
Использование указателей C2  : Нет
Коррекция смещения при чтении                     : 30
Способность читать области Lead-in и Lead-out     : Нет
Заполнение пропущенных сэмплов тишиной            : Да
Удаление блоков с тишиной в начале и конце        : Нет
При вычислениях CRC использовались нулевые сэмплы : Да
Интерфейс                                         : Встроенный Win32-интерфейс для Win NT/2000
Выходной формат : Внутренние WAV-операцииФормат сэмплов  : 44.100 Гц; 16 бит; стерео
TOC извлечённого CD
Трек |   Старт  | Длительность | Начальный сектор | Конечный сектор    ---------------------------------------------------------------------       1  |  0:00.00 |    3:44.38   |           0      |      16837       2  |  3:44.38 |    3:56.27   |       16838      |      34564       3  |  7:40.65 |    4:09.65   |       34565      |      53304       4  | 11:50.55 |    3:31.50   |       53305      |      69179       5  | 15:22.30 |    3:13.68   |       69180      |      83722       6  | 18:36.23 |    3:35.40   |       83723      |      99887       7  | 22:11.63 |    3:37.50   |       99888      |     116212       8  | 25:49.38 |    3:26.33   |      116213      |     131695       9  | 29:15.71 |    3:51.32   |      131696      |     149052      10  | 33:07.28 |    4:06.45   |      149053      |     167547      11  | 37:13.73 |    3:50.32   |      167548      |     184829      12  | 41:04.30 |    3:53.50   |      184830      |     202354      13  | 44:58.05 |    3:39.58   |      202355      |     218837      14  | 48:37.63 |    4:01.10   |      218838      |     236922      15  | 52:38.73 |    3:43.59   |      236923      |     253706
Характеристики диапазона извлечения и сообщения об ошибках
Выбранный диапазон
Имя файла D:\E-Type - Greatest Hits, CD1.wav
Пиковый уровень 99.1 %
Качество диапазона 100,0%
CRC копии CEC80C7C
Копирование завершено
Ошибок не произошло
Конец отчёта

Отчет EAC (Greatest Remixes)

Exact Audio Copy V0.99 prebeta 4 from 23. January 2008
Отчёт EAC об извлечении, выполненном 16. мая 2008, 2:56
E-Type / Greatest Remixes, CD2
Дисковод: PLEXTOR DVDR   PX-712A   Adapter: 4  ID: 0
Режим чтения                 : Достоверность
Использование точного потока : Да
Отключение кэша аудио        : Да
Использование указателей C2  : Нет
Коррекция смещения при чтении                     : 30
Способность читать области Lead-in и Lead-out     : Нет
Заполнение пропущенных сэмплов тишиной            : Да
Удаление блоков с тишиной в начале и конце        : Нет
При вычислениях CRC использовались нулевые сэмплы : Да
Интерфейс                                         : Встроенный Win32-интерфейс для Win NT/2000
Выходной формат : Внутренние WAV-операцииФормат сэмплов  : 44.100 Гц; 16 бит; стерео
TOC извлечённого CD
Трек |   Старт  | Длительность | Начальный сектор | Конечный сектор    ---------------------------------------------------------------------       1  |  0:00.00 |    6:49.73   |           0      |      30747       2  |  6:49.73 |    3:39.61   |       30748      |      47233       3  | 10:29.59 |    3:38.25   |       47234      |      63608       4  | 14:08.09 |    5:46.11   |       63609      |      89569       5  | 19:54.20 |    3:35.54   |       89570      |     105748       6  | 23:29.74 |    5:59.67   |      105749      |     132740       7  | 29:29.66 |    5:42.00   |      132741      |     158390       8  | 35:11.66 |    7:04.61   |      158391      |     190251       9  | 42:16.52 |    3:53.03   |      190252      |     207729      10  | 46:09.55 |    7:47.09   |      207730      |     242763      11  | 53:56.64 |   12:47.53   |      242764      |     300341
Характеристики диапазона извлечения и сообщения об ошибках
Выбранный диапазон
Имя файла D:\E-Type - Greatest Remixes, CD2.wav
Пиковый уровень 99.4 %
Качество диапазона 100,0%
CRC копии 0D6CD0B2
Копирование завершено
Ошибок не произошло
Конец отчёта

2001 - Euro IV Ever

Треклист:
01. Norby IV Ever (Live At Dreamland) (1:29)
02. Life (Feat. Nana) (3:42)
03. Africa (Feat. Nana) (3:38)
04. Banca Banca (3:05)
05. Arabian Star (Feat. Nana) (Live At Dreamland) (3:53)
06. When I Close My Eyes (Feat. Nana) (4:07)
07. Loneliness / Ring The Alarm (3:25)
08. Star (4:16)
09. Time (Feat. Nana) (4:15)
10. No More Tears (Feat. Nana) (3:28)
11. Borshstjii (Feat. Marki-Markki The Dragon Killer) (4:03)
12. Campione 2000 (Bonus Track) (3:33)
13. Oh Weda (Song From Sveakampen) (1:57)

Отчет EAC

Exact Audio Copy V0.99 prebeta 5 from 4. May 2009
Отчёт EAC об извлечении, выполненном 4. августа 2009, 9:19
E-Type / Euro IV Ever
Дисковод: PLEXTOR DVDR   PX-755A   Adapter: 1  ID: 1
Режим чтения                 : Достоверность
Использование точного потока : Да
Отключение кэша аудио        : Да
Использование указателей C2  : Нет
Коррекция смещения при чтении                     : 30
Способность читать области Lead-in и Lead-out     : Нет
Заполнение пропущенных сэмплов тишиной            : Да
Удаление блоков с тишиной в начале и конце        : Нет
При вычислениях CRC использовались нулевые сэмплы : Да
Интерфейс                                         : Установленный внешний ASPI-интерфейс
Выходной формат : Внутренние WAV-операцииФормат сэмплов  : 44.100 Гц; 16 бит; стерео
TOC извлечённого CD
Трек |   Старт  | Длительность | Начальный сектор | Конечный сектор    ---------------------------------------------------------------------       1  |  0:00.00 |    1:28.73   |           0      |       6672       2  |  1:28.73 |    3:42.03   |        6673      |      23325       3  |  5:11.01 |    3:38.20   |       23326      |      39695       4  |  8:49.21 |    3:05.13   |       39696      |      53583       5  | 11:54.34 |    3:52.62   |       53584      |      71045       6  | 15:47.21 |    4:07.03   |       71046      |      89573       7  | 19:54.24 |    3:25.13   |       89574      |     104961       8  | 23:19.37 |    4:15.43   |      104962      |     124129       9  | 27:35.05 |    4:14.68   |      124130      |     143247      10  | 31:49.73 |    3:27.70   |      143248      |     158842      11  | 35:17.68 |    4:02.46   |      158843      |     177038      12  | 39:20.39 |    3:33.31   |      177039      |     193044      13  | 42:53.70 |    1:56.44   |      193045      |     201788
Характеристики диапазона извлечения и сообщения об ошибках
Выбранный диапазон
Имя файла H:\Etype-E4E_Lossless_for_TRu\E-Type - Euro IV Ever.wav
Пиковый уровень 97.7 %
Качество диапазона 100.0 %
CRC теста 03E09924
CRC копии 03E09924
Kопирование... OK
Ошибок не произошло
AccurateRip: сводка
Трек  1  точное извлечение (доверие 6)  [ABF7E203]
Трек  2  точное извлечение (доверие 6)  [3B18DBF5]
Трек  3  точное извлечение (доверие 6)  [C26550EA]
Трек  4  точное извлечение (доверие 6)  [D9FC2465]
Трек  5  точное извлечение (доверие 6)  [016A76BB]
Трек  6  точное извлечение (доверие 6)  [6A95722D]
Трек  7  точное извлечение (доверие 6)  [DE3E1EDC]
Трек  8  точное извлечение (доверие 6)  [B76D14B4]
Трек  9  точное извлечение (доверие 6)  [DF22C93B]
Трек 10  точное извлечение (доверие 6)  [822B863A]
Трек 11  точное извлечение (доверие 6)  [9E2E8E6F]
Трек 12  точное извлечение (доверие 6)  [679E26D0]
Трек 13  точное извлечение (доверие 6)  [F899E894]
Все треки извлечены точно
Конец отчёта

2004 - Loud Pipes Save Lives

Треклист:
01. Loud Pipes Save Lives (1:42)
02. Paradise (feat. NaNa) (3:27)
03. Camilla (3:36)
04. The Predator (3:18)
05. Dans La Fantasie (4:13)
06. The Original You (3:16)
07. Far Up in the Air (feat. NaNa) (3:34)
08. Forever More (feat. NaNa) (3:43)
09. Rain (4:08)
10. If Heaven Were to Fall (3:43)
11. Lost and Goodbye (3:51)

Отчет EAC

Exact Audio Copy V0.99 prebeta 5 from 4. May 2009
Отчёт EAC об извлечении, выполненном 31. июля 2009, 12:56
E-Type / Loud Pipes Save Lives
Дисковод: PLEXTOR DVDR   PX-755A   Adapter: 1  ID: 1
Режим чтения                 : Достоверность
Использование точного потока : Да
Отключение кэша аудио        : Да
Использование указателей C2  : Нет
Коррекция смещения при чтении                     : 30
Способность читать области Lead-in и Lead-out     : Нет
Заполнение пропущенных сэмплов тишиной            : Да
Удаление блоков с тишиной в начале и конце        : Нет
При вычислениях CRC использовались нулевые сэмплы : Да
Интерфейс                                         : Установленный внешний ASPI-интерфейс
Выходной формат : Внутренние WAV-операцииФормат сэмплов  : 44.100 Гц; 16 бит; стерео
TOC извлечённого CD
Трек |   Старт  | Длительность | Начальный сектор | Конечный сектор    ---------------------------------------------------------------------       1  |  0:00.00 |    1:42.10   |           0      |       7659       2  |  1:42.10 |    3:27.33   |        7660      |      23217       3  |  5:09.43 |    3:35.62   |       23218      |      39404       4  |  8:45.30 |    3:17.72   |       39405      |      54251       5  | 12:03.27 |    4:12.62   |       54252      |      73213       6  | 16:16.14 |    3:15.55   |       73214      |      87893       7  | 19:31.69 |    3:34.26   |       87894      |     103969       8  | 23:06.20 |    3:43.16   |      103970      |     120710       9  | 26:49.36 |    4:08.21   |      120711      |     139331      10  | 30:57.57 |    3:43.00   |      139332      |     156056      11  | 34:40.57 |    3:50.59   |      156057      |     173365
Характеристики диапазона извлечения и сообщения об ошибках
Выбранный диапазон
Имя файла H:\Etype-LPSL_Lossless_for_TRu\E-Type - Loud Pipes Save Lives.wav
Пиковый уровень 100.0 %
Качество диапазона 100.0 %
CRC теста 70766635
CRC копии 70766635
Копирование... OK
Ошибок не произошло
AccurateRip: сводка
Трек  1  точное извлечение (доверие 3)  [82AF9019]
Трек  2  точное извлечение (доверие 3)  [64C544F3]
Трек  3  точное извлечение (доверие 3)  [A11CD9A6]
Трек  4  точное извлечение (доверие 3)  [7F32C38B]
Трек  5  точное извлечение (доверие 3)  [52C34C62]
Трек  6  точное извлечение (доверие 3)  [54DAA294]
Трек  7  точное извлечение (доверие 3)  [A709F8BA]
Трек  8  точное извлечение (доверие 3)  [C3A8EA09]
Трек  9  точное извлечение (доверие 3)  [FEDF69AB]
Трек 10  точное извлечение (доверие 3)  [33330284]
Трек 11  точное извлечение (доверие 3)  [A39337DC]
Все треки извлечены точно
Конец отчёта

2007 - Eurotopia (Japan Release)

Треклист:
01. True Believer (3:41)
02. The Tide (3:58)
03. Eurofighter (3:48)
04. Make Us High (4:10)
05. Like A Child (4:17)
06. Last Day Alive (4:02)
07. To The Lions (3:43)
08. Ding Ding Song (3:35)
09. Inside (4:55)
10. True Believer (Extended Version) (7:28)

Отчет EAC

Exact Audio Copy V0.99 prebeta 5 from 4. May 2009
Отчёт EAC об извлечении, выполненном 4. августа 2009, 12:05
E-Type / Eurotopia (Japan Release)
Дисковод: PLEXTOR DVDR   PX-755A   Adapter: 1  ID: 1
Режим чтения                 : Достоверность
Использование точного потока : Да
Отключение кэша аудио        : Да
Использование указателей C2  : Нет
Коррекция смещения при чтении                     : 30
Способность читать области Lead-in и Lead-out     : Нет
Заполнение пропущенных сэмплов тишиной            : Да
Удаление блоков с тишиной в начале и конце        : Нет
При вычислениях CRC использовались нулевые сэмплы : Да
Интерфейс                                         : Установленный внешний ASPI-интерфейс
Выходной формат : Внутренние WAV-операцииФормат сэмплов  : 44.100 Гц; 16 бит; стерео
TOC извлечённого CD
Трек |   Старт  | Длительность | Начальный сектор | Конечный сектор    ---------------------------------------------------------------------       1  |  0:00.00 |    3:40.72   |           0      |      16571       2  |  3:40.72 |    3:57.66   |       16572      |      34412       3  |  7:38.63 |    3:47.43   |       34413      |      51480       4  | 11:26.31 |    4:09.60   |       51481      |      70215       5  | 15:36.16 |    4:17.08   |       70216      |      89498       6  | 19:53.24 |    4:01.72   |       89499      |     107645       7  | 23:55.21 |    3:42.47   |      107646      |     124342       8  | 27:37.68 |    3:34.54   |      124343      |     140446       9  | 31:12.47 |    4:55.33   |      140447      |     162604      10  | 36:08.05 |    7:27.58   |      162605      |     196187
Характеристики диапазона извлечения и сообщения об ошибках
Выбранный диапазон
Имя файла H:\Etype-Et_Jap_Lossless_for_TRu\E-Type - Eurotopia (Japan Release).wav
Пиковый уровень 100.0 %
Качество диапазона 100.0 %
CRC теста 4056BEE9
CRC копии 4056BEE9
Копирование... OK
Ошибок не произошло
AccurateRip: сводка
Трек  1  точное извлечение (доверие 1)  [DBF66325]
Трек  2  точное извлечение (доверие 1)  [70D99748]
Трек  3  точное извлечение (доверие 1)  [CA4A608D]
Трек  4  точное извлечение (доверие 1)  [6F94ABE8]
Трек  5  точное извлечение (доверие 1)  [CC715293]
Трек  6  точное извлечение (доверие 1)  [5077A6A9]
Трек  7  точное извлечение (доверие 1)  [ACEF4426]
Трек  8  точное извлечение (доверие 1)  [64D40D5C]
Трек  9  точное извлечение (доверие 1)  [A2C2C05B]
Трек 10  точное извлечение (доверие 1)  [D3142DDD]
Все треки извлечены точно
Конец отчёта
Singles

1994 - This Is The Way CDM

Треклист:
01. This Is The Way (Radio Edit) (3:58)
02. This Is The Way (Waterdreamix) (6:50)
03. This Is The Way (Extended) (6:48)
04. Me No Want Miseria (Take Me To The End) (4:49)

Отчет EAC

Exact Audio Copy V0.99 prebeta 4 from 23. January 2008
Отчёт EAC об извлечении, выполненном 18. декабря 2008, 14:23
E-Type / This Is The Way (CDM)
Дисковод: HL-DT-STDVDRAM GSA-H10N   Adapter: 0  ID: 0
Режим чтения                 : Достоверность
Использование точного потока : Да
Отключение кэша аудио        : Да
Использование указателей C2  : Нет
Коррекция смещения при чтении                     : 667
Способность читать области Lead-in и Lead-out     : Нет
Заполнение пропущенных сэмплов тишиной            : Да
Удаление блоков с тишиной в начале и конце        : Нет
При вычислениях CRC использовались нулевые сэмплы : Да
Интерфейс                                         : Установленный внешний ASPI-интерфейс
Выходной формат : Внутренние WAV-операцииФормат сэмплов  : 44.100 Гц; 16 бит; стерео
TOC извлечённого CD
Трек |   Старт  | Длительность | Начальный сектор | Конечный сектор    ---------------------------------------------------------------------       1  |  0:00.00 |    3:58.35   |           0      |      17884       2  |  3:58.35 |    6:50.00   |       17885      |      48634       3  | 10:48.35 |    6:47.38   |       48635      |      79197       4  | 17:35.73 |    4:49.15   |       79198      |     100887
Характеристики диапазона извлечения и сообщения об ошибках
Выбранный диапазон
Имя файла E:\=NEW YEAR\E-Type - This Is The Way (CDM) (1994) (lossless-DENnv)\E-Type - This Is The Way.wav
Пиковый уровень 100.0 %
Качество диапазона 100.0 %
CRC копии 944BFC14
Копирование... OK
Ошибок не произошло
Конец отчёта

1995 - Russian Lullaby CDM

Треклист:
01. Russian Lullaby (Radio Edit) (3:17)
02. Russian Lullaby (Dogshit Le Club) (6:02)
03. Russian Lullaby (Vodka Russian Mix) (4:59)
04. Russian Lullaby (JJ's USS Hard Mix) (8:48)

Отчет EAC

Exact Audio Copy V0.99 prebeta 4 from 23. January 2008
Отчёт EAC об извлечении, выполненном 8. мая 2009, 2:11
E-Type / Russian Lullaby (MAXI-CD)
Дисковод: HL-DT-STDVD-RAM GSA-H22N   Adapter: 0  ID: 0
Режим чтения                 : Достоверность
Использование точного потока : Да
Отключение кэша аудио        : Да
Использование указателей C2  : Нет
Коррекция смещения при чтении                     : 102
Способность читать области Lead-in и Lead-out     : Нет
Заполнение пропущенных сэмплов тишиной            : Да
Удаление блоков с тишиной в начале и конце        : Нет
При вычислениях CRC использовались нулевые сэмплы : Да
Интерфейс                                         : Установленный внешний ASPI-интерфейс
Выходной формат : Внутренние WAV-операцииФормат сэмплов  : 44.100 Гц; 16 бит; стерео
TOC извлечённого CD
Трек |   Старт  | Длительность | Начальный сектор | Конечный сектор    ---------------------------------------------------------------------       1  |  0:00.00 |    3:16.50   |           0      |      14749       2  |  3:16.50 |    6:01.62   |       14750      |      41886       3  |  9:18.37 |    4:58.70   |       41887      |      64306       4  | 14:17.32 |    8:48.03   |       64307      |     103909
Характеристики диапазона извлечения и сообщения об ошибках
Выбранный диапазон
Имя файла G:\Torrents (for Upload)\E-Type\E-Type 1995 - Russian Lullaby (MAXI-CD)\E-Type - Russian Lullaby (MAXI-CD).wav
Подозрительная позиция 0:21:45
Пиковый уровень 100.0 %
Качество диапазона 99.8 %
CRC копии CC7F8774
Копирование завершено
Были ошибки
AccurateRip: сводка
Трек  1  точность не определена (достоверность 1)  [05A20F17], AccurateRip вернул [E6D4C6FD]
Трек  2  точность не определена (достоверность 1)  [26DABCD8], AccurateRip вернул [A86F281C]
Трек  3  точность не определена (достоверность 1)  [19ABCD0C], AccurateRip вернул [F9171A8E]
Трек  4  точность не определена (достоверность 1)  [C273569B], AccurateRip вернул [9C3AE6FF]
Ни один трек не прошёл проверки на точность
Конец отчёта

1997 - I Just Wanna Be With You CDM

Треклист:
01. I Just Wanna Be With You (Single Version) (3:53)
02. I Just Wanna Be With You (Andre's Boogie Buster Long Mix) (5:28)
03. I Just Wanna Be With You (Andre's Summer Mix) (5:39)
04. I Just Wanna Be With You (Rico & Bear Xplorer Club Mix) (6:25)

Отчет EAC

Exact Audio Copy V0.99 prebeta 4 from 23. January 2008
Отчёт EAC об извлечении, выполненном 5. апреля 2009, 23:33
E-Type / I Just Wanna Be With You
Дисковод: PIONEER DVD-RW  DVR-112   Adapter: 0  ID: 1
Режим чтения                 : Достоверность
Использование точного потока : Да
Отключение кэша аудио        : Да
Использование указателей C2  : Нет
Коррекция смещения при чтении                     : 48
Способность читать области Lead-in и Lead-out     : Нет
Заполнение пропущенных сэмплов тишиной            : Да
Удаление блоков с тишиной в начале и конце        : Нет
При вычислениях CRC использовались нулевые сэмплы : Да
Интерфейс                                         : Установленный внешний ASPI-интерфейс
Выходной формат : Внутренние WAV-операцииФормат сэмплов  : 44.100 Гц; 16 бит; стерео
TOC извлечённого CD
Трек |   Старт  | Длительность | Начальный сектор | Конечный сектор    ---------------------------------------------------------------------       1  |  0:00.00 |    3:52.62   |           0      |      17461       2  |  3:52.62 |    5:27.63   |       17462      |      42049       3  |  9:20.50 |    5:39.15   |       42050      |      67489       4  | 14:59.65 |    6:25.32   |       67490      |      96396
Характеристики диапазона извлечения и сообщения об ошибках
Выбранный диапазон
Имя файла M:\Torrents (for Upload)\E-Type\E-Type 1997 - I Just Wanna Be With You [MAXI-CD]\E-Type - I Just Wanna Be With You.wav
Пиковый уровень 100.0 %
Качество диапазона 100.0 %
CRC копии 48F5809B
Копирование... OK
Ошибок не произошло
AccurateRip: сводка
Трек  1  нет в базе данных
Трек  2  нет в базе данных
Трек  3  нет в базе данных
Трек  4  нет в базе данных
Ни одного трека нет в базе AccurateRip
Конец отчёта

1998 - Here I Go Again CDM

Треклист:
01. Here I Go Again (Radio Version) (3:55)
02. Here I Go Again (Richi's Extended Version) (7:05)
03. Here I Go Again (Disco 2000 Remix) (4:54)
04. Here I Go Again (Extended Version) (7:38)

Отчет EAC

Exact Audio Copy V0.99 prebeta 4 from 23. January 2008
Отчёт EAC об извлечении, выполненном 8. мая 2009, 1:53
E-Type / Here I Go Again (MAXI-CD)
Дисковод: HL-DT-STDVD-RAM GSA-H22N   Adapter: 0  ID: 0
Режим чтения                 : Достоверность
Использование точного потока : Да
Отключение кэша аудио        : Да
Использование указателей C2  : Нет
Коррекция смещения при чтении                     : 102
Способность читать области Lead-in и Lead-out     : Нет
Заполнение пропущенных сэмплов тишиной            : Да
Удаление блоков с тишиной в начале и конце        : Нет
При вычислениях CRC использовались нулевые сэмплы : Да
Интерфейс                                         : Установленный внешний ASPI-интерфейс
Выходной формат : Внутренние WAV-операцииФормат сэмплов  : 44.100 Гц; 16 бит; стерео
TOC извлечённого CD
Трек |   Старт  | Длительность | Начальный сектор | Конечный сектор    ---------------------------------------------------------------------       1  |  0:00.00 |    3:55.12   |           0      |      17636       2  |  3:55.12 |    7:05.35   |       17637      |      49546       3  | 11:00.47 |    4:54.20   |       49547      |      71616       4  | 15:54.67 |    7:37.40   |       71617      |     105931
Характеристики диапазона извлечения и сообщения об ошибках
Выбранный диапазон
Имя файла G:\Torrents (for Upload)\E-Type\E-Type 1998 - Here I Go Again (MAXI-CD)\E-Type - Here I Go Again (MAXI-CD).wav
Пиковый уровень 97.6 %
Качество диапазона 100.0 %
CRC копии D439CB36
Копирование... OK
Ошибок не произошло
AccurateRip: сводка
Трек  1  точное извлечение (доверие 1)  [0F97AB01]
Трек  2  точное извлечение (доверие 1)  [6B3A2E89]
Трек  3  точное извлечение (доверие 1)  [BDC5E1E2]
Трек  4  точное извлечение (доверие 1)  [140C362B]
Все треки извлечены точно
Конец отчёта

1998 - Angels Crying CDM

Треклист:
01. Angels Crying (Radio Version) (3:51)
02. Angels Crying (C&C Extended) (6:24)
03. Angels Crying (C&C Radio Edit) (3:35)
04. Angels Crying (Extended Version) (6:35)

Отчет EAC

Exact Audio Copy V0.99 prebeta 5 from 4. May 2009
Отчёт EAC об извлечении, выполненном 31. июля 2009, 13:49
E-Type / Angels Crying CDM
Дисковод: PLEXTOR DVDR   PX-755A   Adapter: 1  ID: 1
Режим чтения                 : Достоверность
Использование точного потока : Да
Отключение кэша аудио        : Да
Использование указателей C2  : Нет
Коррекция смещения при чтении                     : 30
Способность читать области Lead-in и Lead-out     : Нет
Заполнение пропущенных сэмплов тишиной            : Да
Удаление блоков с тишиной в начале и конце        : Нет
При вычислениях CRC использовались нулевые сэмплы : Да
Интерфейс                                         : Установленный внешний ASPI-интерфейс
Выходной формат : Внутренние WAV-операцииФормат сэмплов  : 44.100 Гц; 16 бит; стерео
TOC извлечённого CD
Трек |   Старт  | Длительность | Начальный сектор | Конечный сектор    ---------------------------------------------------------------------       1  |  0:00.00 |    3:51.15   |           0      |      17339       2  |  3:51.15 |    6:23.52   |       17340      |      46116       3  | 10:14.67 |    3:34.48   |       46117      |      62214       4  | 13:49.40 |    6:34.65   |       62215      |      91829
Характеристики диапазона извлечения и сообщения об ошибках
Выбранный диапазон
Имя файла H:\Etype-AC_CDM_Lossless_for_TRu\E-Type - Angels Crying CDM.wav
Пиковый уровень 100.0 %
Качество диапазона 100.0 %
CRC теста 647E675A
CRC копии 647E675A
Копирование... OK
Ошибок не произошло
AccurateRip: сводка
Трек  1  точное извлечение (доверие 2)  [DE8FD7C1]
Трек  2  точное извлечение (доверие 2)  [A7B94BBE]
Трек  3  точное извлечение (доверие 2)  [0F50450A]
Трек  4  точное извлечение (доверие 2)  [1F9343CA]
Все треки извлечены точно
Конец отчёта

1998 - Princess Of Egypt CDM

Треклист:
01. Princess Of Egypt (Radio Edit) (3:41)
02. Princess Of Egypt (Pierre J's Q-type Remix) (7:01)
03. Princess Of Egypt (Pinocchio Remix) (5:43)
04. Princess Of Egypt (Extended Version) (5:13)
05. Here I Go Again (MPEG Video)

Скриншоты:

Audio: MPEG Audio 44100Hz stereo 224Kbps [Audio]
Video: MPEG1 Video 352x288 (4:3) 25.00fps 1850Kbps [Video]


Отчет EAC

Exact Audio Copy V0.99 prebeta 4 from 23. January 2008
Отчёт EAC об извлечении, выполненном 8. мая 2009, 2:25
E-Type / Princess Of Egypt (MAXI-CD)
Дисковод: HL-DT-STDVD-RAM GSA-H22N   Adapter: 0  ID: 0
Режим чтения                 : Достоверность
Использование точного потока : Да
Отключение кэша аудио        : Да
Использование указателей C2  : Нет
Коррекция смещения при чтении                     : 102
Способность читать области Lead-in и Lead-out     : Нет
Заполнение пропущенных сэмплов тишиной            : Да
Удаление блоков с тишиной в начале и конце        : Нет
При вычислениях CRC использовались нулевые сэмплы : Да
Интерфейс                                         : Установленный внешний ASPI-интерфейс
Выходной формат : Внутренние WAV-операцииФормат сэмплов  : 44.100 Гц; 16 бит; стерео
TOC извлечённого CD
Трек |   Старт  | Длительность | Начальный сектор | Конечный сектор    ---------------------------------------------------------------------       1  |  0:00.00 |    3:40.66   |           0      |      16565       2  |  3:40.66 |    7:00.53   |       16566      |      48118       3  | 10:41.44 |    5:43.01   |       48119      |      73844       4  | 16:24.45 |    5:13.23   |       73845      |      97342       5  | 24:09.68 |    9:46.55   |      108743      |     152747
Характеристики диапазона извлечения и сообщения об ошибках
Выбранный диапазон
Имя файла G:\Torrents (for Upload)\E-Type\E-Type 1998 - Princess Of Egypt (MAXI-CD)\E-Type - Princess Of Egypt (MAXI-CD).wav
Пиковый уровень 97.8 %
Качество диапазона 100.0 %
CRC копии 4F85FD02
Копирование... OK
Ошибок не произошло
AccurateRip: сводка
Трек  1  нет в базе данных
Трек  2  нет в базе данных
Трек  3  нет в базе данных
Трек  4  нет в базе данных
Ни одного трека нет в базе AccurateRip
Конец отчёта
--
[Профиль] [ЛС]

Создавать темы 13-Авг-2015 10:57 (спустя 11 месяцев 17 дней)

Топик был перенесен из форума Зарубежная в форум Technopop, Eurodance, Disco
sergej644
 
Показать сообщения:    

Текущее время: Сегодня 11:01

Часовой пояс: GMT



Вы не можете начинать темы
Вы не можете отвечать на сообщения
Вы не можете редактировать свои сообщения
Вы не можете удалять свои сообщения
Вы не можете голосовать в опросах
Вы не можете прикреплять файлы к сообщениям
Вы не можете скачивать файлы