Ёлки 3 (Ольга Харина, Дмитрий Киселёв, Александр Котт) [2013, Россия, Комедия, BDRip 1080p] + Original Rus

 
Автор Сообщение

painkiller ®

Стаж: 2 года 3 месяца

Сообщений: 582



Награды: Нет

Торрент-статистика

Создавать темы 15-Авг-2014 01:09

[Цитировать]

Ёлки 3
Страна: Россия
Студия: Базелевс Продакшн
Жанр: Комедия
Год выпуска: 2013
Продолжительность: 01:36:50
Перевод: Не требуется
Cубтитры: нет
Оригинальная аудиодорожка: русский
Режиссер: Ольга Харина, Дмитрий Киселёв, Александр Котт
В ролях: Иван Ургант, Сергей Светлаков, Гоша Куценко, Валентин Гафт, Татьяна Догилева, Пётр Фёдоров, Анна Чиповская, Мария Шукшина, Константин Хабенский, Антон Богданов
Описание: Спустя два года они снова с нами: любимые герои "Ёлок" в самых невероятных новогодних историях. Боря и Женя, чьи годовалые дети в канун праздника доведут друзей до психушки. Маленькая девочка Настя, чьи родители разлучат ее влюбленных друг в друга собак. Лыжник и сноубордист в самой экстремальной в их жизни гонке - от военкома. И профессор из Екатеринбурга Андрей, чья любвеобильность вновь не доведет его до добра, а только до проруби в минус 30.
Под бой курантов этих и новых героев "Ёлок" объединит бумеранг добра. Завершая свой круг, он заслуженно вернётся к каждому, кто его однажды запустил - кому улыбками и объятиями любимых и друзей, кому - праздничным настроением и соответствующим градусу состоянием, а кому-то... телефоном в холодце!

Сэмпл: http://sendfile.su/937917
Тип релиза: BDRip 1080p
Контейнер: MKV
Видео: AVC 1920 x 808 (2.376) at 24.000 fps, 10000 kbps
Аудио : 48 kHz, DTS , 5.1 1509 kbps

MediaInfo

Общее
Уникальный идентификатор : 243553271419067546106892255211812450591 (0xB73AA762943619C4BD31397000BA711F)
Полное имя : D:\Ёлки 3\Elki_3.2013.1080p.mkv
Формат : Matroska
Версия формата : Version 2
Размер файла : 7,78 Гбайт
Продолжительность : 1 ч. 36 м.
Общий поток : 11,5 Мбит/сек
Название фильма : CMEGRoup
Дата кодирования : UTC 2014-02-10 16:33:22
Программа кодирования : mkvmerge v5.6.0 ('Kenya Kane') built on May 27 2012 16:44:04
Библиотека кодирования : libebml v1.2.3 + libmatroska v1.3.0
Видео
Идентификатор : 1
Формат : AVC
Формат/Информация : Advanced Video Codec
Профиль формата : High@L4.1
Параметр CABAC формата : Да
Параметр ReFrames формата : 5 кадров
Идентификатор кодека : V_MPEG4/ISO/AVC
Продолжительность : 1 ч. 36 м.
Битрейт : 10000 Кбит/сек
Ширина : 1920 пикселей
Высота : 808 пикселей
Соотношение сторон : 2,40:1
Режим частоты кадров : Постоянный
Частота кадров : 24,000 кадра/сек
Цветовое пространство : YUV
Субдискретизация насыщенности : 4:2:0
Битовая глубина : 8 бит
Тип развёртки : Прогрессивная
Бит/(Пиксели*Кадры) : 0.269
Размер потока : 6,61 Гбайт (85%)
Заголовок : CMEGRoup
Библиотека кодирования : x264 core 138 r2358 9e941d1
Настройки программы : cabac=1 / ref=5 / deblock=1:-3:-3 / analyse=0x3:0x113 / me=umh / subme=11 / psy=1 / psy_rd=1.00:0.00 / mixed_ref=1 / me_range=32 / chroma_me=1 / trellis=2 / 8x8dct=1 / cqm=0 / deadzone=21,11 / fast_pskip=1 / chroma_qp_offset=-2 / threads=12 / lookahead_threads=1 / sliced_threads=0 / nr=0 / decimate=1 / interlaced=0 / bluray_compat=0 / constrained_intra=0 / bframes=5 / b_pyramid=2 / b_adapt=1 / b_bias=0 / direct=2 / weightb=1 / open_gop=0 / weightp=2 / keyint=240 / keyint_min=24 / scenecut=40 / intra_refresh=0 / rc_lookahead=40 / rc=2pass / mbtree=1 / bitrate=10000 / ratetol=1.0 / qcomp=0.60 / qpmin=10 / qpmax=51 / qpstep=4 / cplxblur=20.0 / qblur=0.5 / vbv_maxrate=62500 / vbv_bufsize=78125 / nal_hrd=none / ip_ratio=1.40 / aq=1:1.00 / zones=135678,139443,q=40
Язык : English
Default : Да
Forced : Нет
Аудио
Идентификатор : 2
Формат : DTS
Формат/Информация : Digital Theater Systems
Режим : 16
Параметр Endianness формата : Big
Идентификатор кодека : A_DTS
Продолжительность : 1 ч. 36 м.
Вид битрейта : Постоянный
Битрейт : 1509 Кбит/сек
Каналы : 6 каналов
Расположение каналов : Front: L C R, Side: L R, LFE
Частота : 48,0 КГц
Битовая глубина : 24 бит
Метод сжатия : С потерями
Размер потока : 1,02 Гбайт (13%)
Язык : Russian
Default : Да
Forced : Нет
Меню
00:00:00.000 : ru:Chapter 1
00:01:32.708 : ru:Chapter 2
00:10:33.833 : ru:Chapter 3
00:20:56.000 : ru:Chapter 4
00:35:42.375 : ru:Chapter 5
00:46:41.583 : ru:Chapter 6
00:59:21.125 : ru:Chapter 7
01:13:40.500 : ru:Chapter 8
01:25:07.000 : ru:Chapter 9

Скриншоты

[Профиль] [ЛС]
Показать сообщения:    

Текущее время: Сегодня 10:10

Часовой пояс: GMT



Вы не можете начинать темы
Вы не можете отвечать на сообщения
Вы не можете редактировать свои сообщения
Вы не можете удалять свои сообщения
Вы не можете голосовать в опросах
Вы не можете прикреплять файлы к сообщениям
Вы не можете скачивать файлы