Ёлки 2 (Дмитрий Киселев)[2011, Комедия, Приключения, Семейный, BDRip]

 
Автор Сообщение

sergej644 ®

Пол:

Стаж: 4 года 11 месяцев

Сообщений: 6046

Откуда: Soviet Union



Награды: Нет

Торрент-статистика

Создавать темы 21-Июл-2014 09:43

[Цитировать]

-Ёлки 2- Год выпуска: 2011
Жанр: Комедия, Приключения, Семейный
Продолжительность: 01:40:19
Режиссер: Дмитрий Киселев, Александр Баранов, Александр Котт
Перевод: Не требуется
В ролях:
Сергей Светлаков, Иван Ургант, Вера Брежнева, Сергей Безруков, Владимир Меньшов, Гоша Куценко, Александр Головин, Виктор Вержбицкий, Алексей Петренко, Пётр Фёдоров, Никита Пресняков, Анна Чиповская, Павел Баршак, Ирина Алферова, Елена Плаксина, Константин Хабенский, Галина Коньшина, Анна Хилькевич, Алёна Константинова, Дмитрий Гогу, Анастасия Сметанина, Алексей Дмитриев, Инга Оболдина, Александр Домогаров мл., Лера Стреляева
Описание фильма:
За этот год много чего произошло, но наступит день, который всё расставит на свои места. Продолжение новогодних историй, которые происходили в жизни героев в фильме «Ёлки».

Качество видео: BDRip (Исходник: Blu-Ray Remux (1080p)
Видеокодек: XviD
Битрейт видео: 1640 Кбит/с
Размер кадра: 720x400 (16:9)
Частота кадров: 25 кадр/с
Аудиокодек: AC3 5.1
Битрейт аудио: 448 Кбит/с
Автор рипа - ivandubskoj

MediaInfo

General
Complete name                    : Jolki.2.2011.BDRip.avi
Format                           : AVI
Format/Info                      : Audio Video Interleave
File size                        : 1.47 GiB
Duration                         : 1h 40mn
Overall bit rate                 : 2 095 Kbps
Movie name                       : Ёлки 2 (2011) BDRip
Recorded date                    : 07.02.2011
Writing application              : VirtualDubMod 1.5.10.3 (build 2550/release)
Writing library                  : VirtualDubMod build 2550/release
Copyright                        : rip by ivandubskoj
Video
ID                               : 0
Format                           : MPEG-4 Visual
Format profile                   : Advanced Simple@L5
Format settings, BVOP            : 2
Format settings, QPel            : No
Format settings, GMC             : No warppoints
Format settings, Matrix          : Custom
Codec ID                         : XVID
Codec ID/Hint                    : XviD
Duration                         : 1h 40mn
Bit rate                         : 1 640 Kbps
Width                            : 720 pixels
Height                           : 400 pixels
Display aspect ratio             : 16:9
Frame rate                       : 23.976 fps
Color space                      : YUV
Chroma subsampling               : 4:2:0
Bit depth                        : 8 bits
Scan type                        : Progressive
Compression mode                 : Lossy
Bits/(Pixel*Frame)               : 0.237
Stream size                      : 1.15 GiB (78%)
Writing library                  : XviD 73
Audio
ID                               : 1
Format                           : AC-3
Format/Info                      : Audio Coding 3
Mode extension                   : CM (complete main)
Codec ID                         : 2000
Duration                         : 1h 40mn
Bit rate mode                    : Constant
Bit rate                         : 448 Kbps
Channel(s)                       : 6 channels
Channel positions                : Front: L C R, Side: L R, LFE
Sampling rate                    : 48.0 KHz
Bit depth                        : 16 bits
Compression mode                 : Lossy
Stream size                      : 321 MiB (21%)
Alignment                        : Split accross interleaves
Interleave, duration             : 64 ms (1.53 video frames)
Interleave, preload duration     : 500 ms
Title                            : Russian
-Скриншоты:
--
[Профиль] [ЛС]

Создавать темы 06-Авг-2015 22:17 (спустя 1 год)

Топик был перенесен из форума Фильмы до 2014 года в форум Фильмы до 2012 года
sergej644
 
Показать сообщения:    

Текущее время: Сегодня 10:16

Часовой пояс: GMT



Вы не можете начинать темы
Вы не можете отвечать на сообщения
Вы не можете редактировать свои сообщения
Вы не можете удалять свои сообщения
Вы не можете голосовать в опросах
Вы не можете прикреплять файлы к сообщениям
Вы не можете скачивать файлы