Ёлки лохматые (Максим Свешников) [2014, Россия, семейный, комедия, BDRip 720p]

 
Автор Сообщение

TorrentFilm ®

Пол:

Стаж: 2 года

Сообщений: 7741



Награды: Нет

Торрент-статистика

Создавать темы 13-Апр-2015 00:04

[Цитировать]

Ёлки лохматые
Страна: Россия
Жанр: семейный, комедия
Год выпуска: 2014
Продолжительность: 01:22:17
Перевод: Не требуется
Cубтитры: нет
Оригинальная аудиодорожка: русский--Режиссер: Максим Свешников--В ролях: Андрей Мерзликин, Ян Цапник, Лера Стреляева, Галина Коньшина, Фемме Фатале, Айса Энимал Арт, Пётр Фёдоров, Анна Чиповская, Виктор Васильев, Андрей Федорцов...--Описание: Хозяйка Пирата и Йоко — самарская девочка Настя — улетает с бабушкой в Питер, оставляя питомцев в отеле для собак. Расценив это как предательство, животные сбегают домой, где можно наконец почувствовать себя человеком — есть сколько угодно, играть без устали и спать на хозяйской кровати. Но райский отдых влюбленных прерывают два незадачливых воришки, которых ждет нечеловеческий прием…--Доп. информация: Kinopoisk | Sample | --Тип релиза: BDRip 720P
Контейнер: MKV
Видео: MPEG4/ISO/AVC, 1280х536, 24.000 fps, 4000 Kbps, 0.243 bit/pixel.
Аудио: DTS, 5.1, 48 kHz, 1509 kbps, 16-bit

Скриншоты


MediInfo/x264x264

raw [info]: 1280x536p 1:1 @ 10000000/416667 fps (cfr)
x264 [info]: using SAR=1/1
x264 [info]: using cpu capabilities: MMX2 SSE2Fast SSSE3 SSE4.2 AVX
x264 [info]: profile High, level 4.1
x264 [info]: cabac=1 ref=8 deblock=1:-2:-1 analyse=0x3:0x133 me=umh subme=10 psy=1 fade_compensate=0.00 psy_rd=1.05:0.03 mixed_ref=1 me_range=32 chroma_me=1 trellis=2 8x8dct=1 cqm=0 deadzone=21,11 fast_pskip=0 chroma_qp_offset=-3 threads=6 lookahead_threads=1 sliced_threads=0 nr=0 decimate=1 interlaced=0 bluray_compat=0 constrained_intra=0 fgo=0 bframes=11 b_pyramid=2 b_adapt=2 b_bias=0 direct=1 weightb=1 open_gop=0 weightp=2 keyint=250 keyint_min=23 scenecut=40 intra_refresh=0 rc_lookahead=60 rc=crf mbtree=0 crf=16.8000 qcomp=0.60 qpmin=0 qpmax=69 qpstep=4 vbv_maxrate=50000 vbv_bufsize=62500 crf_max=0.0 nal_hrd=none filler=0 ip_ratio=1.40 pb_ratio=1.30 aq=2:0.90
x264 [info]: frame I:1180 Avg QP:14.93 size:117924
x264 [info]: frame P:30091 Avg QP:16.39 size: 40802
x264 [info]: frame B:92314 Avg QP:18.70 size: 13677
x264 [info]: consecutive B-frames: 3.0% 3.6% 12.6% 30.3% 17.0% 27.0% 2.4% 1.8% 1.5% 0.2% 0.3% 0.2%
x264 [info]: mb I I16..4: 7.9% 70.1% 22.0%
x264 [info]: mb P I16..4: 3.7% 21.1% 3.9% P16..4: 31.4% 19.3% 12.8% 0.7% 0.3% skip: 6.8%
x264 [info]: mb B I16..4: 0.7% 2.4% 0.4% B16..8: 33.4% 11.8% 3.7% direct: 9.9% skip:37.6% L0:39.6% L1:42.9% BI:17.5%
x264 [info]: 8x8 transform intra:71.6% inter:60.9%
x264 [info]: coded y,uvDC,uvAC intra: 72.1% 84.8% 70.3% inter: 24.7% 37.0% 16.2%
x264 [info]: i16 v,h,dc,p: 42% 16% 8% 34%
x264 [info]: i8 v,h,dc,ddl,ddr,vr,hd,vl,hu: 19% 13% 12% 7% 9% 10% 10% 10% 11%
x264 [info]: i4 v,h,dc,ddl,ddr,vr,hd,vl,hu: 19% 11% 7% 8% 13% 12% 11% 9% 10%
x264 [info]: i8c dc,h,v,p: 44% 21% 20% 14%
x264 [info]: Weighted P-Frames: Y:3.6% UV:2.5%
x264 [info]: ref P L0: 50.1% 11.0% 17.9% 6.2% 5.2% 3.7% 3.3% 2.2% 0.4% 0.0%
x264 [info]: ref B L0: 78.8% 11.1% 4.6% 2.4% 1.7% 1.0% 0.5%
x264 [info]: ref B L1: 94.0% 6.0%
x264 [info]: kb/s:4085.14
x264 [total]: encoded 123585 frames, 1.98 fps, 4085.14 kb/s.
General
Unique ID : 246275110242297776843264050407188704338 (0xB946DC6662E44B80A09D52DDE793AC52)
Complete name : Ёлки лохматые.mkv
Format : Matroska
Format version : Version 4 / Version 2
File size : 3.36 GiB
Duration : 1h 25mn
Overall bit rate : 5 592 Kbps
Movie name : Ёлки лохматые (2014)
Encoded date : UTC 2015-04-10 16:31:40
Writing application : mkvmerge v7.8.0 ('River Man') 64bit built on Mar 27 2015 16:31:37
Writing library : libebml v1.3.1 + libmatroska v1.4.2
DURATION : 01:25:54.422000000
NUMBER_OF_FRAMES : 483227
NUMBER_OF_BYTES : 972252792
_STATISTICS_WRITING_APP : mkvmerge v7.8.0 ('River Man') 64bit built on Mar 27 2015 16:31:37
_STATISTICS_WRITING_DATE_UT : 2015-04-10 16:31:40
_STATISTICS_TAGS : BPS DURATION NUMBER_OF_FRAMES NUMBER_OF_BYTES
Video
ID : 1
Format : AVC
Format/Info : Advanced Video Codec
Format profile : High@L4.1
Format settings, CABAC : Yes
Format settings, ReFrames : 8 frames
Codec ID : V_MPEG4/ISO/AVC
Duration : 1h 25mn
Bit rate : 3 972 Kbps
Width : 1 280 pixels
Height : 536 pixels
Display aspect ratio : 2.40:1
Frame rate mode : Constant
Frame rate : 24.000 fps
Color space : YUV
Chroma subsampling : 4:2:0
Bit depth : 8 bits
Scan type : Progressive
Bits/(Pixel*Frame) : 0.241
Stream size : 2.38 GiB (71%)
Title : By optik.1557
Writing library : x264 core 144 r2525kMod 40bb568
Encoding settings : cabac=1 / ref=8 / deblock=1:-2:-1 / analyse=0x3:0x133 / me=umh / subme=10 / psy=1 / fade_compensate=0.00 / psy_rd=1.05:0.03 / mixed_ref=1 / me_range=32 / chroma_me=1 / trellis=2 / 8x8dct=1 / cqm=0 / deadzone=21,11 / fast_pskip=0 / chroma_qp_offset=-3 / threads=6 / lookahead_threads=1 / sliced_threads=0 / nr=0 / decimate=1 / interlaced=0 / bluray_compat=0 / constrained_intra=0 / fgo=0 / bframes=11 / b_pyramid=2 / b_adapt=2 / b_bias=0 / direct=1 / weightb=1 / open_gop=0 / weightp=2 / keyint=250 / keyint_min=23 / scenecut=40 / intra_refresh=0 / rc_lookahead=60 / rc=crf / mbtree=0 / crf=16.8000 / qcomp=0.60 / qpmin=0 / qpmax=69 / qpstep=4 / vbv_maxrate=50000 / vbv_bufsize=62500 / crf_max=0.0 / nal_hrd=none / filler=0 / ip_ratio=1.40 / pb_ratio=1.30 / aq=2:0.90
Language : Russian
Default : Yes
Forced : No
DURATION : 01:25:49.379000000
NUMBER_OF_FRAMES : 123585
NUMBER_OF_BYTES : 2629490147
_STATISTICS_WRITING_APP : mkvmerge v7.8.0 ('River Man') 64bit built on Mar 27 2015 16:31:37
_STATISTICS_WRITING_DATE_UT : 2015-04-10 16:31:40
_STATISTICS_TAGS : BPS DURATION NUMBER_OF_FRAMES NUMBER_OF_BYTES
Audio
ID : 2
Format : DTS
Format/Info : Digital Theater Systems
Mode : 16
Format settings, Endianness : Big
Codec ID : A_DTS
Duration : 1h 25mn
Bit rate mode : Constant
Bit rate : 1 509 Kbps
Channel(s) : 6 channels
Channel positions : Front: L C R, Side: L R, LFE
Sampling rate : 48.0 KHz
Bit depth : 16 bits
Compression mode : Lossy
Stream size : 927 MiB (27%)
Language : Russian
Default : Yes
Forced : No
[Профиль] [ЛС]
Кто просматривает тему:

Показать сообщения:    

Текущее время: Сегодня 04:17

Часовой пояс: GMT



Вы не можете начинать темы
Вы не можете отвечать на сообщения
Вы не можете редактировать свои сообщения
Вы не можете удалять свои сообщения
Вы не можете голосовать в опросах
Вы не можете прикреплять файлы к сообщениям
Вы не можете скачивать файлы