Ёлки лохматые (Максим Свешников)[2014, Комедия, семейный, BDRip] 1080p | Лицензия

 
Автор Сообщение

sergej644 ®

Пол:

Стаж: 4 года 11 месяцев

Сообщений: 6041

Откуда: Soviet Union



Награды: Нет

Торрент-статистика

Создавать темы 20-Мар-2015 22:18

[Цитировать]

Информация о фильме
Название: Ёлки лохматые
Год выхода: 2014
Выпущено: Базелевс Продакшн
Страна: Россия
Жанр: Комедия, семейный
Продолжительность: 01:25:49
Перевод: Оригинал (лицензия)
Режиссер: Максим Свешников
В ролях: Андрей Мерзликин, Ян Цапник, Лера Стреляева, Галина Коньшина, Игорь Власов, Сергей Троев, Айса Энимал Арт, Пётр Фёдоров, Анна Чиповская, Андрей Федорцов- -Сюжет фильма
Хозяйка Пирата и Йоко - самарская девочка Настя - улетает с бабушкой в Питер, оставляя питомцев в отеле для собак. Расценив это как предательство, животные сбегают домой, где можно наконец почувствовать себя человеком - есть сколько угодно, играть без устали и спать на хозяйской кровати. Но райский отдых влюбленных прерывают два незадачливых воришки, которых ждет нечеловеческий прием...-Файл
Кодек: x264
Формат: MKV
Качество: BDRip 1080p (Источник: Blu-ray RUS / 14438 kbps / 24 fps / Main Profile 4.1)
Видео: MPEG-4 AVC 1920x806 pix, 24.000 fps, 6655 kbps
Аудио: Dolby Digital 5.1 ch, 48 kHz, 640 kbps
Меню: Сохранены оригинальные чаптеры Blu-ray

MI & x264

x264 [info]: frame I:1227 Avg QP:15.24 size:200520
x264 [info]: frame P:33035 Avg QP:17.47 size: 61635
x264 [info]: frame B:89324 Avg QP:19.56 size: 22401
x264 [info]: consecutive B-frames: 4.8% 5.3% 14.5% 29.2% 16.5% 27.0% 2.2% 0.6%-General
Unique ID : 228149079313979481007804488405924406771 (0xABA3EA13BA3AD794AFFE2B34566765F3)
Format : Matroska
Format version : Version 2
File size : 4.37 GiB
Duration : 1h 25mn
Overall bit rate : 7 296 Kbps
Movie name : Ёлки лохматые (2014) BDRip (1080p)
Encoded date : UTC 2015-03-20 03:29:45
Writing application : mkvmerge v5.8.0 ('No Sleep / Pillow') built on Sep 2 2012 15:37:04
Writing library : libebml v1.2.3 + libmatroska v1.3.0
Video
ID : 1
Format : AVC
Format/Info : Advanced Video Codec
Format profile : High@L4.1
Format settings, CABAC : Yes
Format settings, ReFrames : 5 frames
Codec ID : V_MPEG4/ISO/AVC
Duration : 1h 25mn
Bit rate : 6 655 Kbps
Width : 1 920 pixels
Height : 806 pixels
Display aspect ratio : 2.40:1
Frame rate mode : Constant
Frame rate : 24.000 fps
Color space : YUV
Chroma subsampling : 4:2:0
Bit depth : 8 bits
Scan type : Progressive
Bits/(Pixel*Frame) : 0.179
Stream size : 3.90 GiB (89%)
Title : Release by Alex260680
Writing library : x264 core 146 r2538 121396c
Encoding settings : cabac=1 / ref=5 / deblock=1:-3:-3 / analyse=0x3:0x133 / me=umh / subme=11 / psy=1 / psy_rd=1.05:0.00 / mixed_ref=1 / me_range=32 / chroma_me=1 / trellis=2 / 8x8dct=1 / cqm=0 / deadzone=21,11 / fast_pskip=0 / chroma_qp_offset=-2 / threads=6 / lookahead_threads=1 / sliced_threads=0 / nr=0 / decimate=0 / interlaced=0 / bluray_compat=0 / constrained_intra=0 / bframes=7 / b_pyramid=2 / b_adapt=2 / b_bias=0 / direct=3 / weightb=1 / open_gop=0 / weightp=2 / keyint=240 / keyint_min=24 / scenecut=40 / intra_refresh=0 / rc=full2pass / mbtree=0 / bitrate=6655 / ratetol=1.0 / qcomp=0.60 / qpmin=0 / qpmax=69 / qpstep=4 / cplxblur=20.0 / qblur=0.5 / ip_ratio=1.40 / pb_ratio=1.30 / aq=1:0.70
Language : Russian
Default : Yes
Forced : No
Audio
ID : 2
Format : AC-3
Format/Info : Audio Coding 3
Mode extension : CM (complete main)
Format settings, Endianness : Big
Codec ID : A_AC3
Duration : 1h 25mn
Bit rate mode : Constant
Bit rate : 640 Kbps
Channel(s) : 6 channels
Channel positions : Front: L C R, Side: L R, LFE
Sampling rate : 48.0 KHz
Bit depth : 16 bits
Compression mode : Lossy
Stream size : 393 MiB (9%)
Title : Original
Language : Russian
Default : Yes
Forced : No
Menu
00:00:00.000 : en:Chapter 01
00:06:54.000 : en:Chapter 02
00:12:11.000 : en:Chapter 03
00:17:48.000 : en:Chapter 04
00:22:44.000 : en:Chapter 05
00:26:49.000 : en:Chapter 06
00:33:35.000 : en:Chapter 07
00:40:35.000 : en:Chapter 08
00:48:05.000 : en:Chapter 09
00:57:29.000 : en:Chapter 10
01:05:06.000 : en:Chapter 11
01:11:25.000 : en:Chapter 12
-- -
[Профиль] [ЛС]
Кто просматривает тему:

Показать сообщения:    

Текущее время: Сегодня 14:54

Часовой пояс: GMT



Вы не можете начинать темы
Вы не можете отвечать на сообщения
Вы не можете редактировать свои сообщения
Вы не можете удалять свои сообщения
Вы не можете голосовать в опросах
Вы не можете прикреплять файлы к сообщениям
Вы не можете скачивать файлы