DZIDZIO Контрабас (2017) WEB-DLRip | UKR

 
Author Message

BOSS ®

Gender:

Longevity: 5 years 1 month

Posts: 14213

Location: ODESSA



: 22 ()

Top Keeper 2 (1) Top Releaser 5 (1) Mega Seeder 4 (1)
Торрент-статистика

Post 17-Jan-2019 20:15

[Quote]

Название: DZIDZIO Контрабас
Год выхода: 2017
Жанр: комедия
Режиссер: Олег Борщевский
В ролях:
Михаил Хома, Назарий Гук, Орест Галицкий, Алена Лавренюк, Сергей Павук, Римма Зюбина, Владимир Горянский, Игорь Кондратюк, Алексей Вертинский и другие
О фильме:
Главные герои кинокомедии - DZIDZIO, Юлик и Лямур, хотят заработать денег перевозкой контрабанды. Но когда на их пути появляется красивая девушка Елена, все планы рушатся. Приключения, которые ждут главных героев, можно сравнить только с американскими горками.

Страна: Украина
Студия: Solar Media Entertainment
Продолжительность: 01:24:18
Перевод: украинский/русский язык (Tretyakoff production)
Формат: AVI
Качество: WEB-DLRip
Видео: XviD, 720 х 304, 2164 кб/с
Звук: AC3 2.0 192 кб/с
Субтитри:
язык: украинский (форсированные на реплики русские)
тип: програмные (мягкие)
формат: *.srt (внешние)--

Скриншоты

MediaInfo

General
Complete name : DZIDZIO Контрабас (2017) WEBDLRip [Hurtom].avi
Format : AVI
Format/Info : Audio Video Interleave
File size : 1.39 GiB
Duration : 1 h 24 min
Overall bit rate : 2 365 kb/s
Writing application : VirtualDubModUkr 1.5.10.2 (build 2542/release)
Writing library : VirtualDubMod build 2542/release
Video
ID : 0
Format : MPEG-4 Visual
Format profile : Advanced Simple@L5
Format settings : BVOP1
Format settings, BVOP : 1
Format settings, QPel : No
Format settings, GMC : No warppoints
Format settings, Matrix : Default (MPEG)
Codec ID : XVID
Codec ID/Hint : XviD
Duration : 1 h 24 min
Bit rate : 2 164 kb/s
Width : 720 pixels
Height : 304 pixels
Display aspect ratio : 2.35:1
Frame rate : 24.000 FPS
Color space : YUV
Chroma subsampling : 4:2:0
Bit depth : 8 bits
Scan type : Progressive
Compression mode : Lossy
Bits/(Pixel*Frame) : 0.412
Stream size : 1.27 GiB (91%)
Writing library : XviD 67
Audio
ID : 1
Format : AC-3
Format/Info : Audio Coding 3
Codec ID : 2000
Duration : 1 h 24 min
Bit rate mode : Constant
Bit rate : 192 kb/s
Channel(s) : 2 channels
Channel positions : Front: L R
Sampling rate : 48.0 kHz
Frame rate : 31.250 FPS (1536 SPF)
Bit depth : 16 bits
Compression mode : Lossy
Stream size : 116 MiB (8%)
Alignment : Split accross interleaves
Interleave, duration : 42 ms (1.00 video frame)
Interleave, preload duratio : 500 ms
Service kind : Complete Main
--
[Profile] [PM]
Кто просматривает тему:

Display posts from previous:    

The time now is: Today 04:12

All times are GMT



You cannot post new topics in this forum
You cannot reply to topics in this forum
You cannot edit your posts in this forum
You cannot delete your posts in this forum
You cannot vote in polls in this forum
You cannot attach files in this forum
You cannot download files in this forum