Dyva - Back Into The Light (2006) [APE|Lossless]<Italo-Disco>

 
Автор Сообщение

sergej644 ®

Пол:

Стаж: 4 года 11 месяцев

Сообщений: 6042

Откуда: Soviet Union



Награды: Нет

Торрент-статистика

Создавать темы 24-Дек-2014 22:40

[Цитировать]

-Dyva - Back Into The Light (2006)- Год: 2006
Лейбл: Flashback Records
Каталог #: FLACD 002
Жанр: Italo-Disco
Продолжительность: 01:03:04
Кодек: APE
Битрейт: Lossless
Тип битрейта: image +.cue
Треклист:
01. Clap Again (Extended Version) 7:24
02. I Know (Short First Version) 4:24
03. Please My Love (Extended Version) 8:33
04. Stay With Me Tonight (Short Version) 4:35
05. Oh Mama, Tonight ! (Extended Version) 7:00
06. Cannery The Canary (Extended First Version) 6:53
07. On Fire (Caldo Mix - Extended Version) 7:59
08. If You're Feeling Blue (Short Version) 4:18
09. Memories (Extended Version) 8:33
10. Day After Day (Short Re - Mastered Version) 4:21

Отчёт ЕАС&#58;

Exact Audio Copy V0.99 prebeta 4 from 23. January 2008
Отчёт EAC об извлечении, выполненном 29. июля 2009, 20:09
Dyva / Back Into The Light
Дисковод: Optiarc DVD RW AD-5200A Adapter: 0 ID: 0
Режим чтения : Достоверность
Использование точного потока : Да
Отключение кэша аудио : Да
Использование указателей C2 : Нет
Коррекция смещения при чтении : 48
Способность читать области Lead-in и Lead-out : Нет
Заполнение пропущенных сэмплов тишиной : Да
Удаление блоков с тишиной в начале и конце : Нет
При вычислениях CRC использовались нулевые сэмплы : Да
Интерфейс : Установленный внешний ASPI-интерфейс
Выходной формат : Внутренние WAV-операции
Формат сэмплов : 44.100 Гц; 16 бит; стерео
TOC извлечённого CD
Трек | Старт | Длительность | Начальный сектор | Конечный сектор
---------------------------------------------------------------------
1 | 0:00.00 | 7:24.73 | 0 | 33372
2 | 7:24.73 | 4:24.42 | 33373 | 53214
3 | 11:49.40 | 8:33.33 | 53215 | 91722
4 | 20:22.73 | 4:35.39 | 91723 | 112386
5 | 24:58.37 | 7:00.56 | 112387 | 143942
6 | 31:59.18 | 6:53.07 | 143943 | 174924
7 | 38:52.25 | 7:59.26 | 174925 | 210875
8 | 46:51.51 | 4:18.74 | 210876 | 230299
9 | 51:10.50 | 8:33.15 | 230300 | 268789
10 | 59:43.65 | 4:21.74 | 268790 | 288438
Характеристики диапазона извлечения и сообщения об ошибках
Выбранный диапазон
Имя файла E:\Dyva - Back Into The Light\Dyva - Back Into The Light\Dyva - Back Into The Light.wav
Пиковый уровень 100.0 %
Качество диапазона 100.0 %
CRC теста 36BB24FF
CRC копии 36BB24FF
Копирование... OK
Ошибок не произошло
AccurateRip: сводка
Трек 1 нет в базе данных
Трек 2 нет в базе данных
Трек 3 нет в базе данных
Трек 4 нет в базе данных
Трек 5 нет в базе данных
Трек 6 нет в базе данных
Трек 7 нет в базе данных
Трек 8 нет в базе данных
Трек 9 нет в базе данных
Трек 10 нет в базе данных
Ни одного трека нет в базе AccurateRip
Конец отчёта

Отчёт auCDtect Task manager&#58;

-----------------------
DON'T MODIFY THIS FILE
-----------------------
PERFORMER: auCDtect Task Manager, ver. 1.5.1RC4 build 1.5.1.5
Copyright (c) 2008-2010 y-soft. All rights reserved
http://y-soft.org
ANALYZER: auCDtect: CD records authenticity detector, version 0.8.2
Copyright (c) 2004 Oleg Berngardt. All rights reserved.
Copyright (c) 2004 Alexander Djourik. All rights reserved.
FILE: Dyva - Back Into The Light.ape
  Size: 475621016 Hash: F85BA70E0821C2B829893A0A2FF26331 Accuracy: -m0
  Conclusion: CDDA 100%
  Signature: CCF807DE30501EA1F6EE17D3F52DE7ED6F37EE19

Содержание индексной карты (.CUE&#41;

REM GENRE Italo-Disco
REM DATE 2006
REM DISCID 700F050A
REM COMMENT "ExactAudioCopy v0.99pb4"
PERFORMER "Dyva"
TITLE "Back Into The Light"
FILE "Dyva - Back Into The Light.wav" WAVE
  TRACK 01 AUDIO
    TITLE "Clap Again (Extended Version)"
    PERFORMER "Dyva"
    FLAGS DCP
    INDEX 01 00:00:00
  TRACK 02 AUDIO
    TITLE "I Know (Short First Version)"
    PERFORMER "Dyva"
    FLAGS DCP
    INDEX 00 07:22:73
    INDEX 01 07:24:73
  TRACK 03 AUDIO
    TITLE "Please My Love (Extended Version)"
    PERFORMER "Dyva"
    FLAGS DCP
    INDEX 00 11:47:40
    INDEX 01 11:49:40
  TRACK 04 AUDIO
    TITLE "Stay With Me Tonight (Short Version)"
    PERFORMER "Dyva"
    FLAGS DCP
    INDEX 00 20:20:73
    INDEX 01 20:22:73
  TRACK 05 AUDIO
    TITLE "Oh Mama, Tonight! (Extended Version)"
    PERFORMER "Dyva"
    FLAGS DCP
    INDEX 00 24:56:37
    INDEX 01 24:58:37
  TRACK 06 AUDIO
    TITLE "Cannery The Canary (Extended First Version)"
    PERFORMER "Dyva"
    FLAGS DCP
    INDEX 00 31:57:18
    INDEX 01 31:59:18
  TRACK 07 AUDIO
    TITLE "On Fire (Caldo Mix-Extended Version)"
    PERFORMER "Dyva"
    FLAGS DCP
    INDEX 00 38:50:25
    INDEX 01 38:52:25
  TRACK 08 AUDIO
    TITLE "If You're Feeling Blue (Short Version)"
    PERFORMER "Dyva"
    FLAGS DCP
    INDEX 00 46:49:51
    INDEX 01 46:51:51
  TRACK 09 AUDIO
    TITLE "Memories (Extended Version)"
    PERFORMER "Dyva"
    FLAGS DCP
    INDEX 00 51:08:50
    INDEX 01 51:10:50
  TRACK 10 AUDIO
    TITLE "Day After Day (Short Re-Mastered Version)"
    PERFORMER "Dyva"
    FLAGS DCP
    INDEX 00 59:41:65
    INDEX 01 59:43:65
[Профиль] [ЛС]

Создавать темы 13-Авг-2015 10:41 (спустя 7 месяцев 20 дней)

Топик был перенесен из форума Зарубежная в форум Technopop, Eurodance, Disco
sergej644
 
Кто просматривает тему:

Показать сообщения:    

Текущее время: Сегодня 08:59

Часовой пояс: GMT



Вы не можете начинать темы
Вы не можете отвечать на сообщения
Вы не можете редактировать свои сообщения
Вы не можете удалять свои сообщения
Вы не можете голосовать в опросах
Вы не можете прикреплять файлы к сообщениям
Вы не можете скачивать файлы