Dschinghis Khan - The History of Dschinghis Khan & Millenium Mega Mixes (1999) [FLAC|Lossless]<Disco>

 
Автор Сообщение

sergej644 ®

Пол:

Стаж: 4 года 11 месяцев

Сообщений: 6035

Откуда: Soviet Union



Награды: Нет

Торрент-статистика

Создавать темы 24-Дек-2014 22:43

[Цитировать]

-Dschinghis Khan - The History of Dschinghis Khan & Millenium Mega Mixes (1999)- Год: 1999
Лейбл: Jupiter Records
Каталог #: 74321 67305 2
Жанр: Disco
Продолжительность: 01:13:25
Кодек: FLAC
Битрейт: Lossless
Тип битрейта: image+.cue
Треклист:
1 The Story Of Dschinghis Khan Part 1 (Extended Version)
2 The Story Of Dschinghis Khan Part 2 (Extended Version)
3 Moskau '99 (Rap Version feat. LTC)
4 Dschinghis Khan '99
5 Der Verrater
6 Machu Picchu
7 Corrida
8 Samurai
9 Rome (English Version)
10 Klabautermann
11 Life Is Good-Life Is Scheen
12 Komm Doch Heim
13 Der Dudelmoser
14 Die Fremden
15 Mexico
16 The Story Of Genghis Khan Part II (Radio Edit - English Version)

Дополнительная информация&#58;

Диск с личной коллекции

Отчёт ЕАС&#58;

Exact Audio Copy V1.0 beta 3 from 29. August 2011
Отчёт EAC об извлечении, выполненном 18. января 2012, 10:21
Dschinghis Khan / The History of
Дисковод: HL-DT-STDVDRAM GSA-H12N Adapter: 3 ID: 1
Режим чтения : Скоростной
Коррекция смещения при чтении : 667
Способность читать области Lead-in и Lead-out : Нет
Заполнение пропущенных сэмплов тишиной : Да
Удаление блоков с тишиной в начале и конце : Нет
При вычислениях CRC использовались нулевые сэмплы : Да
Интерфейс : Встроенный Win32-интерфейс для Win NT/2000
Выходной формат : Внутренние WAV-операции
Формат сэмплов : 44.100 Гц; 16 бит; стерео
TOC извлечённого CD
Трек | Старт | Длительность | Начальный сектор | Конечный сектор
---------------------------------------------------------------------
1 | 0:00.32 | 5:55.13 | 32 | 26669
2 | 5:55.45 | 4:32.70 | 26670 | 47139
3 | 10:28.40 | 4:04.07 | 47140 | 65446
4 | 14:32.47 | 3:07.35 | 65447 | 79506
5 | 17:40.07 | 5:36.18 | 79507 | 104724
6 | 23:16.25 | 7:06.70 | 104725 | 136744
7 | 30:23.20 | 3:32.57 | 136745 | 152701
8 | 33:56.02 | 4:41.00 | 152702 | 173776
9 | 38:37.02 | 5:52.23 | 173777 | 200199
10 | 44:29.25 | 4:09.70 | 200200 | 218944
11 | 48:39.20 | 3:49.50 | 218945 | 236169
12 | 52:28.70 | 4:18.00 | 236170 | 255519
13 | 56:46.70 | 3:43.00 | 255520 | 272244
14 | 60:29.70 | 4:55.45 | 272245 | 294414
15 | 65:25.40 | 4:53.30 | 294415 | 316419
16 | 70:18.70 | 3:06.50 | 316420 | 330419
Характеристики диапазона извлечения и сообщения об ошибках
Выбранный диапазон
Имя файла E:\Dschinghis Khan - The History of.wav
Пиковый уровень 99.9 %
Скорость извлечения 29.3 X
CRC копии 915BDDCF
Копирование... OK
Ошибок не произошло
AccurateRip: сводка
Трек 1 точность не определена (достоверность 5) [D6BBC559], AccurateRip вернул [6C5AF308] (AR v2)
Трек 2 точность не определена (достоверность 5) [76B54D2B], AccurateRip вернул [084D724B] (AR v2)
Трек 3 точность не определена (достоверность 5) [DC627E73], AccurateRip вернул [AF5078E5] (AR v2)
Трек 4 точность не определена (достоверность 5) [B0D04F6E], AccurateRip вернул [8A0BAB11] (AR v2)
Трек 5 точность не определена (достоверность 5) [63A568B5], AccurateRip вернул [885437A8] (AR v2)
Трек 6 точность не определена (достоверность 5) [4F253087], AccurateRip вернул [E5EB69F7] (AR v2)
Трек 7 точность не определена (достоверность 5) [0979214F], AccurateRip вернул [43931E8F] (AR v2)
Трек 8 точность не определена (достоверность 5) [9FCC224D], AccurateRip вернул [97D8A4A6] (AR v2)
Трек 9 точность не определена (достоверность 5) [C3998460], AccurateRip вернул [99DAB7E3] (AR v2)
Трек 10 точность не определена (достоверность 5) [64178AA1], AccurateRip вернул [9AA99BFC] (AR v2)
Трек 11 точность не определена (достоверность 5) [81D83E37], AccurateRip вернул [245EBC5B] (AR v2)
Трек 12 точность не определена (достоверность 5) [2E5106FA], AccurateRip вернул [69B6D3A1] (AR v2)
Трек 13 точность не определена (достоверность 5) [C77FFEAC], AccurateRip вернул [CA53A065] (AR v2)
Трек 14 точность не определена (достоверность 5) [41F8EFF1], AccurateRip вернул [288574C0] (AR v2)
Трек 15 точность не определена (достоверность 5) [D258CFB3], AccurateRip вернул [AEF82C6B] (AR v2)
Трек 16 точность не определена (достоверность 5) [67B17696], AccurateRip вернул [1C2B83A2] (AR v2)
Ни один трек не прошёл проверки на точность
В вашей базе может быть иной вариант штамповки диска
Конец отчёта
==== Контрольная сумма отчёта A12829E5311F48A703BC830176C8BC86C519CA933F6625FA234A62560EA89FA2 ====

Отчёт auCDtect Task manager&#58;

-----------------------
DON'T MODIFY THIS FILE
-----------------------
PERFORMER: auCDtect Task Manager, ver. 1.6.0 RC1 build 1.6.0.1
Copyright (c) 2008-2010 y-soft. All rights reserved
http://y-soft.org
ANALYZER: auCDtect: CD records authenticity detector, version 0.8.2
Copyright (c) 2004 Oleg Berngardt. All rights reserved.
Copyright (c) 2004 Alexander Djourik. All rights reserved.
FILE: Dschinghis Khan - The History of.flac
  Size: 550596803 Hash: 7D97F610B78088DA3366EAEFC1C8D030 Accuracy: -m0
  Conclusion: CDDA 100%
  Signature: EE5FEA5C9E89B77C36AA2A15BDE7DAD37B5AA125

Содержание индексной карты&#58;

REM GENRE Disco
REM DATE 1999
REM DISCID D7113510
REM COMMENT "ExactAudioCopy v1.0b3"
TITLE "The History of"
PERFORMER "Dschinghis Khan"
CATALOG 0743216730520
FILE "Dschinghis Khan - The History of.flac" WAVE    ; 4405600.000 milliseconds
  TRACK 01 AUDIO
    TITLE "the story of dschinghis khan part 1"
    PERFORMER "Dschinghis Khan"
    ISRC DEC719900614
    INDEX 00 00:00:00
    INDEX 01 00:00:32
  TRACK 02 AUDIO
    TITLE "the story of dschinghis khan part 2"
    PERFORMER "Dschinghis Khan"
    ISRC DEC719900615
    INDEX 00 05:54:70
    INDEX 01 05:55:45
  TRACK 03 AUDIO
    TITLE moskau`99
    PERFORMER "Dschinghis Khan"
    ISRC DEC719900586
    INDEX 00 10:27:45
    INDEX 01 10:28:40
  TRACK 04 AUDIO
    TITLE "dschinghis khan`99"
    PERFORMER "Dschinghis Khan"
    ISRC DEC719900587
    INDEX 00 14:31:62
    INDEX 01 14:32:47
  TRACK 05 AUDIO
    TITLE "der verrqter"
    PERFORMER "Dschinghis Khan"
    ISRC DEC718000012
    INDEX 01 17:40:07
  TRACK 06 AUDIO
    TITLE "machu picchu"
    PERFORMER "Dschinghis Khan"
    ISRC DEC718000014
    INDEX 00 23:15:00
    INDEX 01 23:16:25
  TRACK 07 AUDIO
    TITLE corrida
    PERFORMER "Dschinghis Khan"
    ISRC DEC718300010
    INDEX 00 30:22:57
    INDEX 01 30:23:20
  TRACK 08 AUDIO
    TITLE samurai
    PERFORMER "Dschinghis Khan"
    ISRC DEC718300012
    INDEX 00 33:54:73
    INDEX 01 33:56:02
  TRACK 09 AUDIO
    TITLE rome
    PERFORMER "Dschinghis Khan"
    ISRC DEC718000016
    INDEX 00 38:36:02
    INDEX 01 38:37:02
  TRACK 10 AUDIO
    TITLE klabqutermann
    PERFORMER "Dschinghis Khan"
    ISRC DEC718200015
    INDEX 00 44:28:07
    INDEX 01 44:29:25
  TRACK 11 AUDIO
    TITLE "life is good-life is scheen"
    PERFORMER "Dschinghis Khan"
    ISRC DEC718300011
    INDEX 00 48:38:32
    INDEX 01 48:39:20
  TRACK 12 AUDIO
    TITLE "komm doch heim"
    PERFORMER "Dschinghis Khan"
    INDEX 00 52:28:20
    INDEX 01 52:28:70
  TRACK 13 AUDIO
    TITLE "der dubelmoser"
    PERFORMER "Dschinghis Khan"
    ISRC DEC718200016
    INDEX 00 56:46:20
    INDEX 01 56:46:70
  TRACK 14 AUDIO
    TITLE "die fremden"
    PERFORMER "Dschinghis Khan"
    ISRC DEC718000013
    INDEX 00 60:28:70
    INDEX 01 60:29:70
  TRACK 15 AUDIO
    TITLE mexico
    PERFORMER "Dschinghis Khan"
    ISRC DEC718500020
    INDEX 00 65:25:10
    INDEX 01 65:25:40
  TRACK 16 AUDIO
    TITLE "the story of genghis khan part 1,2"
    PERFORMER "Dschinghis Khan"
    ISRC DEC719900616
    INDEX 00 70:18:20
    INDEX 01 70:18:70
Время раздачи: 24/7
[Профиль] [ЛС]

Создавать темы 13-Авг-2015 10:41 (спустя 7 месяцев 20 дней)

Топик был перенесен из форума Зарубежная в форум Technopop, Eurodance, Disco
sergej644
 
Кто просматривает тему:

Показать сообщения:    

Текущее время: Сегодня 20:09

Часовой пояс: GMT



Вы не можете начинать темы
Вы не можете отвечать на сообщения
Вы не можете редактировать свои сообщения
Вы не можете удалять свои сообщения
Вы не можете голосовать в опросах
Вы не можете прикреплять файлы к сообщениям
Вы не можете скачивать файлы