(Extreme Power Metal) DragonForce - Extreme Power Metal - 2019 [FLAC, image +.cue, lossless]

 
Author Message

sergej644 ®

Gender:

Longevity: 7 years 10 months

Posts: 7310



: 10 ()

Mega Seeder 3 (1) Top Seeder 3 (1) Mega Seeder 2 (1)
Торрент-статистика

Post 29-Oct-2019 23:10

[Quote]

-DragonForce - Extreme Power Metal--
Год издания: 2019
Страна: UK
Жанр: Extreme Power Metal
Продолжительность: 00:52:56-Лейбл издания: Ear Music
Страна-выпуска диска: EU
Номер по каталогу: 0214378EMU-Формат: FLAC
Битрейт аудио: Lossless
Тип рипа: image +.cue
Наличие сканов в содержимом раздачи: да
-

Трэклист


01. Highway To Oblivion (6:48)
02. Cosmic Power Of The Infinite Shred Machine (6:36)
03. The Last Dragonborn (6:13)
04. Heart Demolition (5:39)
05. Troopers Of The Stars (5:03)
06. Razorblade Meltdown (4:46)
07. Strangers (4:29)
08. In a Skyforged Dream (4:45)
09. Remembrance Day (5:10)
10. My Heart Will Go On (3:25)
-

Лог создания рипа

Exact Audio Copy V1.3 from 2. September 2016
EAC extraction logfile from 19. October 2019, 8:45
DragonForce / Extreme Power Metal
Used drive  : ASUS    DRW-24B3ST   Adapter: 2  ID: 0
Read mode               : Secure
Utilize accurate stream : Yes
Defeat audio cache      : Yes
Make use of C2 pointers : No
Read offset correction                      : 6
Overread into Lead-In and Lead-Out          : No
Fill up missing offset samples with silence : Yes
Delete leading and trailing silent blocks   : No
Null samples used in CRC calculations       : Yes
Used interface                              : Installed external ASPI interface
Used output format              : User Defined Encoder
Selected bitrate                : 1024 kBit/s
Quality                         : High
Add ID3 tag                     : No
Command line compressor         : C:\Program Files (x86)\Exact Audio Copy\FLAC\FLAC.EXE
Additional command line options : -V -8 -T "Date=%year%" -T "Genre=%genre%" -T"COMMENT=CDRip" -8 -V %source%
TOC of the extracted CD
     Track |   Start  |  Length  | Start sector | End sector
    ---------------------------------------------------------
        1  |  0:00.00 |  6:48.09 |         0    |    30608
        2  |  6:48.09 |  6:36.06 |     30609    |    60314
        3  | 13:24.15 |  6:12.44 |     60315    |    88258
        4  | 19:36.59 |  5:39.28 |     88259    |   113711
        5  | 25:16.12 |  5:03.35 |    113712    |   136471
        6  | 30:19.47 |  4:45.58 |    136472    |   157904
        7  | 35:05.30 |  4:29.20 |    157905    |   178099
        8  | 39:34.50 |  4:45.15 |    178100    |   199489
        9  | 44:19.65 |  5:10.29 |    199490    |   222768
       10  | 49:30.19 |  3:24.57 |    222769    |   238125
Range status and errors
Selected range
     Filename C:\CDRip DragonForce - Extreme Power Metal.wav
     Peak level 100.0 %
     Extraction speed 6.1 X
     Range quality 100.0 %
     Test CRC B9150210
     Copy CRC B9150210
     Copy OK
No errors occurred
AccurateRip summary
Track  1  not present in database
Track  2  not present in database
Track  3  not present in database
Track  4  not present in database
Track  5  not present in database
Track  6  not present in database
Track  7  not present in database
Track  8  not present in database
Track  9  not present in database
Track 10  not present in database
None of the tracks are present in the AccurateRip database
End of status report

Индексная карта (non-compilant .cue)

REM GENRE "Power Metal"
REM DATE 2019
REM DISCID 800C670A
REM COMMENT "ExactAudioCopy v1.3"
CATALOG 4029759143770
PERFORMER "DragonForce"
TITLE "Extreme Power Metal"
REM COMPOSER "DragonForce"
FILE "DragonForce - Extreme Power Metal.flac" WAVE
  TRACK 01 AUDIO
    TITLE "Highway  To Oblivion"
    PERFORMER "DragonForce"
    REM COMPOSER "DragonForce"
    ISRC USMBR1913797
    INDEX 01 00:00:00
  TRACK 02 AUDIO
    TITLE "Cosmic Power Of The Infinite Shred Machine"
    PERFORMER "DragonForce"
    REM COMPOSER "DragonForce"
    ISRC USMBR1913798
    INDEX 01 06:48:09
  TRACK 03 AUDIO
    TITLE "The Last Dragonborn"
    PERFORMER "DragonForce"
    REM COMPOSER "DragonForce"
    ISRC USMBR1913799
    INDEX 01 13:24:15
  TRACK 04 AUDIO
    TITLE "Heart Demolition"
    PERFORMER "DragonForce"
    REM COMPOSER "DragonForce"
    ISRC USMBR1913800
    INDEX 01 19:36:59
  TRACK 05 AUDIO
    TITLE "Troopers Of The Stars"
    PERFORMER "DragonForce"
    REM COMPOSER "DragonForce"
    ISRC USMBR1913801
    INDEX 01 25:16:12
  TRACK 06 AUDIO
    TITLE "Razorblade Meltdown"
    PERFORMER "DragonForce"
    REM COMPOSER "DragonForce"
    ISRC USMBR1913802
    INDEX 01 30:19:47
  TRACK 07 AUDIO
    TITLE "Strangers"
    PERFORMER "DragonForce"
    REM COMPOSER "DragonForce"
    ISRC USMBR1913803
    INDEX 01 35:05:30
  TRACK 08 AUDIO
    TITLE "In a Skyforged Dream"
    PERFORMER "DragonForce"
    REM COMPOSER "DragonForce"
    ISRC USMBR1913804
    INDEX 01 39:34:50
  TRACK 09 AUDIO
    TITLE "Remembrance Day"
    PERFORMER "DragonForce"
    REM COMPOSER "DragonForce"
    ISRC USMBR1913805
    INDEX 01 44:19:65
  TRACK 10 AUDIO
    TITLE "My Heart Will Go On"
    PERFORMER "DragonForce"
    REM COMPOSER "DragonForce"
    ISRC USMBR1913806
    INDEX 01 49:30:19
-

для ознакомления:

https://www.youtube.com/watch?v=DDtaDWel5bs
--
[Profile] [PM]
Кто просматривает тему:

Display posts from previous:    

The time now is: Today 21:41

All times are GMT



You cannot post new topics in this forum
You cannot reply to topics in this forum
You cannot edit your posts in this forum
You cannot delete your posts in this forum
You cannot vote in polls in this forum
You cannot attach files in this forum
You cannot download files in this forum