Doro - Strong and Proud: 30 Years of Rock and Metal (2016) BDRip 720p

 
Автор Сообщение

достали все ®

Пол:

Стаж: 1 год 8 месяцев

Сообщений: 6527



Награды: 12 (Подробнее)

За внесенный вклад в развитие сайта (Количество: 1) Top Releaser 4 (Количество: 1) Mega Seeder 1 (Количество: 1)
Торрент-статистика

Создавать темы 06-Июл-2016 21:56

[Цитировать]

Информация о концерте:
Название: Doro - Strong and Proud: 30 Years of Rock and Metal
Год выхода: 2016
Жанр: Rock, Heavy-Metal, Hard-Rock
В ролях: Doro Pesch – vocals; Nick Douglas – bass, keyboards, backing vocals; Johnny Dee – drums, percussion, backing vocals; Bas Maas – guitars, backing vocals; Luca Princiotta – guitar, keyboards, backing vocals; feat. Chris Boltendahl, Phil Campbell, Corvus Corax, Eric Fish, Joakim Brodén, Blaze Bayley, Udo Dirkschneider, Lordi, Sabina Classen, Hansi Kürsch, Biff Byford.
О концерте:
Немецкая королева метала Доро Пеш отпраздновала 30-летие сценической деятельности в рамках мирового тура 2013/2014 года, когда состоялось три специальных юбилейных концерта, первое из которых прошло на крупнейшем металлическом фестивале Wacken Open Air перед аудиторией в 85.000 человек.
После этого певица провела еще два аншлаговых шоу в родном городе Дюссельдорфе, и на мероприятии появились едва ли не все, причастные к тяжелой тусовке, включая Фила Кэмпбелла (MOTÖRHEAD), Бифа Байфорда (SAXON), Блейза Бэйли (ex-IRON MAIDEN), Йоакима Бродена (SABATON), Ханси Кюрша (BLIND GUARDIAN), Удо Диркшнайдера (U.D.O.), Ули Йона Рота, LORDI и многих других.
Три десятилетия DORO – и три незабываемых вечера – были запечатлены на трех DVD и двух Blu-ray наряду с более чем двухчасовым документальным фильмом «Behind The Curtain, Inside The Heart Of Doro», который обеспечивает более глубокое понимание как закулисной жизни, так и внутренних переживаний Доро. Теперь звукозаписывающая компания Nuclear Blast, наконец, выпустит этот юбилейный пакет под заголовком «Strong And Proud — 30 Years Of Rock And Metal» 24 июня.
«Мы без устали работали над этими DVD, потому что хотели сделать настоящий памятный подарок для всех фанатов рока и метала, — рассказывает Доро. — Мы подумали о каждой детали. Все началось на помпезной площадке в Вакене, и мы целый год работали над оформлением этого шоу. В Дюссельдорфе мы праздновали две ночи подряд. Одна из них, «классическая ночь», состоялась вместе с оркестром, а вторая продемонстрировала отвязанное рок-шоу. Приключение продолжалось в режиме нон-стоп и привело нас в Россию, Южную Америку и, конечно, США».
«Strong And Proud — 30 Years Of Rock And Metal» содержит в общей сложности 38 песен, включая классические хиты Доро, раритеты из каталога WARLOCK и изобретательные кавер-версии вроде «Fear Of The Dark» (IRON MAIDEN) и «Balls To The Wall» (ACCEPT). Обложка нарисована любимым художником певицы Джеффри Гиллеспи.

30 Years Anniversary Show - Wacken Open Air

01. Intro
02. Wacken Anthem (We Are The Metalheads)
03. Burning The Witches
04. East Meets West (feat. Chris Boltendahl)
05. Raise Your Fist In The Air
06. Hellbound
07. Revenge
08. Earthshaker Rock
09. Breaking The Law (feat. Phil Campbell)
10. All We Are (feat. Eric Fish, Joakim Brodén & CORVUS CORAX)

30 Years Anniversary Show - Classic Night

11. Touch Of Evil
12. On The Run
13. Fear Of The Dark (feat. Blaze Bayley)
14. The Night Of The Warlock
15. You’re My Family
16. Above The Ashes
17. Beyond The Trees
18. Hero
19. Princess Of The Dawn (feat. Udo Dirkschneider)
20. Dancing With An Angel (feat. Udo Dirkschneider)
21. Hard Rock Hallelujah (feat. LORDI)
22. Love Me In Black
23. Für Immer (Mixclip Classic Night/Rock Night)

30 Years Anniversary Show - Rock Night

24. Raise Your Fist In The Air
25. Save My Soul
26. Running From The Devil
27. Without You
28. East Meets West (feat. Sabina Classen)
29. Rock Till Death (feat. Hansi Kürsch)
30. Bad Blood (feat. LORDI)
31. Denim And Leather (feat. Biff Byford)
32. Out Of Control
33. Wacken Anthem (We Are The Metalheads)
34. Metal Racer
35. Herzblut
36. Burn It Up
37. Balls To The Wall (feat. Udo Dirkschneider)
38. All We Are
Страна: Германия
Издатель (лейбл): Nuclear Blast
Продолжительность: 03:32:50
Файл
Формат: Matroska
Видео: 1280x584 at 29.970 fps, x264@L4.1, ~5000 kbps avg
Аудио#1: 48 kHz, AC3 Dolby Digital, 2/0 (L,R) ch, ~192.00 kbps avg
Аудио#2: 48 kHz, AC3 Dolby Digital, 3/2 (L,C,R,l,r) + LFE ch, ~448.00 kbps avg
Субтитры: None

MI

Общее
Уникальный идентификатор : 233842703896005732876555201435570580020 (0xAFEC7771321A4B158CFFE9D6DAA8AA34)
Полное имя : Doro-Strong and Proud-30 Years of Rock and Metal.2016.BDRip720p.mkv
Формат : Matroska
Версия формата : Version 4 / Version 2
Размер файла : 8,27 Гбайт
Продолжительность : 3 ч. 32 м.
Общий поток : 5562 Кбит/сек
Дата кодирования : UTC 2016-07-05 18:23:24
Программа кодирования : mkvmerge v8.6.0 ('A Place In Your World') 64bit
Библиотека кодирования : libebml v1.3.3 + libmatroska v1.4.4
Видео
Идентификатор : 1
Формат : AVC
Формат/Информация : Advanced Video Codec
Профиль формата : High@L4.1
Параметр CABAC формата : Да
Параметр ReFrames формата : 9 кадров
Идентификатор кодека : V_MPEG4/ISO/AVC
Продолжительность : 3 ч. 32 м.
Битрейт : 4920 Кбит/сек
Ширина : 1280 пикселей
Высота : 584 пикселя
Соотношение сторон : 2,2:1
Режим частоты кадров : Постоянный
Частота кадров : 29,970 кадров/сек
Цветовое пространство : YUV
Субдискретизация насыщенности : 4:2:0
Битовая глубина : 8 бит
Тип развёртки : Прогрессивная
Бит/(Пиксели*Кадры) : 0.220
Размер потока : 7,15 Гбайт (87%)
Библиотека кодирования : x264 core 146 r2538 121396c
Настройки программы : cabac=1 / ref=9 / deblock=1:-2:-1 / analyse=0x3:0x113 / me=umh / subme=11 / psy=1 / psy_rd=1.00:0.15 / mixed_ref=1 / me_range=30 / chroma_me=1 / trellis=2 / 8x8dct=1 / cqm=0 / deadzone=21,11 / fast_pskip=1 / chroma_qp_offset=-3 / threads=6 / lookahead_threads=1 / sliced_threads=0 / nr=0 / decimate=1 / interlaced=0 / bluray_compat=0 / constrained_intra=0 / bframes=8 / b_pyramid=2 / b_adapt=2 / b_bias=0 / direct=3 / weightb=1 / open_gop=0 / weightp=2 / keyint=300 / keyint_min=29 / scenecut=40 / intra_refresh=0 / rc_lookahead=100 / rc=2pass / mbtree=1 / bitrate=4920 / ratetol=1.0 / qcomp=0.60 / qpmin=0 / qpmax=69 / qpstep=4 / cplxblur=20.0 / qblur=0.5 / vbv_maxrate=50000 / vbv_bufsize=62500 / nal_hrd=none / filler=0 / ip_ratio=1.40 / aq=1:1.00
Default : Да
Forced : Нет
Аудио #1
Идентификатор : 2
Формат : AC-3
Формат/Информация : Audio Coding 3
Расширение режима : CM (complete main)
Параметр Endianness формата : Big
Идентификатор кодека : A_AC3
Продолжительность : 3 ч. 32 м.
Вид битрейта : Постоянный
Битрейт : 192 Кбит/сек
Каналы : 2 канала
Расположение каналов : Front: L R
Частота : 48,0 КГц
Метод сжатия : С потерями
Размер потока : 292 Мбайт (3%)
Default : Да
Forced : Нет
Аудио #2
Идентификатор : 3
Формат : AC-3
Формат/Информация : Audio Coding 3
Расширение режима : CM (complete main)
Параметр Endianness формата : Big
Идентификатор кодека : A_AC3
Продолжительность : 3 ч. 32 м.
Вид битрейта : Постоянный
Битрейт : 448 Кбит/сек
Каналы : 6 каналов
Расположение каналов : Front: L C R, Side: L R, LFE
Частота : 48,0 КГц
Метод сжатия : С потерями
Размер потока : 682 Мбайт (8%)
Default : Нет
Forced : Нет
Меню
00:00:00.000 : en:01. Intro
00:00:44.978 : en:02. Wacken Anthem (We Are The Metalheads)
00:05:57.624 : en:03. Burning The Witches
00:11:52.979 : en:04. East Meets West (feat. Chris Boltendahl)
00:16:11.871 : en:05. Raise Your Fist In The Air
00:19:08.547 : en:06. Hellbound
00:22:21.774 : en:07. Revenge
00:27:01.320 : en:08. Earthshaker Rock
00:31:26.651 : en:09. Breaking The Law (feat. Phil Campbell)
00:36:55.180 : en:10. All We Are (feat. Eric Fish, Joakim Brodén & CORVUS CORAX)
00:45:16.647 : en:11. Touch Of Evil
00:49:07.745 : en:12. On The Run
00:53:52.129 : en:13. Fear Of The Dark (feat. Blaze Bayley)
01:00:52.182 : en:14. The Night Of The Warlock
01:05:32.295 : en:15. You're My Family
01:10:38.134 : en:16. Above The Ashes
01:15:51.781 : en:17. Beyond The Trees
01:19:33.836 : en:18. Hero
01:24:53.221 : en:19. Princess Of The Dawn (feat. Udo Dirkschneider)
01:31:47.702 : en:20. Dancing With An Angel (feat. Udo Dirkschneider)
01:38:06.247 : en:21. Hard Rock Hallelujah (feat. LORDI)
01:42:43.157 : en:22. Love Me In Black
01:47:53.267 : en:23. Für Immer (Mix Clip Classic Night/Rock Night)
01:54:51.251 : en:24. Raise Your Fist In The Air
01:58:35.942 : en:25. Save My Soul
02:03:05.378 : en:26. Running From The Devil
02:06:22.975 : en:27. Without You
02:13:02.541 : en:28. East Meets West (feat. Sabina Classen)
02:18:28.100 : en:29. Rock Till Death (feat. Hansi Kürsch)
02:22:25.704 : en:30. Bad Blood (feat. LORDI)
02:28:21.826 : en:31. Denim And Leather (feat. Biff Byford)
02:34:57.221 : en:32. Out Of Control
02:51:12.129 : en:33. Wacken Anthem (We Are The Metalheads)
02:56:30.713 : en:34. Metal Racer
03:00:10.333 : en:35. Herzblut
03:07:03.713 : en:36. Burn It Up
03:11:14.263 : en:37. Balls To The Wall (feat. Udo Dirkschneider)
03:18:17.853 : en:38. All We Are
03:29:28.256 : en:39. Credits

Скриншоты


[Профиль] [ЛС]
Кто просматривает тему:

Показать сообщения:    

Текущее время: Сегодня 00:11

Часовой пояс: GMT



Вы не можете начинать темы
Вы не можете отвечать на сообщения
Вы не можете редактировать свои сообщения
Вы не можете удалять свои сообщения
Вы не можете голосовать в опросах
Вы не можете прикреплять файлы к сообщениям
Вы не можете скачивать файлы