(Disco) Donna Summer - The CD Collection (10CD Box Set) - 2014, FLAC (image+.cue), lossless

 
Автор Сообщение

sergej644 ®

Пол:

Стаж: 4 года 11 месяцев

Сообщений: 6045

Откуда: Soviet Union



Награды: Нет

Торрент-статистика

Создавать темы 20-Дек-2014 23:01

[Цитировать]

Donna Summer / The CD Collection ( 10CD Box Set)
Жанр: Disco
Носитель: CD
Страна-производитель диска (релиза): EU
Год издания: 2014
Издатель (лейбл): Crimson Production
Номер по каталогу: DBTMCDBOX01
Страна исполнителя (группы): USA
Аудиокодек: FLAC (*.flac)
Тип рипа: image+.cue
Битрейт аудио: lossless
Источник (релизер): ALLexxess
Наличие сканов в содержимом раздачи: да

1980 The Wanderer

01. The Wanderer
02. Looking Up
03. Breakdown
04. Grand Illusion
05. Running For Cover
06. Cold Love
07. Who Do You Think You're Foolin'
08. Nightlife
09. Stop Me
10. I Believe In Jesus
Bonus Tracks
11. Who Do You Think You're Foolin' (Stereo Edit)
12. Cold Love (Edit)

Лог создания рипа

Exact Audio Copy V1.0 beta 3 from 29. August 2011
EAC extraction logfile from 10. December 2014, 20:09
Donna Summer / The Wanderer
Used drive : PLEXTOR BD-R PX-B950SA Adapter: 6 ID: 0
Read mode : Secure
Utilize accurate stream : Yes
Defeat audio cache : Yes
Make use of C2 pointers : No
Read offset correction : 6
Overread into Lead-In and Lead-Out : No
Fill up missing offset samples with silence : Yes
Delete leading and trailing silent blocks : No
Null samples used in CRC calculations : Yes
Used interface : Native Win32 interface for Win NT & 2000
Used output format : Internal WAV Routines
Sample format : 44.100 Hz; 16 Bit; Stereo
TOC of the extracted CD
Track | Start | Length | Start sector | End sector
---------------------------------------------------------
1 | 0:00.00 | 3:48.27 | 0 | 17126
2 | 3:48.27 | 3:58.58 | 17127 | 35034
3 | 7:47.10 | 4:09.41 | 35035 | 53750
4 | 11:56.51 | 3:55.29 | 53751 | 71404
5 | 15:52.05 | 4:01.01 | 71405 | 89480
6 | 19:53.06 | 3:39.65 | 89481 | 105970
7 | 23:32.71 | 4:19.10 | 105971 | 125405
8 | 27:52.06 | 4:00.25 | 125406 | 143430
9 | 31:52.31 | 3:45.12 | 143431 | 160317
10 | 35:37.43 | 3:39.21 | 160318 | 176763
11 | 39:16.64 | 4:00.15 | 176764 | 194778
12 | 43:17.04 | 3:18.09 | 194779 | 209637
Range status and errors
Selected range
Filename C:\Users\Meijin\Desktop\Lossless Galaxy ALLexxess\Donna Summer\2014 Donna - CD Collection (10CD Box Set Driven By The Music)\1980 The Wanderer\Donna Summer - The Wanderer.wav
Peak level 99.4 %
Extraction speed 7.4 X
Range quality 100.0 %
Test CRC C8BC0329
Copy CRC C8BC0329
Copy OK
No errors occurred
AccurateRip summary
Track 1 not present in database
Track 2 not present in database
Track 3 not present in database
Track 4 not present in database
Track 5 not present in database
Track 6 not present in database
Track 7 not present in database
Track 8 not present in database
Track 9 not present in database
Track 10 not present in database
Track 11 not present in database
Track 12 not present in database
None of the tracks are present in the AccurateRip database
End of status report
==== Log checksum 31C283F2C0E83100B502D7044D3B30E7E8884DE45A8D9D9A6106A45EA46C5E25 ====

Содержание индексной карты (.CUE)

REM GENRE Disco
REM DATE 1980
REM DISCID B10AEB0C
REM COMMENT "ExactAudioCopy v1.0b3"
PERFORMER "Donna Summer"
TITLE "The Wanderer"
FILE "Donna Summer - The Wanderer.flac" WAVE
  TRACK 01 AUDIO
    TITLE "The Wanderer"
    PERFORMER "Donna Summer"
    INDEX 01 00:00:00
  TRACK 02 AUDIO
    TITLE "Looking Up"
    PERFORMER "Donna Summer"
    INDEX 00 03:47:08
    INDEX 01 03:48:27
  TRACK 03 AUDIO
    TITLE "Breakdown"
    PERFORMER "Donna Summer"
    INDEX 00 07:45:66
    INDEX 01 07:47:10
  TRACK 04 AUDIO
    TITLE "Grand Illusion"
    PERFORMER "Donna Summer"
    INDEX 00 11:55:35
    INDEX 01 11:56:51
  TRACK 05 AUDIO
    TITLE "Running For Cover"
    PERFORMER "Donna Summer"
    INDEX 00 15:50:55
    INDEX 01 15:52:05
  TRACK 06 AUDIO
    TITLE "Cold Love"
    PERFORMER "Donna Summer"
    INDEX 00 19:52:13
    INDEX 01 19:53:06
  TRACK 07 AUDIO
    TITLE "Who Do You Think You're Foolin'"
    PERFORMER "Donna Summer"
    INDEX 00 23:31:55
    INDEX 01 23:32:71
  TRACK 08 AUDIO
    TITLE "Nightlife"
    PERFORMER "Donna Summer"
    INDEX 00 27:50:55
    INDEX 01 27:52:06
  TRACK 09 AUDIO
    TITLE "Stop Me"
    PERFORMER "Donna Summer"
    INDEX 00 31:51:38
    INDEX 01 31:52:31
  TRACK 10 AUDIO
    TITLE "I Believe In Jesus"
    PERFORMER "Donna Summer"
    INDEX 00 35:35:64
    INDEX 01 35:37:43
  TRACK 11 AUDIO
    TITLE "Who Do You Think You're Foolin' (Stereo Edit) / Bonus Track"
    PERFORMER "Donna Summer"
    INDEX 00 39:15:30
    INDEX 01 39:16:64
  TRACK 12 AUDIO
    TITLE "Cold Love (Edit) / Bonus Track"
    PERFORMER "Donna Summer"
    INDEX 00 43:16:05
    INDEX 01 43:17:04

Лог проверки качества

-----------------------
DON'T MODIFY THIS FILE
-----------------------
PERFORMER: auCDtect Task Manager, ver. 1.6.0 RC1 build 1.6.0.1
Copyright (c) 2008-2010 y-soft. All rights reserved
http://y-soft.org
ANALYZER: auCDtect: CD records authenticity detector, version 0.8.2
Copyright (c) 2004 Oleg Berngardt. All rights reserved.
Copyright (c) 2004 Alexander Djourik. All rights reserved.
FILE: Donna Summer - The Wanderer.wav
Size: 493068620 Hash: B4836508BC23FA3FD67FA44B498F433C Accuracy: -m8
Conclusion: CDDA 100%
Signature: 159447EA66D9E4CB1833BE93B456476248855ADF
FILE: Donna Summer - The Wanderer.flac
Size: 323029112 Hash: B4836508BC23FA3FD67FA44B498F433C Accuracy: -m8
Conclusion: CDDA 100%
Signature: 3835861A8562356065D86F70342B8B2C473D4756

Скриншот спектра частот, Matrix

1982 Donna Summer

01. Love Is In Control (Finger On The Trigger)
02. Mystery Of Love
03. The Woman In Me
04. State Of Independence
05. Livin' In America
06. Protection
07. (If It) Hurts Just A Little
08. Love Is Just A Breath Away
09. Lush Life
Bonus Tracks
10. Sometimes Like Butterflies
11. Love Is In Control (Finger On The Trigger) (7'' Version)
12. Love Is In Control (Finger On The Trigger) (Dance Remix)
13. Love Is In Control (Finger On The Trigger) (Instrumental feat. Ernie Watts on Saxophone Solo)
14. State Of Independence (7'' Version)
15. State Of Independence (N.R.G. Mix)
16. State Of Independence (New Radio Millennium Mix)

Лог создания рипа

Exact Audio Copy V1.0 beta 3 from 29. August 2011
EAC extraction logfile from 10. December 2014, 19:43
Donna Summer / Donna Summer
Used drive : PLEXTOR BD-R PX-B950SA Adapter: 6 ID: 0
Read mode : Secure
Utilize accurate stream : Yes
Defeat audio cache : Yes
Make use of C2 pointers : No
Read offset correction : 6
Overread into Lead-In and Lead-Out : No
Fill up missing offset samples with silence : Yes
Delete leading and trailing silent blocks : No
Null samples used in CRC calculations : Yes
Used interface : Native Win32 interface for Win NT & 2000
Used output format : Internal WAV Routines
Sample format : 44.100 Hz; 16 Bit; Stereo
TOC of the extracted CD
Track | Start | Length | Start sector | End sector
---------------------------------------------------------
1 | 0:00.00 | 4:22.24 | 0 | 19673
2 | 4:22.24 | 4:27.33 | 19674 | 39731
3 | 8:49.57 | 3:56.09 | 39732 | 57440
4 | 12:45.66 | 5:50.69 | 57441 | 83759
5 | 18:36.60 | 4:43.15 | 83760 | 104999
6 | 23:20.00 | 3:37.48 | 105000 | 121322
7 | 26:57.48 | 3:54.41 | 121323 | 138913
8 | 30:52.14 | 3:54.66 | 138914 | 156529
9 | 34:47.05 | 6:28.66 | 156530 | 185695
10 | 41:15.71 | 4:29.54 | 185696 | 205924
11 | 45:45.50 | 3:43.53 | 205925 | 222702
12 | 49:29.28 | 7:07.69 | 222703 | 254796
13 | 56:37.22 | 7:05.24 | 254797 | 286695
14 | 63:42.46 | 4:26.49 | 286696 | 306694
15 | 68:09.20 | 5:35.12 | 306695 | 331831
16 | 73:44.32 | 5:02.62 | 331832 | 354543
Range status and errors
Selected range
Filename C:\Users\Meijin\Desktop\Lossless Galaxy ALLexxess\Donna Summer\2014 Donna - CD Collection (10CD Box Set Driven By The Music)\1982 Donna Summer\Donna Summer - Donna Summer.wav
Peak level 99.4 %
Extraction speed 8.6 X
Range quality 100.0 %
Test CRC CD2FB60F
Copy CRC CD2FB60F
Copy OK
No errors occurred
AccurateRip summary
Track 1 not present in database
Track 2 not present in database
Track 3 not present in database
Track 4 not present in database
Track 5 not present in database
Track 6 not present in database
Track 7 not present in database
Track 8 not present in database
Track 9 not present in database
Track 10 not present in database
Track 11 not present in database
Track 12 not present in database
Track 13 not present in database
Track 14 not present in database
Track 15 not present in database
Track 16 not present in database
None of the tracks are present in the AccurateRip database
End of status report
==== Log checksum 1AEAFDA7858D6C40BA2530E1F061B21632D66CED21A4495D621C84AAC033F7AD ====

Содержание индексной карты (.CUE)

REM GENRE Disco
REM DATE 1982
REM DISCID F5127710
REM COMMENT "ExactAudioCopy v1.0b3"
PERFORMER "Donna Summer"
TITLE "Donna Summer"
FILE "Donna Summer - Donna Summer.flac" WAVE
  TRACK 01 AUDIO
    TITLE "Love Is In Control (Finger On The Trigger)"
    PERFORMER "Donna Summer"
    INDEX 01 00:00:00
  TRACK 02 AUDIO
    TITLE "Mystery Of Love"
    PERFORMER "Donna Summer"
    INDEX 00 04:20:67
    INDEX 01 04:22:24
  TRACK 03 AUDIO
    TITLE "The Woman In Me"
    PERFORMER "Donna Summer"
    INDEX 00 08:48:06
    INDEX 01 08:49:57
  TRACK 04 AUDIO
    TITLE "State Of Independence"
    PERFORMER "Donna Summer"
    INDEX 00 12:44:35
    INDEX 01 12:45:66
  TRACK 05 AUDIO
    TITLE "Livin' In America"
    PERFORMER "Donna Summer"
    INDEX 00 18:35:53
    INDEX 01 18:36:60
  TRACK 06 AUDIO
    TITLE "Protection"
    PERFORMER "Donna Summer"
    INDEX 00 23:18:61
    INDEX 01 23:20:00
  TRACK 07 AUDIO
    TITLE "(If It) Hurts Just A Little"
    PERFORMER "Donna Summer"
    INDEX 00 26:56:54
    INDEX 01 26:57:48
  TRACK 08 AUDIO
    TITLE "Love Is Just A Breath Away"
    PERFORMER "Donna Summer"
    INDEX 00 30:50:70
    INDEX 01 30:52:14
  TRACK 09 AUDIO
    TITLE "Lush Life"
    PERFORMER "Donna Summer"
    INDEX 01 34:47:05
  TRACK 10 AUDIO
    TITLE "Sometimes Like Butterflies / Bonus Track"
    PERFORMER "Donna Summer"
    INDEX 00 41:14:10
    INDEX 01 41:15:71
  TRACK 11 AUDIO
    TITLE "Love Is In Control (Finger On The Trigger) (7'' Version) / Bonus Track"
    PERFORMER "Donna Summer"
    INDEX 00 45:44:13
    INDEX 01 45:45:50
  TRACK 12 AUDIO
    TITLE "Love Is In Control (Finger On The Trigger) (Dance Remix) / Bonus Track"
    PERFORMER "Donna Summer"
    INDEX 00 49:28:11
    INDEX 01 49:29:28
  TRACK 13 AUDIO
    TITLE "Love Is In Control (Finger On The Trigger) (Instrumental feat. Ernie Watts on..."
    PERFORMER "Donna Summer"
    INDEX 00 56:36:25
    INDEX 01 56:37:22
  TRACK 14 AUDIO
    TITLE "State Of Independence (7'' Version) / Bonus Track"
    PERFORMER "Donna Summer"
    INDEX 00 63:41:38
    INDEX 01 63:42:46
  TRACK 15 AUDIO
    TITLE "State Of Independence (N.R.G. Mix) / Bonus Track"
    PERFORMER "Donna Summer"
    INDEX 00 68:07:64
    INDEX 01 68:09:20
  TRACK 16 AUDIO
    TITLE "State Of Independence (New Radio Millennium Mix) / Bonus Track"
    PERFORMER "Donna Summer"
    INDEX 00 73:43:65
    INDEX 01 73:44:32

Лог проверки качества

-----------------------
DON'T MODIFY THIS FILE
-----------------------
PERFORMER: auCDtect Task Manager, ver. 1.6.0 RC1 build 1.6.0.1
Copyright (c) 2008-2010 y-soft. All rights reserved
http://y-soft.org
ANALYZER: auCDtect: CD records authenticity detector, version 0.8.2
Copyright (c) 2004 Oleg Berngardt. All rights reserved.
Copyright (c) 2004 Alexander Djourik. All rights reserved.
FILE: Donna Summer - Donna Summer.wav
Size: 833887532 Hash: EAD7490D3B2F72B44B9C11776D23C8AC Accuracy: -m8
Conclusion: CDDA 100%
Signature: 64C189410BAA4DB07165377C2945F595D855D750
FILE: Donna Summer - Donna Summer.flac
Size: 530529790 Hash: EAD7490D3B2F72B44B9C11776D23C8AC Accuracy: -m8
Conclusion: CDDA 100%
Signature: 80174B5D63381375977223160E50D6F6874741C7

Скриншот спектра частот, Matrix

1984 Cats Without Claws

01. Supernatural Love
02. It's Not The Way
03. There Goes My Baby
04. Suzanna
05. Cats Without Claws
06. Oh Billy, Please
07. Eyes
08. Maybe It's Over
09. I'm Free
10. Forgive Me
Bonus Tracks
11. Face The Music
12. Eyes (7'' Remix Edit)
13. Supernatural Love (Extended Dance Remix)
14. Eyes (Extended Mix)
15. I’m Free (Extended Mix)

Лог создания рипа

Exact Audio Copy V1.0 beta 3 from 29. August 2011
EAC extraction logfile from 9. December 2014, 20:44
Donna Summer / Cats Without Claws
Used drive : PLEXTOR BD-R PX-B950SA Adapter: 6 ID: 0
Read mode : Secure
Utilize accurate stream : Yes
Defeat audio cache : Yes
Make use of C2 pointers : No
Read offset correction : 6
Overread into Lead-In and Lead-Out : No
Fill up missing offset samples with silence : Yes
Delete leading and trailing silent blocks : No
Null samples used in CRC calculations : Yes
Used interface : Native Win32 interface for Win NT & 2000
Used output format : Internal WAV Routines
Sample format : 44.100 Hz; 16 Bit; Stereo
TOC of the extracted CD
Track | Start | Length | Start sector | End sector
---------------------------------------------------------
1 | 0:00.00 | 3:35.74 | 0 | 16198
2 | 3:35.74 | 4:24.42 | 16199 | 36040
3 | 8:00.41 | 4:08.10 | 36041 | 54650
4 | 12:08.51 | 4:30.65 | 54651 | 74965
5 | 16:39.41 | 4:24.26 | 74966 | 94791
6 | 21:03.67 | 4:56.61 | 94792 | 117052
7 | 26:00.53 | 4:47.07 | 117053 | 138584
8 | 30:47.60 | 4:44.11 | 138585 | 159895
9 | 35:31.71 | 4:30.00 | 159896 | 180145
10 | 40:01.71 | 4:30.38 | 180146 | 200433
11 | 44:32.34 | 4:17.25 | 200434 | 219733
12 | 48:49.59 | 3:48.41 | 219734 | 236874
13 | 52:38.25 | 6:13.09 | 236875 | 264858
14 | 58:51.34 | 7:00.02 | 264859 | 296360
15 | 65:51.36 | 6:21.17 | 296361 | 324952
Range status and errors
Selected range
Filename C:\Users\Meijin\Desktop\Lossless Galaxy ALLexxess\Donna Summer\2014 Donna - CD Collection (10CD Box Set Driven By The Music)\1984 Cats Without Claws\Donna Summer - Cats Without Claws.wav
Peak level 99.4 %
Extraction speed 8.1 X
Range quality 100.0 %
Test CRC 4A2CFEF4
Copy CRC 4A2CFEF4
Copy OK
No errors occurred
AccurateRip summary
Track 1 not present in database
Track 2 not present in database
Track 3 not present in database
Track 4 not present in database
Track 5 not present in database
Track 6 not present in database
Track 7 not present in database
Track 8 not present in database
Track 9 not present in database
Track 10 not present in database
Track 11 not present in database
Track 12 not present in database
Track 13 not present in database
Track 14 not present in database
Track 15 not present in database
None of the tracks are present in the AccurateRip database
End of status report

Содержание индексной карты (.CUE)

REM GENRE Disco
REM DATE 1984
REM DISCID B810EC0F
REM COMMENT "ExactAudioCopy v1.0b3"
PERFORMER "Donna Summer"
TITLE "Cats Without Claws"
FILE "Donna Summer - Cats Without Claws.flac" WAVE
  TRACK 01 AUDIO
    TITLE "Supernatural Love"
    PERFORMER "Donna Summer"
    INDEX 01 00:00:00
  TRACK 02 AUDIO
    TITLE "It's Not The Way"
    PERFORMER "Donna Summer"
    INDEX 00 03:35:03
    INDEX 01 03:35:74
  TRACK 03 AUDIO
    TITLE "There Goes My Baby"
    PERFORMER "Donna Summer"
    INDEX 00 07:58:62
    INDEX 01 08:00:41
  TRACK 04 AUDIO
    TITLE "Suzanna"
    PERFORMER "Donna Summer"
    INDEX 00 12:06:72
    INDEX 01 12:08:51
  TRACK 05 AUDIO
    TITLE "Cats Without Claws"
    PERFORMER "Donna Summer"
    INDEX 00 16:38:61
    INDEX 01 16:39:41
  TRACK 06 AUDIO
    TITLE "Oh Billy, Please"
    PERFORMER "Donna Summer"
    INDEX 00 21:02:34
    INDEX 01 21:03:67
  TRACK 07 AUDIO
    TITLE "Eyes"
    PERFORMER "Donna Summer"
    INDEX 00 26:00:00
    INDEX 01 26:00:53
  TRACK 08 AUDIO
    TITLE "Maybe It's Over"
    PERFORMER "Donna Summer"
    INDEX 00 30:46:33
    INDEX 01 30:47:60
  TRACK 09 AUDIO
    TITLE "I'm Free"
    PERFORMER "Donna Summer"
    INDEX 00 35:30:56
    INDEX 01 35:31:71
  TRACK 10 AUDIO
    TITLE "Forgive Me"
    PERFORMER "Donna Summer"
    INDEX 00 40:01:44
    INDEX 01 40:01:71
  TRACK 11 AUDIO
    TITLE "Face The Music / Bonus Track"
    PERFORMER "Donna Summer"
    INDEX 00 44:30:70
    INDEX 01 44:32:34
  TRACK 12 AUDIO
    TITLE "Eyes (7'' Remix Edit) / Bonus Track"
    PERFORMER "Donna Summer"
    INDEX 00 48:47:74
    INDEX 01 48:49:59
  TRACK 13 AUDIO
    TITLE "Supernatural Love (Extended Dance Remix) / Bonus Track"
    PERFORMER "Donna Summer"
    INDEX 00 52:36:68
    INDEX 01 52:38:25
  TRACK 14 AUDIO
    TITLE "Eyes (Extended Mix) / Bonus Track"
    PERFORMER "Donna Summer"
    INDEX 00 58:49:44
    INDEX 01 58:51:34
  TRACK 15 AUDIO
    TITLE "I’m Free (Extended Mix) / Bonus Track"
    PERFORMER "Donna Summer"
    INDEX 00 65:49:27
    INDEX 01 65:51:36

Лог проверки качества

-----------------------
DON'T MODIFY THIS FILE
-----------------------
PERFORMER: auCDtect Task Manager, ver. 1.6.0 RC1 build 1.6.0.1
Copyright (c) 2008-2010 y-soft. All rights reserved
http://y-soft.org
ANALYZER: auCDtect: CD records authenticity detector, version 0.8.2
Copyright (c) 2004 Oleg Berngardt. All rights reserved.
Copyright (c) 2004 Alexander Djourik. All rights reserved.
FILE: Donna Summer - Cats Without Claws.wav
Size: 764289500 Hash: A1C1A8C8EB4E633BC627C742BCD692EB Accuracy: -m8
Conclusion: MPEG 95%
Signature: 2952BF2E186FAB8114A0EEA048E0EB090E9F9B0C
FILE: Donna Summer - Cats Without Claws.flac
Size: 535235036 Hash: A1C1A8C8EB4E633BC627C742BCD692EB Accuracy: -m8
Conclusion: MPEG 95%
Signature: 6FE3DAE450E71AC50991FED1A0A80E6AD110CE53

Скриншот спектра частот, Matrix

1987 All Systems Go

01. All Systems Go
02. Bad Reputation
03. Love Shock
04. Jeremy
05. Only The Fool Survives (Duet with Mickey Thomas)
06. Dinner With Gershwin
07. Fascination
08. Voices Cryin' Out
09. Thinkin' Bout My Baby
Bonus Tracks
10. Tearin' Down The Walls
11. All Systems Go (Edit)
12. All Systems Go (Extended Remix)
13. Dinner With Gershwin (Edit)
14. Dinner With Gershwin (Extended Version)
15. Dinner With Gershwin (Instrumental)
16. Only The Fool Survives (Edit / Duet with Mickey Thomas)

Лог создания рипа

Exact Audio Copy V1.0 beta 3 from 29. August 2011
EAC extraction logfile from 9. December 2014, 19:55
Donna Summer / All Systems Go
Used drive : PLEXTOR BD-R PX-B950SA Adapter: 6 ID: 0
Read mode : Secure
Utilize accurate stream : Yes
Defeat audio cache : Yes
Make use of C2 pointers : No
Read offset correction : 6
Overread into Lead-In and Lead-Out : No
Fill up missing offset samples with silence : Yes
Delete leading and trailing silent blocks : No
Null samples used in CRC calculations : Yes
Used interface : Native Win32 interface for Win NT & 2000
Used output format : Internal WAV Routines
Sample format : 44.100 Hz; 16 Bit; Stereo
TOC of the extracted CD
Track | Start | Length | Start sector | End sector
---------------------------------------------------------
1 | 0:00.00 | 4:13.63 | 0 | 19037
2 | 4:13.63 | 4:15.59 | 19038 | 38221
3 | 8:29.47 | 4:17.46 | 38222 | 57542
4 | 12:47.18 | 4:40.74 | 57543 | 78616
5 | 17:28.17 | 4:42.48 | 78617 | 99814
6 | 22:10.65 | 4:39.30 | 99815 | 120769
7 | 26:50.20 | 4:31.01 | 120770 | 141095
8 | 31:21.21 | 5:21.71 | 141096 | 165241
9 | 36:43.17 | 6:21.71 | 165242 | 193887
10 | 43:05.13 | 3:58.58 | 193888 | 211795
11 | 47:03.71 | 3:59.56 | 211796 | 229776
12 | 51:03.52 | 7:56.11 | 229777 | 265487
13 | 58:59.63 | 4:11.58 | 265488 | 284370
14 | 63:11.46 | 7:46.19 | 284371 | 319339
15 | 70:57.65 | 4:56.43 | 319340 | 341582
16 | 75:54.33 | 4:03.64 | 341583 | 359871
Range status and errors
Selected range
Filename C:\Users\Meijin\Desktop\Lossless Galaxy ALLexxess\Donna Summer\2014 Donna - CD Collection (10CD Box Set Driven By The Music)\1987 All Systems Go\Donna Summer - All Systems Go.wav
Peak level 99.4 %
Extraction speed 8.8 X
Range quality 100.0 %
Test CRC D28CE230
Copy CRC D28CE230
Copy OK
No errors occurred
AccurateRip summary
Track 1 not present in database
Track 2 not present in database
Track 3 not present in database
Track 4 not present in database
Track 5 not present in database
Track 6 not present in database
Track 7 not present in database
Track 8 not present in database
Track 9 not present in database
Track 10 not present in database
Track 11 not present in database
Track 12 not present in database
Track 13 not present in database
Track 14 not present in database
Track 15 not present in database
Track 16 not present in database
None of the tracks are present in the AccurateRip database
End of status report
==== Log checksum B4F0F7B525E073B409160B60625448921BAF004AA690EF330C7036A2F77EBEF4 ====

Содержание индексной карты (.CUE)

REM GENRE Disco
REM DATE 1987
REM DISCID E112BE10
REM COMMENT "ExactAudioCopy v1.0b3"
PERFORMER "Donna Summer"
TITLE "All Systems Go"
FILE "Donna Summer - All Systems Go.flac" WAVE
  TRACK 01 AUDIO
    TITLE "All Systems Go"
    PERFORMER "Donna Summer"
    INDEX 01 00:00:00
  TRACK 02 AUDIO
    TITLE "Bad Reputation"
    PERFORMER "Donna Summer"
    INDEX 00 04:12:43
    INDEX 01 04:13:63
  TRACK 03 AUDIO
    TITLE "Love Shock "
    PERFORMER "Donna Summer"
    INDEX 00 08:28:25
    INDEX 01 08:29:47
  TRACK 04 AUDIO
    TITLE "Jeremy"
    PERFORMER "Donna Summer"
    INDEX 00 12:46:03
    INDEX 01 12:47:18
  TRACK 05 AUDIO
    TITLE "Only The Fool Survives (Duet with Mickey Thomas)"
    PERFORMER "Donna Summer"
    INDEX 00 17:26:56
    INDEX 01 17:28:17
  TRACK 06 AUDIO
    TITLE "Dinner With Gershwin"
    PERFORMER "Donna Summer"
    INDEX 00 22:09:64
    INDEX 01 22:10:65
  TRACK 07 AUDIO
    TITLE "Fascination"
    PERFORMER "Donna Summer"
    INDEX 00 26:49:10
    INDEX 01 26:50:20
  TRACK 08 AUDIO
    TITLE "Voices Cryin' Out"
    PERFORMER "Donna Summer"
    INDEX 00 31:19:70
    INDEX 01 31:21:21
  TRACK 09 AUDIO
    TITLE "Thinkin' Bout My Baby"
    PERFORMER "Donna Summer"
    INDEX 00 36:41:52
    INDEX 01 36:43:17
  TRACK 10 AUDIO
    TITLE "Tearin' Down The Walls / Bonus Track"
    PERFORMER "Donna Summer"
    INDEX 00 43:03:36
    INDEX 01 43:05:13
  TRACK 11 AUDIO
    TITLE "All Systems Go (Edit) / Bonus Track"
    PERFORMER "Donna Summer"
    INDEX 00 47:02:64
    INDEX 01 47:03:71
  TRACK 12 AUDIO
    TITLE "All Systems Go (Extended Remix) / Bonus Track"
    PERFORMER "Donna Summer"
    INDEX 00 51:02:66
    INDEX 01 51:03:52
  TRACK 13 AUDIO
    TITLE "Dinner With Gershwin (Edit) / Bonus Track"
    PERFORMER "Donna Summer"
    INDEX 00 58:59:06
    INDEX 01 58:59:63
  TRACK 14 AUDIO
    TITLE "Dinner With Gershwin (Extended Version) / Bonus Track"
    PERFORMER "Donna Summer"
    INDEX 00 63:10:36
    INDEX 01 63:11:46
  TRACK 15 AUDIO
    TITLE "Dinner With Gershwin (Instrumental) / Bonus Track"
    PERFORMER "Donna Summer"
    INDEX 00 70:56:73
    INDEX 01 70:57:65
  TRACK 16 AUDIO
    TITLE "Only The Fool Survives (Edit / Duet with Mickey Thomas) / Bonus Track"
    PERFORMER "Donna Summer"
    INDEX 00 75:53:54
    INDEX 01 75:54:33

Лог проверки качества

-----------------------
DON'T MODIFY THIS FILE
-----------------------
PERFORMER: auCDtect Task Manager, ver. 1.6.0 RC1 build 1.6.0.1
Copyright (c) 2008-2010 y-soft. All rights reserved
http://y-soft.org
ANALYZER: auCDtect: CD records authenticity detector, version 0.8.2
Copyright (c) 2004 Oleg Berngardt. All rights reserved.
Copyright (c) 2004 Alexander Djourik. All rights reserved.
FILE: Donna Summer - All Systems Go.wav
Size: 846418988 Hash: 2DE380BD17606109B02C8396F9010442 Accuracy: -m8
Conclusion: CDDA 100%
Signature: 47CF34DF6FE6DD6E085C761F9807C668F8515A82
FILE: Donna Summer - All Systems Go.flac
Size: 607687618 Hash: 2DE380BD17606109B02C8396F9010442 Accuracy: -m8
Conclusion: CDDA 100%
Signature: A10C6C6BF8E8AD28D5D37261C7EDBDFB85975724

Скриншот спектра частот, Matrix

1989 Another Place And Time 3CD

CD -1
01. I Don't Wanna Get Hurt
02. When Love Takes Over You
03. This Time I Know It's For Real
04. The Only One
05. In Another Place And Time
06. Sentimental
07. Whatever Your Heart Desires
08. Breakaway
09. If It Makes You Feel Good
10. Love’s About To Change My Heart

CD -2
01. Breakaway (Power Radio Mix)
02. Breakaway (Extended Power Mix)
03. Breakaway (Remix / Full Version)
04. Breakaway (Remix / Edit)
05. Breakaway (Instrumental Remix / Edit)
06. I Don't Wanna Get Hurt (Phil Harding 12'' Version)
07. I Don't Wanna Get Hurt (Instrumental)
08. I Don't Wanna Get Hurt (7'' Remix)
09. I Don't Wanna Get Hurt (Pete Hammond Original 12'' Version)
10. If It Makes You Feel Good (Pete Hammond Remix Instrumental)
11. Sentimental (Instrumental)
12. This Time I Know It's For Real (Extended Remix)
13. This Time I Know It's For Real (Instrumental)

CD -3
01. When Love Takes Over You (Dave Ford 7’’)
02. When Love Takes Over You (Dave Ford Extended Remix)
03. When Love Takes Over You (Dave Ford Instrumental)
04. When Love Takes Over You (Pete Hammond Original 12’’ Mix)
05. The Only One (Instrumental)
06. Whatever Your Heart Desires (Instrumental)
07. Love's About To Change My Heart (Clivillés & Cole 12’’ Mix)
08. Love's About To Change My Heart (Clivillés & Cole 7’’ Mix)
09. Love's About To Change My Heart (Extended Remix)
10. Love's About To Change My Heart (Instrumental)
11. Love's About To Change My Heart (Love Dub)
12. Love's About To Change My Heart (Dub)
13. Love's About To Change My Heart (Loveland’s Full-On 7’’ Radio Edit)
14. Love's About To Change My Heart (PWL 7'' Mix)

Лог создания рипа

CD 1

Exact Audio Copy V1.0 beta 3 from 29. August 2011
EAC extraction logfile from 8. December 2014, 11:31
Donna Summer / Another Place And Time CD1
Used drive : PLEXTOR BD-R PX-B950SA Adapter: 6 ID: 0
Read mode : Secure
Utilize accurate stream : Yes
Defeat audio cache : Yes
Make use of C2 pointers : No
Read offset correction : 6
Overread into Lead-In and Lead-Out : No
Fill up missing offset samples with silence : Yes
Delete leading and trailing silent blocks : No
Null samples used in CRC calculations : Yes
Used interface : Native Win32 interface for Win NT & 2000
Used output format : Internal WAV Routines
Sample format : 44.100 Hz; 16 Bit; Stereo
TOC of the extracted CD
Track | Start | Length | Start sector | End sector
---------------------------------------------------------
1 | 0:00.00 | 3:29.31 | 0 | 15705
2 | 3:29.31 | 4:14.06 | 15706 | 34761
3 | 7:43.37 | 3:38.53 | 34762 | 51164
4 | 11:22.15 | 3:55.55 | 51165 | 68844
5 | 15:17.70 | 3:22.42 | 68845 | 84036
6 | 18:40.37 | 3:11.24 | 84037 | 98385
7 | 21:51.61 | 3:53.26 | 98386 | 115886
8 | 25:45.12 | 4:03.66 | 115887 | 134177
9 | 29:49.03 | 3:46.32 | 134178 | 151159
10 | 33:35.35 | 4:06.19 | 151160 | 169628
Range status and errors
Selected range
Filename C:\Users\Meijin\Desktop\Lossless Galaxy ALLexxess\Donna Summer\2014 Donna - CD Collection (10CD Box Set Driven By The Music)\1989 Another Place And Time 3CD\CD1\Donna Summer - Another Place And Time CD1.wav
Peak level 99.4 %
Extraction speed 7.0 X
Range quality 100.0 %
Test CRC BD7584AC
Copy CRC BD7584AC
Copy OK
No errors occurred
AccurateRip summary
Track 1 not present in database
Track 2 not present in database
Track 3 not present in database
Track 4 not present in database
Track 5 not present in database
Track 6 not present in database
Track 7 not present in database
Track 8 not present in database
Track 9 not present in database
Track 10 not present in database
None of the tracks are present in the AccurateRip database
End of status report
==== Log checksum F128F2803C242839CC74D922AF62485A3EC1B131C0F31A2480A3A51B33AF20C9 ====

CD 2

Exact Audio Copy V1.0 beta 3 from 29. August 2011
EAC extraction logfile from 8. December 2014, 11:00
Donna Summer / Another Place And Time CD2
Used drive : PLEXTOR BD-R PX-B950SA Adapter: 6 ID: 0
Read mode : Secure
Utilize accurate stream : Yes
Defeat audio cache : Yes
Make use of C2 pointers : No
Read offset correction : 6
Overread into Lead-In and Lead-Out : No
Fill up missing offset samples with silence : Yes
Delete leading and trailing silent blocks : No
Null samples used in CRC calculations : Yes
Used interface : Native Win32 interface for Win NT & 2000
Used output format : Internal WAV Routines
Sample format : 44.100 Hz; 16 Bit; Stereo
TOC of the extracted CD
Track | Start | Length | Start sector | End sector
---------------------------------------------------------
1 | 0:00.00 | 4:06.11 | 0 | 18460
2 | 4:06.11 | 6:11.53 | 18461 | 46338
3 | 10:17.64 | 6:46.20 | 46339 | 76808
4 | 17:04.09 | 3:36.24 | 76809 | 93032
5 | 20:40.33 | 3:46.10 | 93033 | 109992
6 | 24:26.43 | 7:01.04 | 109993 | 141571
7 | 31:27.47 | 4:47.60 | 141572 | 163156
8 | 36:15.32 | 3:33.52 | 163157 | 179183
9 | 39:49.09 | 7:24.25 | 179184 | 212508
10 | 47:13.34 | 4:08.36 | 212509 | 231144
11 | 51:21.70 | 3:12.02 | 231145 | 245546
12 | 54:33.72 | 7:23.70 | 245547 | 278841
13 | 61:57.67 | 3:36.36 | 278842 | 295077
Range status and errors
Selected range
Filename C:\Users\Meijin\Desktop\Lossless Galaxy ALLexxess\Donna Summer\2014 Donna - CD Collection (10CD Box Set Driven By The Music)\1989 Another Place And Time 3CD\CD2\Donna Summer - Another Place And Time CD2.wav
Peak level 99.4 %
Extraction speed 8.1 X
Range quality 100.0 %
Test CRC BADF6810
Copy CRC BADF6810
Copy OK
No errors occurred
AccurateRip summary
Track 1 not present in database
Track 2 not present in database
Track 3 not present in database
Track 4 not present in database
Track 5 not present in database
Track 6 not present in database
Track 7 not present in database
Track 8 not present in database
Track 9 not present in database
Track 10 not present in database
Track 11 not present in database
Track 12 not present in database
Track 13 not present in database
None of the tracks are present in the AccurateRip database
End of status report
==== Log checksum 4292AFF251EF1E40875D5A01D59035A5311B0420319E146B3AE8976D6BCC9307 ====

CD 3

Exact Audio Copy V1.0 beta 3 from 29. August 2011
EAC extraction logfile from 8. December 2014, 10:21
Donna Summer / Another Place And Time CD3
Used drive : PLEXTOR BD-R PX-B950SA Adapter: 6 ID: 0
Read mode : Secure
Utilize accurate stream : Yes
Defeat audio cache : Yes
Make use of C2 pointers : No
Read offset correction : 6
Overread into Lead-In and Lead-Out : No
Fill up missing offset samples with silence : Yes
Delete leading and trailing silent blocks : No
Null samples used in CRC calculations : Yes
Used interface : Native Win32 interface for Win NT & 2000
Used output format : Internal WAV Routines
Sample format : 44.100 Hz; 16 Bit; Stereo
TOC of the extracted CD
Track | Start | Length | Start sector | End sector
---------------------------------------------------------
1 | 0:00.00 | 3:38.47 | 0 | 16396
2 | 3:38.47 | 6:15.24 | 16397 | 44545
3 | 9:53.71 | 3:37.70 | 44546 | 60890
4 | 13:31.66 | 7:04.09 | 60891 | 92699
5 | 20:36.00 | 3:55.22 | 92700 | 110346
6 | 24:31.22 | 3:54.02 | 110347 | 127898
7 | 28:25.24 | 7:48.06 | 127899 | 163004
8 | 36:13.30 | 4:23.42 | 163005 | 182771
9 | 40:36.72 | 6:20.22 | 182772 | 211293
10 | 46:57.19 | 5:16.12 | 211294 | 235005
11 | 52:13.31 | 7:15.03 | 235006 | 267633
12 | 59:28.34 | 8:28.58 | 267634 | 305791
13 | 67:57.17 | 4:02.14 | 305792 | 323955
14 | 71:59.31 | 3:47.55 | 323956 | 341035
Range status and errors
Selected range
Filename C:\Users\Meijin\Desktop\Lossless Galaxy ALLexxess\Donna Summer\2014 Donna - CD Collection (10CD Box Set Driven By The Music)\1989 Another Place And Time 3CD\CD3\Donna Summer - Another Place And Time CD3.wav
Peak level 99.4 %
Extraction speed 8.3 X
Range quality 100.0 %
Test CRC E846B5A1
Copy CRC E846B5A1
Copy OK
No errors occurred
AccurateRip summary
Track 1 not present in database
Track 2 not present in database
Track 3 not present in database
Track 4 not present in database
Track 5 not present in database
Track 6 not present in database
Track 7 not present in database
Track 8 not present in database
Track 9 not present in database
Track 10 not present in database
Track 11 not present in database
Track 12 not present in database
Track 13 not present in database
Track 14 not present in database
None of the tracks are present in the AccurateRip database
End of status report
==== Log checksum DD0D81B5ABDB84D38A7C68A1BFF42C50030848A63EB39C47ACE276DC1A3BE6AC ====

Содержание индексной карты (.CUE)

CD 1

REM GENRE Disco
REM DATE 1989
REM DISCID 7508D50A
REM COMMENT "ExactAudioCopy v1.0b3"
PERFORMER "Donna Summer"
TITLE "Another Place And Time CD1"
FILE "Donna Summer - Another Place And Time CD1.flac" WAVE
TRACK 01 AUDIO
TITLE "I Don't Wanna Get Hurt"
PERFORMER "Donna Summer"
INDEX 01 00:00:00
TRACK 02 AUDIO
TITLE "When Love Takes Over You"
PERFORMER "Donna Summer"
INDEX 00 03:28:45
INDEX 01 03:29:31
TRACK 03 AUDIO
TITLE "This Time I Know It's For Real"
PERFORMER "Donna Summer"
INDEX 00 07:42:05
INDEX 01 07:43:37
TRACK 04 AUDIO
TITLE "The Only One"
PERFORMER "Donna Summer"
INDEX 00 11:20:67
INDEX 01 11:22:15
TRACK 05 AUDIO
TITLE "In Another Place And Time"
PERFORMER "Donna Summer"
INDEX 00 15:16:71
INDEX 01 15:17:70
TRACK 06 AUDIO
TITLE "Sentimental"
PERFORMER "Donna Summer"
INDEX 00 18:39:70
INDEX 01 18:40:37
TRACK 07 AUDIO
TITLE "Whatever Your Heart Desires"
PERFORMER "Donna Summer"
INDEX 00 21:51:06
INDEX 01 21:51:61
TRACK 08 AUDIO
TITLE "Breakaway"
PERFORMER "Donna Summer"
INDEX 00 25:44:19
INDEX 01 25:45:12
TRACK 09 AUDIO
TITLE "If It Makes You Feel Good"
PERFORMER "Donna Summer"
INDEX 00 29:47:62
INDEX 01 29:49:03
TRACK 10 AUDIO
TITLE "Love's About To Change My Heart"
PERFORMER "Donna Summer"
INDEX 00 33:34:11
INDEX 01 33:35:35

CD 2

REM GENRE Disco
REM DATE 1989
REM DISCID C40F5E0D
REM COMMENT "ExactAudioCopy v1.0b3"
PERFORMER "Donna Summer"
TITLE "Another Place And Time CD2"
FILE "Donna Summer - Another Place And Time CD2.flac" WAVE
TRACK 01 AUDIO
TITLE "Breakaway (Power Radio Mix)"
PERFORMER "Donna Summer"
INDEX 01 00:00:00
TRACK 02 AUDIO
TITLE "Breakaway (Extended Power Mix)"
PERFORMER "Donna Summer"
INDEX 00 04:05:06
INDEX 01 04:06:11
TRACK 03 AUDIO
TITLE "Breakaway (Remix / Full Version)"
PERFORMER "Donna Summer"
INDEX 00 10:16:21
INDEX 01 10:17:64
TRACK 04 AUDIO
TITLE "Breakaway (Remix / Edit)"
PERFORMER "Donna Summer"
INDEX 00 17:02:41
INDEX 01 17:04:09
TRACK 05 AUDIO
TITLE "Breakaway (Instrumental Remix / Edit)"
PERFORMER "Donna Summer"
INDEX 00 20:39:17
INDEX 01 20:40:33
TRACK 06 AUDIO
TITLE "I Don't Wanna Get Hurt (12' Version)"
PERFORMER "Donna Summer"
INDEX 00 24:25:62
INDEX 01 24:26:43
TRACK 07 AUDIO
TITLE "I Don't Wanna Get Hurt (Instrumental)"
PERFORMER "Donna Summer"
INDEX 00 31:26:30
INDEX 01 31:27:47
TRACK 08 AUDIO
TITLE "I Don't Wanna Get Hurt (7' Remix)"
PERFORMER "Donna Summer"
INDEX 00 36:14:20
INDEX 01 36:15:32
TRACK 09 AUDIO
TITLE "I Don't Wanna Get Hurt (Pete Hammond Orginal 12' Mix)"
PERFORMER "Donna Summer"
INDEX 00 39:47:59
INDEX 01 39:49:09
TRACK 10 AUDIO
TITLE "If It Makes You Feel Good (Pete Hammon Remix Intrumental)"
PERFORMER "Donna Summer"
INDEX 00 47:11:71
INDEX 01 47:13:34
TRACK 11 AUDIO
TITLE "Sentimental (Intrumental)"
PERFORMER "Donna Summer"
INDEX 00 51:20:25
INDEX 01 51:21:70
TRACK 12 AUDIO
TITLE "This Time I Know It's For Real (Extended Remix)"
PERFORMER "Donna Summer"
INDEX 00 54:32:40
INDEX 01 54:33:72
TRACK 13 AUDIO
TITLE "This Time I know It's For Real (Intrumental)"
PERFORMER "Donna Summer"
INDEX 00 61:56:22
INDEX 01 61:57:67

CD 3

REM GENRE Disco
REM DATE 1989
REM DISCID BE11C30E
REM COMMENT "ExactAudioCopy v1.0b3"
PERFORMER "Donna Summer"
TITLE "Another Place And Time CD3"
FILE "Donna Summer - Another Place And Time CD3.flac" WAVE
TRACK 01 AUDIO
TITLE "When Takes Over You ( Dave Ford 7')"
PERFORMER "Donna Summer"
INDEX 01 00:00:00
TRACK 02 AUDIO
TITLE "When Takes Over You (Dave Ford Extended Remix)"
PERFORMER "Donna Summer"
INDEX 00 03:38:16
INDEX 01 03:38:47
TRACK 03 AUDIO
TITLE "When Takes Over You ( Dave Ford Intrumental)"
PERFORMER "Donna Summer"
INDEX 00 09:52:37
INDEX 01 09:53:71
TRACK 04 AUDIO
TITLE "When Takes Over You ( Pete Hammond Original 12' Mix)"
PERFORMER "Donna Summer"
INDEX 00 13:30:07
INDEX 01 13:31:66
TRACK 05 AUDIO
TITLE "The Only One (Intrumental)"
PERFORMER "Donna Summer"
INDEX 00 20:34:54
INDEX 01 20:36:00
TRACK 06 AUDIO
TITLE "Whatever Your Heart Desires (Instrumental)"
PERFORMER "Donna Summer"
INDEX 00 24:30:72
INDEX 01 24:31:22
TRACK 07 AUDIO
TITLE "Love's About To Change My Heart (Culvilles & Cole 12' Mix)"
PERFORMER "Donna Summer"
INDEX 00 28:24:16
INDEX 01 28:25:24
TRACK 08 AUDIO
TITLE "Love's About To Change My Heart (Culvilles & Cole 7' Mix)"
PERFORMER "Donna Summer"
INDEX 00 36:12:35
INDEX 01 36:13:30
TRACK 09 AUDIO
TITLE "Love's About To Change My Heart (Extended Remix)"
PERFORMER "Donna Summer"
INDEX 00 40:35:25
INDEX 01 40:36:72
TRACK 10 AUDIO
TITLE "Love's About To Change My Heart (Instrumental)"
PERFORMER "Donna Summer"
INDEX 00 46:55:55
INDEX 01 46:57:19
TRACK 11 AUDIO
TITLE "Love's About To Change My Heart (Love Dub)"
PERFORMER "Donna Summer"
INDEX 00 52:11:50
INDEX 01 52:13:31
TRACK 12 AUDIO
TITLE "Love's About To Change My Heart (Dub)"
PERFORMER "Donna Summer"
INDEX 00 59:26:71
INDEX 01 59:28:34
TRACK 13 AUDIO
TITLE "Love's About To Change My Heart (Loveland's Full-On 7' Radio Edit)"
PERFORMER "Donna Summer"
INDEX 00 67:55:11
INDEX 01 67:57:17
TRACK 14 AUDIO
TITLE "Love's About To Change My Heart (PWL 7' Mix)"
PERFORMER "Donna Summer"
INDEX 00 71:58:07
INDEX 01 71:59:31

Лог проверки качества

CD 1

-----------------------
DON'T MODIFY THIS FILE
-----------------------
PERFORMER: auCDtect Task Manager, ver. 1.6.0 RC1 build 1.6.0.1
Copyright (c) 2008-2010 y-soft. All rights reserved
[url=http://y-soft.org]http://y-soft.org[/url]
ANALYZER: auCDtect: CD records authenticity detector, version 0.8.2
Copyright (c) 2004 Oleg Berngardt. All rights reserved.
Copyright (c) 2004 Alexander Djourik. All rights reserved.
FILE: Donna Summer - Another Place And Time CD1.wav
Size: 398967452 Hash: 9EC01D5590FD256F5B99B064A683F01F Accuracy: -m8
Conclusion: MPEG 95%
Signature: F9666010248E8FB5B650B35600582AD0C4F31C09
FILE: Donna Summer - Another Place And Time CD1.flac
Size: 295738341 Hash: 9EC01D5590FD256F5B99B064A683F01F Accuracy: -m8
Conclusion: MPEG 95%
Signature: C1690F3F33C3A336D498264C8246669F3E836DA1

CD 2

-----------------------
DON'T MODIFY THIS FILE
-----------------------
PERFORMER: auCDtect Task Manager, ver. 1.6.0 RC1 build 1.6.0.1
Copyright (c) 2008-2010 y-soft. All rights reserved
[url=http://y-soft.org]http://y-soft.org[/url]
ANALYZER: auCDtect: CD records authenticity detector, version 0.8.2
Copyright (c) 2004 Oleg Berngardt. All rights reserved.
Copyright (c) 2004 Alexander Djourik. All rights reserved.
FILE: Donna Summer - Another Place And Time CD2.wav
Size: 694023500 Hash: 0026F1483289C41DA1058C173FD5CD70 Accuracy: -m8
Conclusion: CDDA 99%
Signature: 1060294CF1800B36854C639205A4B01E9D696F5B
FILE: Donna Summer - Another Place And Time CD2.flac
Size: 494520610 Hash: 0026F1483289C41DA1058C173FD5CD70 Accuracy: -m8
Conclusion: CDDA 99%
Signature: C987CA6500070BB9F5980CAA35318C27D4F6F2E0

CD 3

-----------------------
DON'T MODIFY THIS FILE
-----------------------
PERFORMER: auCDtect Task Manager, ver. 1.6.0 RC1 build 1.6.0.1
Copyright (c) 2008-2010 y-soft. All rights reserved
[url=http://y-soft.org]http://y-soft.org[/url]
ANALYZER: auCDtect: CD records authenticity detector, version 0.8.2
Copyright (c) 2004 Oleg Berngardt. All rights reserved.
Copyright (c) 2004 Alexander Djourik. All rights reserved.
FILE: Donna Summer - Another Place And Time CD3.wav
Size: 802116716 Hash: C9D4D044382C5B9ECB024F8C257EF0B8 Accuracy: -m8
Conclusion: CDDA 100%
Signature: 269D1718FF6C010D1E88A9C6DB192165E82D968B
FILE: Donna Summer - Another Place And Time CD3.flac
Size: 576311810 Hash: C9D4D044382C5B9ECB024F8C257EF0B8 Accuracy: -m8
Conclusion: CDDA 100%
Signature: 7725A18D431D2050DD56559D7998A63B55FCFFA6

Скриншот спектра частот, Matrix

CD 1

CD 2

CD 3

1991 Mistaken Identity

01. Get Ethnic
02. Body Talk
03. Work That Magic
04. When Love Cries
05. Heaven's Just A Whisper Away
06. Cry Of A Waking Heart
07. Friends Unknown
08. Fred Astaire
09. Say A Little Prayer
10. Mistaken Identity
11. What Is It You Want
12. Let There Be Peace
Bonus Tracks
13. When Love Cries (Single Version Remix)
14. When Love Cries (Vocal Club Dub aka Summertime Remix)
15. Work That Magic (ISA Extended Remix)

Лог создания рипа

Exact Audio Copy V1.0 beta 3 from 29. August 2011
EAC extraction logfile from 7. December 2014, 12:08
Donna Summer / Mistaken Identity
Used drive : PLEXTOR BD-R PX-B950SA Adapter: 6 ID: 0
Read mode : Secure
Utilize accurate stream : Yes
Defeat audio cache : Yes
Make use of C2 pointers : No
Read offset correction : 6
Overread into Lead-In and Lead-Out : No
Fill up missing offset samples with silence : Yes
Delete leading and trailing silent blocks : No
Null samples used in CRC calculations : Yes
Used interface : Native Win32 interface for Win NT & 2000
Used output format : Internal WAV Routines
Sample format : 44.100 Hz; 16 Bit; Stereo
TOC of the extracted CD
Track | Start | Length | Start sector | End sector
---------------------------------------------------------
1 | 0:00.00 | 5:23.49 | 0 | 24273
2 | 5:23.49 | 5:01.17 | 24274 | 46865
3 | 10:24.66 | 4:59.38 | 46866 | 69328
4 | 15:24.29 | 5:16.67 | 69329 | 93095
5 | 20:41.21 | 4:18.04 | 93096 | 112449
6 | 24:59.25 | 4:37.67 | 112450 | 133291
7 | 29:37.17 | 3:45.45 | 133292 | 150211
8 | 33:22.62 | 4:41.58 | 150212 | 171344
9 | 38:04.45 | 4:09.33 | 171345 | 190052
10 | 42:14.03 | 4:10.42 | 190053 | 208844
11 | 46:24.45 | 4:42.71 | 208845 | 230065
12 | 51:07.41 | 4:00.22 | 230066 | 248087
13 | 55:07.63 | 4:11.49 | 248088 | 266961
14 | 59:19.37 | 7:38.07 | 266962 | 301318
15 | 66:57.44 | 6:19.36 | 301319 | 329779
Range status and errors
Selected range
Filename C:\Users\Meijin\Desktop\Lossless Galaxy ALLexxess\Donna Summer\2014 Donna - CD Collection (10CD Box Set Driven By The Music)\1991 Mistaken Identity\Donna Summer - Mistaken Identity.wav
Peak level 99.4 %
Extraction speed 8.1 X
Range quality 100.0 %
Test CRC D0A7B23B
Copy CRC D0A7B23B
Copy OK
No errors occurred
AccurateRip summary
Track 1 not present in database
Track 2 not present in database
Track 3 not present in database
Track 4 not present in database
Track 5 not present in database
Track 6 not present in database
Track 7 not present in database
Track 8 not present in database
Track 9 not present in database
Track 10 not present in database
Track 11 not present in database
Track 12 not present in database
Track 13 not present in database
Track 14 not present in database
Track 15 not present in database
None of the tracks are present in the AccurateRip database
End of status report
==== Log checksum 61825C848D278E5E0FEF461111805851F309692AA4212A7C8189C330C9865B82 ====

Содержание индексной карты (.CUE)

REM GENRE Disco
REM DATE 1991
REM DISCID D1112D0F
REM COMMENT "ExactAudioCopy v1.0b3"
PERFORMER "Donna Summer"
TITLE "Mistaken Identity"
FILE "Donna Summer - Mistaken Identity.flac" WAVE
  TRACK 01 AUDIO
    TITLE "Get Ethnic"
    PERFORMER "Donna Summer"
    INDEX 01 00:00:00
  TRACK 02 AUDIO
    TITLE "Body Talk"
    PERFORMER "Donna Summer"
    INDEX 00 05:22:49
    INDEX 01 05:23:49
  TRACK 03 AUDIO
    TITLE "Work That Magic"
    PERFORMER "Donna Summer"
    INDEX 00 10:23:44
    INDEX 01 10:24:66
  TRACK 04 AUDIO
    TITLE "When Love Cries"
    PERFORMER "Donna Summer"
    INDEX 00 15:22:70
    INDEX 01 15:24:29
  TRACK 05 AUDIO
    TITLE "Heaven's Just A Whisper Away"
    PERFORMER "Donna Summer"
    INDEX 00 20:40:37
    INDEX 01 20:41:21
  TRACK 06 AUDIO
    TITLE "Cry Of A Waking Heart"
    PERFORMER "Donna Summer"
    INDEX 00 24:48:05
    INDEX 01 24:59:25
  TRACK 07 AUDIO
    TITLE "Friends Unknown"
    PERFORMER "Donna Summer"
    INDEX 00 29:35:71
    INDEX 01 29:37:17
  TRACK 08 AUDIO
    TITLE "Fred Astaire"
    PERFORMER "Donna Summer"
    INDEX 00 33:22:08
    INDEX 01 33:22:62
  TRACK 09 AUDIO
    TITLE "Say A Little Prayer"
    PERFORMER "Donna Summer"
    INDEX 00 38:03:33
    INDEX 01 38:04:45
  TRACK 10 AUDIO
    TITLE "Mistaken Identity"
    PERFORMER "Donna Summer"
    INDEX 00 42:12:41
    INDEX 01 42:14:03
  TRACK 11 AUDIO
    TITLE "What Is It You Want"
    PERFORMER "Donna Summer"
    INDEX 00 46:23:06
    INDEX 01 46:24:45
  TRACK 12 AUDIO
    TITLE "Let There Be Peace"
    PERFORMER "Donna Summer"
    INDEX 00 51:06:28
    INDEX 01 51:07:41
  TRACK 13 AUDIO
    TITLE "When Love Cries (Single Version Remix) / Bonus Track"
    PERFORMER "Donna Summer"
    INDEX 00 55:06:59
    INDEX 01 55:07:63
  TRACK 14 AUDIO
    TITLE "When Love Cries (Vocal Club Dub aka Summertime Remix) / Bonus Track"
    PERFORMER "Donna Summer"
    INDEX 00 59:17:57
    INDEX 01 59:19:37
  TRACK 15 AUDIO
    TITLE "Work That Magic (ISA Extended Remix) / Bonus Track"
    PERFORMER "Donna Summer"
    INDEX 00 66:56:18
    INDEX 01 66:57:44

Лог проверки качества

-----------------------
DON'T MODIFY THIS FILE
-----------------------
PERFORMER: auCDtect Task Manager, ver. 1.6.0 RC1 build 1.6.0.1
Copyright (c) 2008-2010 y-soft. All rights reserved
http://y-soft.org
ANALYZER: auCDtect: CD records authenticity detector, version 0.8.2
Copyright (c) 2004 Oleg Berngardt. All rights reserved.
Copyright (c) 2004 Alexander Djourik. All rights reserved.
FILE: Donna Summer - Mistaken Identity.wav
Size: 775642604 Hash: BE5862350106AB191C1E9CF122BEBC26 Accuracy: -m8
Conclusion: MPEG 95%
Signature: 606FE44841B9CBFF819A5DCCF30D609F839F141C
FILE: Donna Summer - Mistaken Identity.flac
Size: 534417732 Hash: BE5862350106AB191C1E9CF122BEBC26 Accuracy: -m8
Conclusion: MPEG 95%
Signature: 8795596B9731F5E5FB54B5FDCE011A67C0BABE71

Скриншот спектра частот, Matrix

1996 I’m A Rainbow 2CD

CD -1
1. I Believe (In You) (Duet with Joe ‘Bean’ Esposito)
2. True Love Survives
3. You To Me
4. Sweet Emotion
5. Leave Me Alone
6. Melanie
7. Back Where You Belong
8. People Talk
9. To Turn The Stone

CD -2
1. Brooklyn
2. I’m A Rainbow
3. Walk On (Keep On Movin’)
4. Don’t Cry For Me Argentina
5. A Runner With The Pack
6. Highway Runner
7. Romeo
7. End Of The Week
9. I Need Time

Лог создания рипа

CD 1

Exact Audio Copy V1.0 beta 3 from 29. August 2011
EAC extraction logfile from 7. December 2014, 11:19
Donna Summer / I'm A Rainbow CD1
Used drive : PLEXTOR BD-R PX-B950SA Adapter: 6 ID: 0
Read mode : Secure
Utilize accurate stream : Yes
Defeat audio cache : Yes
Make use of C2 pointers : No
Read offset correction : 6
Overread into Lead-In and Lead-Out : No
Fill up missing offset samples with silence : Yes
Delete leading and trailing silent blocks : No
Null samples used in CRC calculations : Yes
Used interface : Native Win32 interface for Win NT & 2000
Used output format : Internal WAV Routines
Sample format : 44.100 Hz; 16 Bit; Stereo
TOC of the extracted CD
Track | Start | Length | Start sector | End sector
---------------------------------------------------------
1 | 0:00.00 | 4:32.32 | 0 | 20431
2 | 4:32.32 | 3:37.11 | 20432 | 36717
3 | 8:09.43 | 4:40.19 | 36718 | 57736
4 | 12:49.62 | 3:45.17 | 57737 | 74628
5 | 16:35.04 | 4:04.63 | 74629 | 92991
6 | 20:39.67 | 3:38.58 | 92992 | 109399
7 | 24:18.50 | 3:53.11 | 109400 | 126885
8 | 28:11.61 | 4:15.56 | 126886 | 146066
9 | 32:27.42 | 4:21.22 | 146067 | 165663
Range status and errors
Selected range
Filename C:\Users\Meijin\Desktop\Lossless Galaxy ALLexxess\Donna Summer\2014 Donna - CD Collection (10CD Box Set Driven By The Music)\1996 I'm A Rainbow 2CD\CD1\Donna Summer - I'm A Rainbow CD1.wav
Peak level 99.4 %
Extraction speed 6.9 X
Range quality 100.0 %
Test CRC 252AA39F
Copy CRC 252AA39F
Copy OK
No errors occurred
AccurateRip summary
Track 1 not present in database
Track 2 not present in database
Track 3 not present in database
Track 4 not present in database
Track 5 not present in database
Track 6 not present in database
Track 7 not present in database
Track 8 not present in database
Track 9 not present in database
None of the tracks are present in the AccurateRip database
End of status report
==== Log checksum 635513FDAC18E8A6BA0051D642EBE2E93F7B16B65BF1BED33AFCEE2F65403155 ====

CD 2

Exact Audio Copy V1.0 beta 3 from 29. August 2011
EAC extraction logfile from 7. December 2014, 10:39
Donna Summer / I’m A Rainbow CD2
Used drive : PLEXTOR BD-R PX-B950SA Adapter: 6 ID: 0
Read mode : Secure
Utilize accurate stream : Yes
Defeat audio cache : Yes
Make use of C2 pointers : No
Read offset correction : 6
Overread into Lead-In and Lead-Out : No
Fill up missing offset samples with silence : Yes
Delete leading and trailing silent blocks : No
Null samples used in CRC calculations : Yes
Used interface : Native Win32 interface for Win NT & 2000
Used output format : Internal WAV Routines
Sample format : 44.100 Hz; 16 Bit; Stereo
TOC of the extracted CD
Track | Start | Length | Start sector | End sector
---------------------------------------------------------
1 | 0:00.00 | 4:36.42 | 0 | 20741
2 | 4:36.42 | 4:05.57 | 20742 | 39173
3 | 8:42.24 | 3:50.52 | 39174 | 56475
4 | 12:33.01 | 4:28.08 | 56476 | 76583
5 | 17:01.09 | 4:07.55 | 76584 | 95163
6 | 21:08.64 | 3:28.17 | 95164 | 110780
7 | 24:37.06 | 3:18.68 | 110781 | 125698
8 | 27:55.74 | 3:39.11 | 125699 | 142134
9 | 31:35.10 | 4:25.24 | 142135 | 162033
Range status and errors
Selected range
Filename C:\Users\Meijin\Desktop\Lossless Galaxy ALLexxess\Donna Summer\2014 Donna - CD Collection (10CD Box Set Driven By The Music)\1996 I’m A Rainbow 2CD\CD2\Donna Summer - I’m A Rainbow CD2.wav
Peak level 99.4 %
Extraction speed 6.9 X
Range quality 100.0 %
Test CRC 20B8CA6A
Copy CRC 20B8CA6A
Copy OK
No errors occurred
AccurateRip summary
Track 1 not present in database
Track 2 not present in database
Track 3 not present in database
Track 4 not present in database
Track 5 not present in database
Track 6 not present in database
Track 7 not present in database
Track 8 not present in database
Track 9 not present in database
None of the tracks are present in the AccurateRip database
End of status report
==== Log checksum 41B51F8C8A55AB0B6E2A7EE3D5D16E7D54373747FD2E6897DBFCDF01AC61090E ====

Содержание индексной карты (.CUE)

CD 1

REM GENRE Disco
REM DATE 1996
REM DISCID 8208A009
REM COMMENT "ExactAudioCopy v1.0b3"
PERFORMER "Donna Summer"
TITLE "I'm A Rainbow CD1"
FILE "Donna Summer - I'm A Rainbow CD1.flac" WAVE
TRACK 01 AUDIO
TITLE "I Believe (In You) (Duet with Joe ‘Bean’ Esposito)"
PERFORMER "Donna Summer"
INDEX 01 00:00:00
TRACK 02 AUDIO
TITLE "True Love Survives"
PERFORMER "Donna Summer"
INDEX 00 04:31:08
INDEX 01 04:32:32
TRACK 03 AUDIO
TITLE "You To Me"
PERFORMER "Donna Summer"
INDEX 00 08:08:23
INDEX 01 08:09:43
TRACK 04 AUDIO
TITLE "Sweet Emotion"
PERFORMER "Donna Summer"
INDEX 00 12:47:55
INDEX 01 12:49:62
TRACK 05 AUDIO
TITLE "Leave Me Alone"
PERFORMER "Donna Summer"
INDEX 00 16:33:11
INDEX 01 16:35:04
TRACK 06 AUDIO
TITLE "Melanie"
PERFORMER "Donna Summer"
INDEX 00 20:38:34
INDEX 01 20:39:67
TRACK 07 AUDIO
TITLE "Back Where You Belong"
PERFORMER "Donna Summer"
INDEX 00 24:17:59
INDEX 01 24:18:50
TRACK 08 AUDIO
TITLE "People Talk"
PERFORMER "Donna Summer"
INDEX 00 28:10:34
INDEX 01 28:11:61
TRACK 09 AUDIO
TITLE "To Turn The Stone"
PERFORMER "Donna Summer"
INDEX 00 32:26:11
INDEX 01 32:27:42

CD 2

REM GENRE Disco
REM DATE 1996
REM DISCID 82087009
REM COMMENT "ExactAudioCopy v1.0b3"
PERFORMER "Donna Summer"
TITLE "I'm A Rainbow CD2"
FILE "Donna Summer - I'm A Rainbow CD2.flac" WAVE
TRACK 01 AUDIO
TITLE "Brooklyn"
PERFORMER "Donna Summer"
INDEX 01 00:00:00
TRACK 02 AUDIO
TITLE "I’m A Rainbow"
PERFORMER "Donna Summer"
INDEX 00 04:35:14
INDEX 01 04:36:42
TRACK 03 AUDIO
TITLE "Walk On (Keep On Movin’)"
PERFORMER "Donna Summer"
INDEX 00 08:41:55
INDEX 01 08:42:24
TRACK 04 AUDIO
TITLE "Don’t Cry For Me Argentina"
PERFORMER "Donna Summer"
INDEX 00 12:31:50
INDEX 01 12:33:01
TRACK 05 AUDIO
TITLE "A Runner With The Pack"
PERFORMER "Donna Summer"
INDEX 00 16:59:47
INDEX 01 17:01:09
TRACK 06 AUDIO
TITLE "Highway Runner"
PERFORMER "Donna Summer"
INDEX 00 21:07:25
INDEX 01 21:08:64
TRACK 07 AUDIO
TITLE "Romeo"
PERFORMER "Donna Summer"
INDEX 00 24:35:63
INDEX 01 24:37:06
TRACK 08 AUDIO
TITLE "End Of The Week"
PERFORMER "Donna Summer"
INDEX 00 27:54:60
INDEX 01 27:55:74
TRACK 09 AUDIO
TITLE "I Need Time"
PERFORMER "Donna Summer"
INDEX 00 31:33:57
INDEX 01 31:35:10

Лог проверки качества

CD 1

-----------------------
DON'T MODIFY THIS FILE
-----------------------
PERFORMER: auCDtect Task Manager, ver. 1.6.0 RC1 build 1.6.0.1
Copyright (c) 2008-2010 y-soft. All rights reserved
[url=http://y-soft.org]http://y-soft.org[/url]
ANALYZER: auCDtect: CD records authenticity detector, version 0.8.2
Copyright (c) 2004 Oleg Berngardt. All rights reserved.
Copyright (c) 2004 Alexander Djourik. All rights reserved.
FILE: Donna Summer - I'm A Rainbow CD1.wav
Size: 389641772 Hash: BD2459C7AFE371118275580189B67810 Accuracy: -m8
Conclusion: CDDA 100%
Signature: 8D6D1721AD0A23CC2478E2F26EFC727E1E139370
FILE: Donna Summer - I'm A Rainbow CD1.flac
Size: 261955949 Hash: BD2459C7AFE371118275580189B67810 Accuracy: -m8
Conclusion: CDDA 100%
Signature: 8BE4555044FDD1EAD6B2B8BE289F24262E6584E5

CD 2

-----------------------
DON'T MODIFY THIS FILE
-----------------------
PERFORMER: auCDtect Task Manager, ver. 1.6.0 RC1 build 1.6.0.1
Copyright (c) 2008-2010 y-soft. All rights reserved
[url=http://y-soft.org]http://y-soft.org[/url]
ANALYZER: auCDtect: CD records authenticity detector, version 0.8.2
Copyright (c) 2004 Oleg Berngardt. All rights reserved.
Copyright (c) 2004 Alexander Djourik. All rights reserved.
FILE: Donna Summer - I'm A Rainbow CD2.wav
Size: 381104012 Hash: 4A52263602C9B5C9C09505E85953606D Accuracy: -m8
Conclusion: CDDA 100%
Signature: C84F0A1E9046328CFCED019CB8C673437CADA265
FILE: Donna Summer - I'm A Rainbow CD2.flac
Size: 248719313 Hash: 4A52263602C9B5C9C09505E85953606D Accuracy: -m8
Conclusion: CDDA 100%
Signature: 089567B86B52322407F6FE3C7A417F5C89832011

Скриншот спектра частот, Matrix

CD 1

CD 2

Об альбоме (сборнике)

CD / Box Set / Remaster 2014
Catalog Box: DBTMCDBOX01
Catalog CDs:
DBTMCD001~004 • DBTMCD305/A/B/C • DBTMCD006 • DBTMCD207/A/B
Made in the EU
[Профиль] [ЛС]

Создавать темы 13-Авг-2015 10:44 (спустя 7 месяцев 23 дня)

Топик был перенесен из форума Зарубежная в форум Technopop, Eurodance, Disco
sergej644
 
Кто просматривает тему:

Показать сообщения:    

Текущее время: Сегодня 11:52

Часовой пояс: GMT



Вы не можете начинать темы
Вы не можете отвечать на сообщения
Вы не можете редактировать свои сообщения
Вы не можете удалять свои сообщения
Вы не можете голосовать в опросах
Вы не можете прикреплять файлы к сообщениям
Вы не можете скачивать файлы