(Rock, Melodic Hard Rock) Dominoe - Keep In Touch - 1988 (2007 BMG Ariola 231549) [FLAC, image +.cue, lossless]

 
Автор Сообщение

sergej644 ®

Пол:

Стаж: 4 года 11 месяцев

Сообщений: 6042

Откуда: Soviet Union



Награды: Нет

Торрент-статистика

Создавать темы 13-Фев-2016 18:37

[Цитировать]

-Dominoe - Keep In Touch - 1988--
Год | Год издания: 1988 | 2007
Страна: Germany
Жанр: Rock, Melodic Hard Rock
Продолжительность: 01:18:45-Лейбл издания: BMG Ariola
Страна-выпуска диска: Germany
Номер по каталогу: 231549-Формат: FLAC
Битрейт аудио: Lossless
Тип рипа: image +.cue
Наличие сканов в содержимом раздачи: да
-

Трэклист


01. The Approach & Family Man (04:34)
02. Gettinґ Hot (04:05)
03. I Donґt Know (03:36)
04. The Dice (03:37)
05. Here I Am (03:18)
06. Letґs Talk About Life (02:54)
07. Miracle (04:14)
08. Touch (03:25)
09. The Friend (03:18)
10. No More Lies (04:49)
11. The End (01:18)
12. Here I Am [Maxi Version] (05:18)
13. Letґs Talk About Life [Maxi Version] (05:15)
14. Family Man [Maxi version] (05:28)
15. My Little Friend (01:03)
16. The Friend (01:06)
17. Here I Am (01:15)
18. Family Man Suite (18:16)
19. Jailhouse Rock (02:03)
-

Лог создания рипа

Exact Audio Copy V0.99 prebeta 5 from 4. May 2009
Отчёт EAC об извлечении, выполненном 2. мая 2011, 9:18
Dominoe / Keep In Touch (1988)
Дисковод: Optiarc DVD RW AD-7201A   Adapter: 0  ID: 0
Режим чтения                 : Достоверность
Использование точного потока : Да
Отключение кэша аудио        : Да
Использование указателей C2  : Нет
Коррекция смещения при чтении                     : 48
Способность читать области Lead-in и Lead-out     : Нет
Заполнение пропущенных сэмплов тишиной            : Да
Удаление блоков с тишиной в начале и конце        : Нет
При вычислениях CRC использовались нулевые сэмплы : Да
Интерфейс                                         : Установленный внешний ASPI-интерфейс
Выходной формат : Внутренние WAV-операции
Формат сэмплов  : 44.100 Гц; 16 бит; стерео
TOC извлечённого CD
     Трек |   Старт  | Длительность | Начальный сектор | Конечный сектор
    ---------------------------------------------------------------------
       1  |  0:00.00 |    4:33.29   |           0      |      20503
       2  |  4:33.29 |    4:04.16   |       20504      |      38819
       3  |  8:37.45 |    3:35.23   |       38820      |      54967
       4  | 12:12.68 |    3:36.41   |       54968      |      71208
       5  | 15:49.34 |    3:18.00   |       71209      |      86058
       6  | 19:07.34 |    2:53.09   |       86059      |      99042
       7  | 22:00.43 |    4:13.51   |       99043      |     118068
       8  | 26:14.19 |    3:24.64   |      118069      |     133432
       9  | 29:39.08 |    3:17.49   |      133433      |     148256
      10  | 32:56.57 |    4:48.54   |      148257      |     169910
      11  | 37:45.36 |    1:17.61   |      169911      |     175746
      12  | 39:03.22 |    5:17.48   |      175747      |     199569
      13  | 44:20.70 |    5:14.32   |      199570      |     223151
      14  | 49:35.27 |    5:27.67   |      223152      |     247743
      15  | 55:03.19 |    1:02.71   |      247744      |     252464
      16  | 56:06.15 |    1:05.41   |      252465      |     257380
      17  | 57:11.56 |    1:14.37   |      257381      |     262967
      18  | 58:26.18 |   18:15.14   |      262968      |     345106
      19  | 76:41.32 |    2:02.66   |      345107      |     354322
Характеристики диапазона извлечения и сообщения об ошибках
Выбранный диапазон
     Имя файла S:\MUZZIGG\Dominoe - Keep In Touch (incl. 6 bonus tracks)\Dominoe - Keep In Touch.wav
     Пиковый уровень 100.0 %
     Качество диапазона 99.9 %
     CRC теста CA6DD5E7
     CRC копии CA6DD5E7
     Копирование... OK
Ошибок не произошло
AccurateRip: сводка
Трек  1  точность не определена (достоверность 1)  [2AE6281B], AccurateRip вернул [4EB113D2]
Трек  2  точность не определена (достоверность 1)  [2B00F353], AccurateRip вернул [BCFC6587]
Трек  3  точность не определена (достоверность 1)  [651497D2], AccurateRip вернул [95CB4E0E]
Трек  4  точность не определена (достоверность 1)  [48B522A0], AccurateRip вернул [C2F20F40]
Трек  5  точность не определена (достоверность 1)  [1143BB16], AccurateRip вернул [F4822F0A]
Трек  6  точность не определена (достоверность 1)  [D43B1610], AccurateRip вернул [E270ABBC]
Трек  7  точность не определена (достоверность 1)  [1DE4F8FE], AccurateRip вернул [84E121FA]
Трек  8  точность не определена (достоверность 1)  [FA87553B], AccurateRip вернул [DABAB17B]
Трек  9  точность не определена (достоверность 1)  [BDA088C6], AccurateRip вернул [692E5F2E]
Трек 10  точность не определена (достоверность 1)  [CC963F05], AccurateRip вернул [57AE7E01]
Трек 11  точность не определена (достоверность 1)  [6B85C44A], AccurateRip вернул [97ECDB6E]
Трек 12  точность не определена (достоверность 1)  [BDC835E6], AccurateRip вернул [232817FE]
Трек 13  точность не определена (достоверность 1)  [48542188], AccurateRip вернул [7015C978]
Трек 14  точность не определена (достоверность 1)  [A77297BD], AccurateRip вернул [F71E2625]
Трек 15  точность не определена (достоверность 1)  [663DC88C], AccurateRip вернул [3FD66CA4]
Трек 16  точность не определена (достоверность 1)  [BBF5A339], AccurateRip вернул [40E43659]
Трек 17  точность не определена (достоверность 1)  [FF46187A], AccurateRip вернул [3903B0C6]
Трек 18  точность не определена (достоверность 1)  [108B254D], AccurateRip вернул [DC3A35E9]
Трек 19  точность не определена (достоверность 1)  [D4854D43], AccurateRip вернул [47F67AE5]
Ни один трек не прошёл проверки на точность
В вашей базе может быть иной вариант штамповки диска
Конец отчёта

Индексная карта (non-compilant .cue)

REM GENRE Rock
REM DATE 2007
REM DISCID 22127413
REM COMMENT "ExactAudioCopy v0.99pb5"
PERFORMER "Dominoe"
TITLE "Keep In Touch (1988)"
FILE "Dominoe - Keep In Touch.wav" WAVE
  TRACK 01 AUDIO
    TITLE "The Approach & Family Man"
    PERFORMER "Dominoe"
    INDEX 01 00:00:00
  TRACK 02 AUDIO
    TITLE "Gettinґ Hot"
    PERFORMER "Dominoe"
    INDEX 00 04:31:40
    INDEX 01 04:33:29
  TRACK 03 AUDIO
    TITLE "I Donґt Know"
    PERFORMER "Dominoe"
    INDEX 00 08:35:56
    INDEX 01 08:37:45
  TRACK 04 AUDIO
    TITLE "The Dice"
    PERFORMER "Dominoe"
    INDEX 00 12:11:06
    INDEX 01 12:12:68
  TRACK 05 AUDIO
    TITLE "Here I Am"
    PERFORMER "Dominoe"
    INDEX 00 15:47:53
    INDEX 01 15:49:34
  TRACK 06 AUDIO
    TITLE "Letґs Talk About Life"
    PERFORMER "Dominoe"
    INDEX 00 19:05:51
    INDEX 01 19:07:34
  TRACK 07 AUDIO
    TITLE "Miracle"
    PERFORMER "Dominoe"
    INDEX 00 21:58:55
    INDEX 01 22:00:43
  TRACK 08 AUDIO
    TITLE "Touch"
    PERFORMER "Dominoe"
    INDEX 00 26:12:27
    INDEX 01 26:14:19
  TRACK 09 AUDIO
    TITLE "The Friend"
    PERFORMER "Dominoe"
    INDEX 00 29:37:19
    INDEX 01 29:39:08
  TRACK 10 AUDIO
    TITLE "No More Lies"
    PERFORMER "Dominoe"
    INDEX 00 32:54:73
    INDEX 01 32:56:57
  TRACK 11 AUDIO
    TITLE "The End"
    PERFORMER "Dominoe"
    INDEX 00 37:43:46
    INDEX 01 37:45:36
  TRACK 12 AUDIO
    TITLE "Here I Am [Maxi Version]"
    PERFORMER "Dominoe"
    INDEX 00 39:01:36
    INDEX 01 39:03:22
  TRACK 13 AUDIO
    TITLE "Letґs Talk About Life [Maxi Version]"
    PERFORMER "Dominoe"
    INDEX 00 44:19:10
    INDEX 01 44:20:70
  TRACK 14 AUDIO
    TITLE "Family Man [Maxi version]"
    PERFORMER "Dominoe"
    INDEX 00 49:33:47
    INDEX 01 49:35:27
  TRACK 15 AUDIO
    TITLE "My Little Friend"
    PERFORMER "Dominoe"
    INDEX 00 55:01:32
    INDEX 01 55:03:19
  TRACK 16 AUDIO
    TITLE "The Friend"
    PERFORMER "Dominoe"
    INDEX 00 56:04:31
    INDEX 01 56:06:15
  TRACK 17 AUDIO
    TITLE "Here I Am"
    PERFORMER "Dominoe"
    INDEX 00 57:10:02
    INDEX 01 57:11:56
  TRACK 18 AUDIO
    TITLE "Family Man Suite"
    PERFORMER "Dominoe"
    INDEX 00 58:24:37
    INDEX 01 58:26:18
  TRACK 19 AUDIO
    TITLE "Jailhouse Rock"
    PERFORMER "Dominoe"
    INDEX 00 76:39:54
    INDEX 01 76:41:32
--
[Профиль] [ЛС]
Кто просматривает тему:

Показать сообщения:    

Текущее время: Сегодня 22:08

Часовой пояс: GMT



Вы не можете начинать темы
Вы не можете отвечать на сообщения
Вы не можете редактировать свои сообщения
Вы не можете удалять свои сообщения
Вы не можете голосовать в опросах
Вы не можете прикреплять файлы к сообщениям
Вы не можете скачивать файлы