Discovery: Через червоточину с Морганом Фрименом / Through The Wormhole with Morgan Freeman [сезон 6 серия 1-6 из 6] (Anthony Lund) [2015 г., Документальный, научно-познавательный, исследования, гипотезы, SATRip]

 
Автор Сообщение

skorpionN ®

Пол:

Стаж: 1 год 8 месяцев

Сообщений: 592



Награды: 4 (Подробнее)

Mega Seeder 3 (Количество: 1) Mega Seeder 2 (Количество: 1) Mega Seeder 1 (Количество: 1)
Торрент-статистика

Создавать темы 19-Июн-2015 15:46

[Цитировать]

Discovery: Через червоточину с Морганом Фрименом / Through The Wormhole with Morgan Freeman [сезон 6 серия 1-6 из 6]
Год выпуска: 2015
Страна: США, The Incubator, Revelations Entertainment, Discovery Communications, Science Channel
Жанр: Документальный, научно-познавательный, исследования, гипотезы
Продолжительность: 6x~00:42:04
Перевод: Профессиональный (одноголосый)
Режиссер: Anthony Lund
В ролях: Ведущий: Морган Фримен
Описание: Discovery Channel и Морган Фримен снова ведут зрителей за собой на поиски ответов на вопросы, которыми испокон веков интересуется человечество. «Жертвы стереотипов», «Почему мы лжем?» и «Может Время идти в обратном направлении?» - вот лишь несколько тем, о которых пойдет речь в новых выпусках одной из самых популярных программ телеканала. Морган Фримен выбирает самые масштабные, самые спорные, самые глобальные вопросы – перед ними сдается большинство ученых и философов, и вряд ли решение появится в обозримом будущем. Но в этом и заключается изюминка – поиск ответов на них всегда таит в себе удивительные открытия и неожиданные озарения. Например, алхимики долго искали способы получения золота из других металлов – так и не добившись своего, они, тем не менее, заметно продвинули химию вперед, что стало гораздо более ценным даром для цивилизации. Так что даже если цель далека и не видна за горизонтом, важно просто двигаться к ней: отправляйтесь в путь на поиски научных чудес вместе с Морганом Фрименом и Discovery Channel!
Список серий:
01. Мы все предвзяты? (Жертвы стереотипов) / Are We All Bigots?
Даже если вы считаете, что не подвержены стереотипам, вы просто обманываете себя. Независимо от широты взглядов, каждый из нас грешит шаблонным мышлением.
02. Может ли время идти вспять? / Can Time Go Backwards?
Мы способны свободно перемещаться в пространстве, но во времени движемся только вперед. Поможет ли когда-нибудь наука обратить время вспять?
03. В чем смысл жизни / Are We Here for a Reason?
Согласно теории эволюции, жизнь существует лишь с одной целью — воспроизводить себя. Однако новые гипотезы предполагают, что, помимо передачи генов, у нас может быть и другая цель.
04. Живем ли мы в Матрице? / Do We Live in the Matrix?
Вселенная кажется нам вполне реальной. Но что, если это не так? Способны ли мы взломать Вселенную и узнать ее тайный код?
05. Пришельцы внутри нас / Are Aliens Inside Us?
Обычные дождевые капли способны доставить на Землю пришельцев с других планет, которые могут завоевать человечество. Но что, если инопланетяне уже внутри нас?
06. Почему мы лжем? / Why Do We Lie?
Неужели наш мозг создан для вранья? Обладают ли патологические лгуны навыком ясновидения? И как технологии повлияют на нашу способность лгать?
Качество: SATRip
Формат: AVI
Видео кодек: XviD
Аудио кодек: AC3
Видео: 720x400 25fps 1950kbps
Аудио: AC3 2ch, 48kHz, 192 kbps

Скриншоты


MediaInfo:

Format : AVI
Format/Info : Audio Video Interleave
File size : 647 MiB
Duration : 42mn 4s
Overall bit rate : 2 152 Kbps
Writing application : VirtualDubMod 1.5.10.3 | www.virtualdub-fr.org || (build 2550/release)
Writing library : VirtualDubMod build 2550/release
Video
ID : 0
Format : MPEG-4 Visual
Format profile : Advanced Simple@L5
Format settings, BVOP : 2
Format settings, QPel : Yes
Format settings, GMC : 3 warppoints
Format settings, Matrix : Default (H.263)
Codec ID : XVID
Codec ID/Hint : XviD
Duration : 42mn 4s
Bit rate : 1 950 Kbps
Width : 720 pixels
Height : 400 pixels
Display aspect ratio : 16:9
Frame rate : 25.000 fps
Color space : YUV
Chroma subsampling : 4:2:0
Bit depth : 8 bits
Scan type : Progressive
Compression mode : Lossy
Bits/(Pixel*Frame) : 0.271
Stream size : 587 MiB (91%)
Writing library : XviD 1.2.1 (UTC 2008-12-04)
Audio
ID : 1
Format : AC-3
Format/Info : Audio Coding 3
Mode extension : CM (complete main)
Format settings, Endianness : Big
Codec ID : 2000
Duration : 42mn 4s
Bit rate mode : Constant
Bit rate : 192 Kbps
Channel(s) : 2 channels
Channel positions : Front: L R
Sampling rate : 48.0 KHz
Compression mode : Lossy
Stream size : 57.8 MiB (9%)
Alignment : Split accross interleaves
Interleave, duration : 40 ms (1.00 video frame)
Interleave, preload duration : 500 ms

Внимание:

Раздача ведётся путём добавления новых серий; при каждом добавлении создаётся новый торрент. Чтобы начать докачку новой серии, пользователям необходимо сделать следующее:
- Остановить скачивание.
- Удалить старый торрент у себя из клиента (старые серии удалять не надо).
- Скачать новый торрент и запустить его у себя в клиенте вместо старого, при этом указать клиенту путь в старую папку куда и должно происходить скачивание новых серий.
Добавлено 04. Живем ли мы в Матрице? / Do We Live in the Matrix?
05. Пришельцы внутри нас / Are Aliens Inside Us?
[Профиль] [ЛС]
Кто просматривает тему:

Форум Тема Автор Размер
Discovery Discovery: Америка: факты и домыслы / America: Facts vs. Fiction [сезон 2 серии 1-12 из 12] [2010 г., Документальный, постановочный, история, SATRip] skorpionN 3.7 GB
Discovery Discovery: Анатомия секса / Discovery: Anatomy Of Sex (Джонатан Группер / Jonathan Grupper) [2005, США, документальный, познавательный, физиология, психология, DVDRip] DVO reversefile 700 MB
Discovery Discovery: Багажные войны (4 сезон: 1-12 серии) / Baggage Battles (2014) SATRip sergej644 2.88 GB
Документальные HD Discovery: Без промаха (1 сезон: 3 серия из 6) / Gunslingers (Кристофер Кассел / Christopher Cassel) [2014, Документальный, вестерн, постановочный, HDTVRip 720p] TorrentFilm 795 MB
Discovery Discovery: Без промаха / Gunslingers [сезон 1 серии 1-6 из 6] (Christopher Cassel) [2014 г., Вестерн, постановочный, SATRip] skorpionN 3.68 GB
Документальные HD Discovery: Гангстеры дикой природы / Gangland Killers / 6 эпизодов (6) [2014, Документальный, познавательный, природа, HDTV 1080i] TorrentFilm 20.62 GB
Документальные HD Discovery: Гангстеры дикой природы / Gangland Killers / 6 эпизодов (6) [2014, Документальный, познавательный, природа, HDTVRip 720p] TorrentFilm 9.71 GB
Документальные HD Discovery: Загадочные животные острова Джао / The Secret Creatures of Jao / 7 серий из 7 [2009, Документальный, познавательный, HDTV 1080i] TorrentFilm 10.05 GB
Показать сообщения:    

Текущее время: Сегодня 16:57

Часовой пояс: GMT



Вы не можете начинать темы
Вы не можете отвечать на сообщения
Вы не можете редактировать свои сообщения
Вы не можете удалять свои сообщения
Вы не можете голосовать в опросах
Вы не можете прикреплять файлы к сообщениям
Вы не можете скачивать файлы