Discovery: Через червоточину с Морганом Фрименом / Through The Wormhole with Morgan Freeman (2014) HDTVRip (Сезон №5, серия №6)

 
Автор Сообщение

sergej644 ®

Пол:

Стаж: 4 года 11 месяцев

Сообщений: 6046

Откуда: Soviet Union



Награды: Нет

Торрент-статистика

Создавать темы 18-Окт-2014 20:16

[Цитировать]

- Discovery: Через червоточину с Морганом Фрименом / Through The Wormhole with Morgan Freeman (2014) HDTVRip (Сезон №5, серия №7) - Режиссер / Телекомпания: Discovery
Русское название: Через червоточину с Морганом Фрименом
Оригинальное название: Through The Wormhole with Morgan Freeman
Год выпуска: 2014
Жанр: Документальный, научно-познавательный, исследования, гипотезы
Выпущено: The Incubator, Revelations Entertainment, Discovery Communications, Science Channel
Описание:
Discovery Channel и Морган Фримен снова ведут зрителей за собой на поиски ответов на вопросы, которыми испокон веков интересуется человечество. «Что такое счастье и существует ли оно?», «Когда начался отсчет времени?» и «Как действует гравитация?» - вот лишь несколько тем, о которых пойдет речь в новых выпусках одной из самых популярных программ телеканала.
Морган Фримен выбирает самые масштабные, самые спорные, самые глобальные вопросы – перед ними сдается большинство ученых и философов, и вряд ли решение появится в обозримом будущем. Но в этом и заключается изюминка – поиск ответов на них всегда таит в себе удивительные открытия и неожиданные озарения. Например, алхимики долго искали способы получения золота из других металлов – так и не добившись своего, они, тем не менее, заметно продвинули химию вперед, что стало гораздо более ценным даром для цивилизации. Так что даже если цель далека и не видна за горизонтом, важно просто двигаться к ней: отправляйтесь в путь на поиски научных чудес вместе с Морганом Фрименом и Discovery Channel!
В выпуске: Возможен ли зомби-апокалипсис? / Is a Zombie Apocalypse Possible?
Ученые обнаружили патогены, превращающие насекомых в зомби. Но при том, что вирусы атакуют человечество каждый день, возможно ли, что и мы рискуем стать марионетками?
Режиссёр: Geoffrey Sharp
Ведущий: Морган Фримен
Перевод: Двухголосый закадровый
Продолжительность: ~ 00:43:44
Видеокодек: XVID
Битрейт видео: ~1800 kb/s
Размер кадра: 720 x 400
Качество видео: HDTVRip
Аудиокодек: AC-3, 2ch.
Битрейт аудио: 192 kb/s-

MediaInfo

Формат                           : AVI
Формат/Информация                : Audio Video Interleave
Размер файла                     : 624 Мбайт
Продолжительность                : 43 м.
Общий поток                      : 1995 Кбит/сек
Программа кодирования            : TMPGEnc Video Mastering Works 5 Version. 5.0.6.38
Библиотека кодирования           : TMPGEnc Video Mastering Works 5 Version. 5.0.6.38
Видео
Идентификатор                    : 0
Формат                           : MPEG-4 Visual
Профиль формата                  : Advanced Simple@L5
Параметр BVOP формата            : 2
Параметр QPel формата            : Нет
Параметр GMC формата             : Без точки перехода
Параметр матрицы формата         : Default (H.263)
Режим смешивания                 : Сжатый битовый поток
Идентификатор кодека             : XVID
Идентификатор кодека/Подсказка   : XviD
Продолжительность                : 43 м.
Битрейт                          : 1795 Кбит/сек
Ширина                           : 720 пикселей
Высота                           : 400 пикселей
Соотношение сторон               : 16:9
Частота кадров                   : 25,000 кадров/сек
Цветовое пространство            : YUV
Субдискретизация насыщенности    : 4:2:0
Битовая глубина                  : 8 бит
Тип развёртки                    : Прогрессивная
Метод сжатия                     : С потерями
Бит/(Пиксели*Кадры)              : 0.249
Размер потока                    : 562 Мбайт (90%)
Библиотека кодирования           : XviD 64
Аудио
Идентификатор                    : 1
Формат                           : AC-3
Формат/Информация                : Audio Coding 3
Расширение режима                : CM (complete main)
Идентификатор кодека             : 2000
Продолжительность                : 43 м.
Вид битрейта                     : Постоянный
Битрейт                          : 192 Кбит/сек
Каналы                           : 2 канала
Расположение каналов             : Front: L R
Частота                          : 48,0 КГц
Битовая глубина                  : 16 бит
Метод сжатия                     : С потерями
Размер потока                    : 60,1 Мбайт (10%)
Выравнивание                     : Соединение по промежуткам
Продолжительность промежутка     : 240  мс. (6,00 видеокадров)
Время предзагрузки промежутка    : 224  мс.
Скриншоты: --
[Профиль] [ЛС]
Кто просматривает тему:

Форум Тема Автор Размер
Discovery Discovery: Америка: факты и домыслы / America: Facts vs. Fiction [сезон 2 серии 1-12 из 12] [2010 г., Документальный, постановочный, история, SATRip] skorpionN 3.7 GB
Discovery Discovery: Анатомия секса / Discovery: Anatomy Of Sex (Джонатан Группер / Jonathan Grupper) [2005, США, документальный, познавательный, физиология, психология, DVDRip] DVO reversefile 700 MB
Discovery Discovery: Багажные войны (4 сезон: 1-12 серии) / Baggage Battles (2014) SATRip sergej644 2.88 GB
Документальные HD Discovery: Без промаха (1 сезон: 3 серия из 6) / Gunslingers (Кристофер Кассел / Christopher Cassel) [2014, Документальный, вестерн, постановочный, HDTVRip 720p] TorrentFilm 795 MB
Discovery Discovery: Без промаха / Gunslingers [сезон 1 серии 1-6 из 6] (Christopher Cassel) [2014 г., Вестерн, постановочный, SATRip] skorpionN 3.68 GB
Документальные HD Discovery: Гангстеры дикой природы / Gangland Killers / 6 эпизодов (6) [2014, Документальный, познавательный, природа, HDTV 1080i] TorrentFilm 20.62 GB
Документальные HD Discovery: Гангстеры дикой природы / Gangland Killers / 6 эпизодов (6) [2014, Документальный, познавательный, природа, HDTVRip 720p] TorrentFilm 9.71 GB
Документальные HD Discovery: Загадочные животные острова Джао / The Secret Creatures of Jao / 7 серий из 7 [2009, Документальный, познавательный, HDTV 1080i] TorrentFilm 10.05 GB
Показать сообщения:    

Текущее время: Сегодня 14:56

Часовой пояс: GMT



Вы не можете начинать темы
Вы не можете отвечать на сообщения
Вы не можете редактировать свои сообщения
Вы не можете удалять свои сообщения
Вы не можете голосовать в опросах
Вы не можете прикреплять файлы к сообщениям
Вы не можете скачивать файлы