Discovery: Хакер в дикой природе / Hacking the Wild [сезон 1 серии 1-6 из 6] (Caroline Perez) [2017 г., Документальный, экстрим, HDTVRip-AVC 720p]

 
Автор Сообщение

skorpionN ®

Пол:

Стаж: 2 года 7 месяцев

Сообщений: 834



Награды: 4 (Подробнее)

Mega Seeder 1 (Количество: 1) Mega Seeder 2 (Количество: 1) Mega Seeder 3 (Количество: 1)
Торрент-статистика

Создавать темы 05-Окт-2017 16:26

[Цитировать]

Discovery: Хакер в дикой природе / Hacking the Wild [сезон 1 серии 1-6 из 6]
Год выпуска: 2017
Страна: CША, AMPLE for Science Channel
Жанр: Документальный, экстрим
Продолжительность: 6x~00:41:20
Перевод: Профессиональный (одноголосый), студия Кириллица, текст читает Илья Сланевский
Режиссер: Caroline Perez
В ролях: Энди Квитмайер / Andrew Quitmeyer
Описание: Энди Квитмейер пытается выжить в дикой природе, используя повседневные технологии, которые должны ему в этом помочь.
Список серий:
01. Проклятье джунглей / Curse of the Jungle
Энди пытается выжить на далеком гавайском острове. Поддержание электроники в рабочем состоянии станет серьезным испытанием его хакерских навыков.
02. Черные болота / The Black Bayou
Энди борется с болотом в Луизиане, где обитают аллигаторы, ядовитые змеи и другие опасные твари. Чтобы вернуться в цивилизацию, нашему "хакеру" придется поломать голову.
03. Ледяной лес Аляски / Alaskan Ice Forest
Энди забрасывают в лесные дебри на Аляске. Чтобы вернуться к цивилизации, ему нужно уберечь от холода и влаги свою технику.
04. Необитаемый остров / Desert Island Castaway
Энди застрял в одиночестве на острове в Тихом океане. Надвигается тропическая буря, и ему придется применить высокотехнические навыки, чтобы выжить и найти еду.
05. Смертоносный ледник / Deadly Glacier
Энди застрял на Аляске. Это место почти лишено жизни и ресурсов. Чтобы вырваться из ледяного плена, ему придется бороться со снегом и холодом.
06. Побег из Долины Смерти / Escape From Death Valley
Долина Смерти в Калифорнии - одно из самых сложных для выживания мест на Земле. Энди отправляется в пустыню в надежде, что техника поможет ему выжить.
Качество: HDTVRip-AVC
Формат: MKV
Видео кодек: H.264
Аудио кодек: AC3
Видео: 1280x720 23.976 fps 4000 Kbps (4 серия 29,97 fps)
Аудио 1: (Rus) AC3 2ch, 48kHz, 192 kbps
Аудио 2: (En) AC3, 2 ch, 48 KHz, 192 Kbps

Скриншоты


MediaInfo:

Format : Matroska
Format version : Version 4 / Version 2
File size : 1.26 GiB
Duration : 41 min 19 s
Overall bit rate mode : Variable
Overall bit rate : 4 380 kb/s
Encoded date : UTC 2017-09-30 16:22:35
Writing application : mkvmerge v6.9.1 ('Blue Panther') 64bit built on Apr 18 2014 18:23:38
Writing library : libebml v1.3.0 + libmatroska v1.4.1
Video
ID : 1
Format : AVC
Format/Info : Advanced Video Codec
Format profile : High@L4.1
Format settings, CABAC : Yes
Format settings, ReFrames : 3 frames
Codec ID : V_MPEG4/ISO/AVC
Duration : 41 min 19 s
Bit rate mode : Variable
Bit rate : 4 000 kb/s
Maximum bit rate : 8 000 kb/s
Width : 1 280 pixels
Height : 720 pixels
Display aspect ratio : 16:9
Frame rate mode : Constant
Frame rate : 23.976 (24000/1001) FPS
Standard : NTSC
Color space : YUV
Chroma subsampling : 4:2:0
Bit depth : 8 bits
Scan type : Progressive
Bits/(Pixel*Frame) : 0.181
Stream size : 1.13 GiB (89%)
Writing library : x264 core 114
Encoding settings : cabac=1 / ref=3 / deblock=1:0:0 / analyse=0x3:0x113 / me=hex / subme=7 / psy=1 / psy_rd=1.00:0.00 / mixed_ref=1 / me_range=16 / chroma_me=1 / trellis=1 / 8x8dct=1 / cqm=2 / deadzone=21,11 / fast_pskip=1 / chroma_qp_offset=-4 / threads=6 / sliced_threads=0 / slices=1 / nr=0 / decimate=1 / interlaced=0 / constrained_intra=0 / bframes=3 / b_pyramid=0 / b_adapt=1 / b_bias=0 / direct=1 / weightb=1 / open_gop=0 / weightp=2 / keyint=250 / keyint_min=23 / scenecut=40 / intra_refresh=0 / rc_lookahead=40 / rc=2pass / mbtree=1 / bitrate=4000 / ratetol=1.0 / qcomp=0.60 / qpmin=5 / qpmax=69 / qpstep=4 / cplxblur=20.0 / qblur=0.5 / vbv_maxrate=8000 / vbv_bufsize=7995 / nal_hrd=vbr / ip_ratio=1.40 / aq=1:1.00
Default : Yes
Forced : No
Color range : Limited
Color primaries : BT.709
Transfer characteristics : BT.709
Matrix coefficients : BT.709
Audio #1
ID : 2
Format : AC-3
Format/Info : Audio Coding 3
Mode extension : CM (complete main)
Format settings, Endianness : Big
Codec ID : A_AC3
Duration : 41 min 19 s
Bit rate mode : Constant
Bit rate : 192 kb/s
Channel(s) : 2 channels
Channel positions : Front: L R
Sampling rate : 48.0 kHz
Frame rate : 31.250 FPS (1536 spf)
Compression mode : Lossy
Stream size : 56.8 MiB (4%)
Language : Russian
Default : Yes
Forced : No
Audio #2
ID : 3
Format : AC-3
Format/Info : Audio Coding 3
Mode extension : CM (complete main)
Format settings, Endianness : Big
Codec ID : A_AC3
Duration : 41 min 19 s
Bit rate mode : Constant
Bit rate : 192 kb/s
Channel(s) : 2 channels
Channel positions : Front: L R
Sampling rate : 48.0 kHz
Frame rate : 31.250 FPS (1536 spf)
Compression mode : Lossy
Stream size : 56.8 MiB (4%)
Language : English
Default : No
Forced : Yes

Внимание:

Раздача ведётся путём добавления новых серий; при каждом добавлении создаётся новый торрент. Чтобы начать докачку новой серии, пользователям необходимо сделать следующее:
- Остановить скачивание.
- Удалить старый торрент у себя из клиента (старые серии удалять не надо).
- Скачать новый торрент и запустить его у себя в клиенте вместо старого, при этом указать клиенту путь в старую папку куда и должно происходить скачивание новых серий.
Добавлено05. Смертоносный ледник / Deadly Glacier
06. Побег из Долины Смерти / Escape From Death Valley
[Профиль] [ЛС]
Кто просматривает тему:

Форум Тема Автор Размер
Discovery Discovery: Америка: факты и домыслы / America: Facts vs. Fiction [сезон 2 серии 1-12 из 12] [2010 г., Документальный, постановочный, история, SATRip] skorpionN 3.7 GB
Discovery Discovery: Анатомия секса / Discovery: Anatomy Of Sex (Джонатан Группер / Jonathan Grupper) [2005, США, документальный, познавательный, физиология, психология, DVDRip] DVO reversefile 700 MB
Discovery Discovery: Багажные войны (4 сезон: 1-12 серии) / Baggage Battles (2014) SATRip sergej644 2.88 GB
Документальные HD Discovery: Без промаха (1 сезон: 3 серия из 6) / Gunslingers (Кристофер Кассел / Christopher Cassel) [2014, Документальный, вестерн, постановочный, HDTVRip 720p] TorrentFilm 795 MB
Discovery Discovery: Без промаха / Gunslingers [сезон 1 серии 1-6 из 6] (Christopher Cassel) [2014 г., Вестерн, постановочный, SATRip] skorpionN 3.68 GB
Discovery Discovery: Взрывая историю / Blowing up History [сезон 1 серии 1-6 из 6] (Martin Gorst) [2016 г., Документальный, история, археология, HDTVRip-AVC 720p] skorpionN 9.55 GB
Документальные HD Discovery: Гангстеры дикой природы / Gangland Killers / 6 эпизодов (6) [2014, Документальный, познавательный, природа, HDTV 1080i] TorrentFilm 20.62 GB
Документальные HD Discovery: Гангстеры дикой природы / Gangland Killers / 6 эпизодов (6) [2014, Документальный, познавательный, природа, HDTVRip 720p] TorrentFilm 9.71 GB
Показать сообщения:    

Текущее время: Сегодня 19:06

Часовой пояс: GMT



Вы не можете начинать темы
Вы не можете отвечать на сообщения
Вы не можете редактировать свои сообщения
Вы не можете удалять свои сообщения
Вы не можете голосовать в опросах
Вы не можете прикреплять файлы к сообщениям
Вы не можете скачивать файлы