Discovery: Столпы Америки / American Titans [сезон 1 серии 6 из 6] (Katie Kennedy) [2015 г., Доку-драма, игровой, биография, история, DVB]

 
Автор Сообщение

skorpionN ®

Пол:

Стаж: 2 года 9 месяцев

Сообщений: 879



Награды: 4 (Подробнее)

Top Releaser 2 (Количество: 1) Mega Seeder 2 (Количество: 1) Mega Seeder 1 (Количество: 1)
Торрент-статистика

Создавать темы 16-Ноя-2017 13:40

[Цитировать]

Discovery: Столпы Америки / American Titans [сезон 1 серии 6 из 6]
Год выпуска: 2015
Страна: CША, Discovery and Tall Story Productions for AHC
Жанр: Доку-драма, игровой, биография, история
Продолжительность: 6x~00:44:00
Перевод: Профессиональный (одноголосый)
Режиссер: Katie Kennedy
В ролях: Joe Feldman-Barros, Keith Pepperell, Sean M. Brown
Описание: Сериал "Титаны Америки" рассказывает малоизвестные истории о людях, которые сделали Америку такой, какой она является сегодня, как они сумели достигнуть непостижимого богатства: Рокфеллер, Карнеги, Форд, Эдисон, Стэнфорд и Херст. Их свирепый нрав, новаторство и часто безрассудство привели их к вершине богатого и мощного списка. Программа посвящена этим выдающимся американцам. Эти люди совершили открытия, которые изменили жизнь людей и подарили человечеству технический прогресс.
Список серий:
01. Карнеги и Фрик / Carnegie vs. Frick
Основатель стальной империи Эндрю Карнеги и угольный король Генри Клэй Фрик объединяют силы, чтобы создать самую мощную индустриальную империю "позолоченного века" Америки.
02. Рокфеллер и Скотт / Rockefeller vs. Scott
Нефтяной магнат Джон Дэвисон Рокфеллер и Томас Скотт, глава местного отделения Пенсильванской железной дороги, начинают борьбу за контроль над новой, нефтяной отраслью Америки.
03. Эдисон и Тесла / Edison vs. Tesla
В конце XIX века два великих ума, Томас Эдисон и Никола Тесла, совершили открытия, которые изменили жизнь людей и подарили человечеству электрическое освещение и переменный ток.
04. Вандербильт и Дрю / Vanderbilt vs. Drew
Железнодорожный магнат Корнелиус Вандербильт и его старый друг Дэниел Дрю борются за проект строительства железной дороги между Нью-Йорком и озером Эри.
05. Херст и Пулитцер / Hearst vs. Pulitzer
В конце 1890-х годов Уильям Рэндольф Херст бросил вызов газетному магнату Джозефу Пулитцеру в войне за тиражи, которая навсегда изменила издательский бизнес.
06. Дейли и Кларк / Daly vs. Clark
Маркус Дейли и Уильям А. Кларк сражались за контроль над меднодобывающей промышленностью в Монтане в конце 19 века.
Рассказ о родоначальниках списка "Fortune 500", которым было суждено привести Америку через индустриальную революцию к "позолоченному веку".
Качество: DVB
Формат: MPEG
Видео кодек: MPEG2
Аудио кодек: MPEG Audio
Видео: 720х576 (16:9) анаморфный (1024x576) 25fps ~2630 Kbps
Аудио 1: (Rus) MPEG Audio 2ch, 48kHz, 192 kbps
Аудио 2: (En) MPEG Audio 2ch, 48kHz, 192 kbps

Скриншоты


MediaInfo:

Format : MPEG-TS
File size : 998 MiB
Duration : 44 min 0 s
Overall bit rate mode : Variable
Overall bit rate : 3 171 kb/s
Video
ID : 210 (0xD2)
Menu ID : 1110 (0x456)
Format : MPEG Video
Format version : Version 2
Format profile : Main@Main
Format settings, BVOP : Yes
Format settings, Matrix : Custom
Format settings, GOP : M=3, N=15
Format settings, picture struc : Frame
Codec ID : 2
Duration : 44 min 0 s
Bit rate mode : Variable
Bit rate : 2 627 kb/s
Maximum bit rate : 9 800 kb/s
Width : 720 pixels
Height : 576 pixels
Display aspect ratio : 16:9
Frame rate : 25.000 FPS
Standard : PAL
Color space : YUV
Chroma subsampling : 4:2:0
Bit depth : 8 bits
Scan type : Interlaced
Scan order : Top Field First
Compression mode : Lossy
Bits/(Pixel*Frame) : 0.253
Time code of first frame : 00:00:00:00
Time code source : Group of pictures header
GOP, Open/Closed : Open
GOP, Open/Closed of first fram : Closed
Stream size : 827 MiB (83%)
Audio #1
ID : 310 (0x136)
Menu ID : 1110 (0x456)
Format : MPEG Audio
Format version : Version 1
Format profile : Layer 2
Codec ID : 3
Duration : 44 min 0 s
Bit rate mode : Constant
Bit rate : 192 kb/s
Channel(s) : 2 channels
Sampling rate : 48.0 kHz
Compression mode : Lossy
Stream size : 60.4 MiB (6%)
Language : Russian
Audio #2
ID : 311 (0x137)
Menu ID : 1110 (0x456)
Format : MPEG Audio
Format version : Version 1
Format profile : Layer 2
Codec ID : 3
Duration : 44 min 0 s
Bit rate mode : Constant
Bit rate : 192 kb/s
Channel(s) : 2 channels
Sampling rate : 48.0 kHz
Compression mode : Lossy
Stream size : 60.4 MiB (6%)
Language : English

Внимание:

Раздача ведётся путём добавления новых серий; при каждом добавлении создаётся новый торрент. Чтобы начать докачку новой серии, пользователям необходимо сделать следующее:
- Остановить скачивание.
- Удалить старый торрент у себя из клиента (старые серии удалять не надо).
- Скачать новый торрент и запустить его у себя в клиенте вместо старого, при этом указать клиенту путь в старую папку куда и должно происходить скачивание новых серий.
Добавлено06. Дейли и Кларк / Daly vs. Clark
[Профиль] [ЛС]

KiruhaDelMar

Стаж: 2 года 8 месяцев

Сообщений: 288



Награды: Нет

Торрент-статистика

Создавать темы 09-Дек-2017 09:03 (спустя 22 дня)

[Цитировать]

сериал окончен fans
[Профиль] [ЛС]
Кто просматривает тему:

Форум Тема Автор Размер
Discovery Discovery: Америка: факты и домыслы / America: Facts vs. Fiction [сезон 2 серии 1-12 из 12] [2010 г., Документальный, постановочный, история, SATRip] skorpionN 3.7 GB
Discovery Discovery: Анатомия секса / Discovery: Anatomy Of Sex (Джонатан Группер / Jonathan Grupper) [2005, США, документальный, познавательный, физиология, психология, DVDRip] DVO reversefile 700 MB
Discovery Discovery: Багажные войны (4 сезон: 1-12 серии) / Baggage Battles (2014) SATRip sergej644 2.88 GB
Документальные HD Discovery: Без промаха (1 сезон: 3 серия из 6) / Gunslingers (Кристофер Кассел / Christopher Cassel) [2014, Документальный, вестерн, постановочный, HDTVRip 720p] TorrentFilm 795 MB
Discovery Discovery: Без промаха / Gunslingers [сезон 1 серии 1-6 из 6] (Christopher Cassel) [2014 г., Вестерн, постановочный, SATRip] skorpionN 3.68 GB
Discovery Discovery: Взрывая историю / Blowing up History [сезон 1 серии 1-6 из 6] (Martin Gorst) [2016 г., Документальный, история, археология, HDTVRip-AVC 720p] skorpionN 9.55 GB
Документальные HD Discovery: Гангстеры дикой природы / Gangland Killers / 6 эпизодов (6) [2014, Документальный, познавательный, природа, HDTV 1080i] TorrentFilm 20.62 GB
Документальные HD Discovery: Гангстеры дикой природы / Gangland Killers / 6 эпизодов (6) [2014, Документальный, познавательный, природа, HDTVRip 720p] TorrentFilm 9.71 GB
Показать сообщения:    

Текущее время: Сегодня 14:43

Часовой пояс: GMT



Вы не можете начинать темы
Вы не можете отвечать на сообщения
Вы не можете редактировать свои сообщения
Вы не можете удалять свои сообщения
Вы не можете голосовать в опросах
Вы не можете прикреплять файлы к сообщениям
Вы не можете скачивать файлы