Discovery: Смертельные острова / Deadly Islands / 2 эпизода (6) [2014, Документальный, познавательный, природа, HDTVRip 720p]

 
Автор Сообщение

TorrentFilm ®

Пол:

Стаж: 2 года

Сообщений: 7741



Награды: Нет

Торрент-статистика

Создавать темы 14-Янв-2015 00:00

[Цитировать]

Смертельные острова / Deadly Islands
-Год выпуска: 2014
Страна: Великобритания
Производство: Silverback Films for Discovery Networks
Жанр: Документальный, познавательный, природа
Продолжительность: 2 x ~00:43:55
В главной роли: Dave Salmoni-Перевод: Студийный (одноголосый закадровый) [Студия АРК ТВ]
Русские субтитры: нет-Описание: Канадский биолог и эксперт по поведению животных - Дэйв Салмони (Dave Salmoni) уже много лет работает с крупными хищниками. На это раз он отправляется к самым отдаленным и негостеприимным островам планеты в роли детектива, чтобы разгадать удивительные загадки и тайны в тех местах. Потому что именно в них животные начали вести себя необъяснимо, и поэтому Дэйв постарается раскрыть их секреты вместе со своей съемочной командой.-Источник записи: Рип с HDTV-записи телеканала Animal Planet HD.
Автор рипа - san007-Тип релиза: HDTVRip 720p
Контейнер: MKV-Видео: AVC H.264, 1280x720p (16:9), 25p fps, ~3850 kbps, ~0.16,7 bits/pixel
Аудио 1: Russian, AC3, 48KHz, 5.1 (6 channels), 384 kbps
Аудио 2: English, AC3, 48KHz, 5.1 (6 channels), 384 kbps-

Раздача в HDTV 1080i

Список и описание эпизодов

E01
----------------------------
E02
----------------------------
E03
----------------------------
E04 Volcano Island - Остров-вулкан (Фернандина), [Галапагосы, Эквадор]
Фернандина - самый негостеприимный остров Галапагосского архипелага. Почти весь остров занимает вулкан, который является одним из самых активных на Земле. Здесь почти нет воды и невыносимо жарко. Но живая природа удивительным образом приспособилась выживать на этом острове. Дэйв отправляется на остров, чтобы познакомиться с уникальными животными и узнать секреты их выживания на вулкане.
E05 Devil's Island - Дьявольский остров (Койба), [Панама]
Недалеко от побережья Панамы, тропический остров Койба в Тихом океане обрел очень зловещую репутацию. Это место настолько пугающее, что никто даже близко к нему не подплывает. Местные давно прозвали его "дьявольским островом". По их рассказам, этот остров полон темных секретов, чудовищ и вампиров. Дэйв вынужден вплавь добираться до острова, чтобы разгадать его мрачные тайны.
E06
----------------------------

MediaInfo

Format : Matroska
Format version : Version 4 / Version 2
File size : 1.42 GiB
Duration : 43mn 53s
Overall bit rate : 4 625 Kbps
Movie name : Deadly Islands E04 Volcano Island
Encoded date : UTC 2015-01-12 03:35:26
Writing application : mkvmerge v7.5.0 ('Glass Culture') 64bit
Writing library : libebml v1.3.1 + libmatroska v1.4.2
Video
ID : 1
Format : AVC
Format/Info : Advanced Video Codec
Format profile : High@L4.1
Format settings, CABAC : Yes
Format settings, ReFrames : 8 frames
Codec ID : V_MPEG4/ISO/AVC
Duration : 43mn 53s
Bit rate : 3 855 Kbps
Width : 1 280 pixels
Height : 720 pixels
Display aspect ratio : 16:9
Frame rate mode : Constant
Frame rate : 25.000 fps
Color space : YUV
Chroma subsampling : 4:2:0
Bit depth : 8 bits
Scan type : Progressive
Bits/(Pixel*Frame) : 0.167
Stream size : 1.15 GiB (81%)
Writing library : x264 core 142 r2479kMod dd79a61
Encoding settings : cabac=1 / ref=8 / deblock=1:-1:-1 / analyse=0x3:0x133 / me=umh / subme=9 / psy=1 / fade_compensate=0.00 / psy_rd=1.00:0.10 / mixed_ref=1 / me_range=24 / chroma_me=1 / trellis=2 / 8x8dct=1 / cqm=0 / deadzone=21,11 / fast_pskip=1 / chroma_qp_offset=-3 / threads=6 / lookahead_threads=1 / sliced_threads=0 / nr=0 / decimate=1 / interlaced=0 / bluray_compat=0 / constrained_intra=0 / fgo=0 / bframes=8 / b_pyramid=2 / b_adapt=2 / b_bias=0 / direct=3 / weightb=1 / open_gop=0 / weightp=2 / keyint=250 / keyint_min=25 / scenecut=40 / intra_refresh=0 / rc_lookahead=60 / rc=2pass / mbtree=1 / bitrate=3855 / ratetol=1.0 / qcomp=0.60 / qpmin=0 / qpmax=69 / qpstep=4 / cplxblur=20.0 / qblur=0.5 / ip_ratio=1.40 / aq=1:1.00
Default : Yes
Forced : No
Audio #1
ID : 2
Format : AC-3
Format/Info : Audio Coding 3
Mode extension : CM (complete main)
Format settings, Endianness : Big
Codec ID : A_AC3
Duration : 43mn 53s
Bit rate mode : Constant
Bit rate : 384 Kbps
Channel(s) : 6 channels
Channel positions : Front: L C R, Side: L R, LFE
Sampling rate : 48.0 KHz
Bit depth : 16 bits
Compression mode : Lossy
Stream size : 121 MiB (8%)
Title : Russian
Language : Russian
Default : Yes
Forced : No
Audio #2
ID : 3
Format : AC-3
Format/Info : Audio Coding 3
Mode extension : CM (complete main)
Format settings, Endianness : Big
Codec ID : A_AC3
Duration : 43mn 53s
Bit rate mode : Constant
Bit rate : 384 Kbps
Channel(s) : 6 channels
Channel positions : Front: L C R, Side: L R, LFE
Sampling rate : 48.0 KHz
Bit depth : 16 bits
Compression mode : Lossy
Stream size : 121 MiB (8%)
Title : English
Language : English
Default : No
Forced : No
[Профиль] [ЛС]
Кто просматривает тему:

Форум Тема Автор Размер
Discovery Discovery: Америка: факты и домыслы / America: Facts vs. Fiction [сезон 2 серии 1-12 из 12] [2010 г., Документальный, постановочный, история, SATRip] skorpionN 3.7 GB
Discovery Discovery: Анатомия секса / Discovery: Anatomy Of Sex (Джонатан Группер / Jonathan Grupper) [2005, США, документальный, познавательный, физиология, психология, DVDRip] DVO reversefile 700 MB
Discovery Discovery: Багажные войны (4 сезон: 1-12 серии) / Baggage Battles (2014) SATRip sergej644 2.88 GB
Документальные HD Discovery: Без промаха (1 сезон: 3 серия из 6) / Gunslingers (Кристофер Кассел / Christopher Cassel) [2014, Документальный, вестерн, постановочный, HDTVRip 720p] TorrentFilm 795 MB
Discovery Discovery: Без промаха / Gunslingers [сезон 1 серии 1-6 из 6] (Christopher Cassel) [2014 г., Вестерн, постановочный, SATRip] skorpionN 3.68 GB
Документальные HD Discovery: Гангстеры дикой природы / Gangland Killers / 6 эпизодов (6) [2014, Документальный, познавательный, природа, HDTV 1080i] TorrentFilm 20.62 GB
Документальные HD Discovery: Гангстеры дикой природы / Gangland Killers / 6 эпизодов (6) [2014, Документальный, познавательный, природа, HDTVRip 720p] TorrentFilm 9.71 GB
Документальные HD Discovery: Загадочные животные острова Джао / The Secret Creatures of Jao / 7 серий из 7 [2009, Документальный, познавательный, HDTV 1080i] TorrentFilm 10.05 GB
Показать сообщения:    

Текущее время: Сегодня 02:15

Часовой пояс: GMT



Вы не можете начинать темы
Вы не можете отвечать на сообщения
Вы не можете редактировать свои сообщения
Вы не можете удалять свои сообщения
Вы не можете голосовать в опросах
Вы не можете прикреплять файлы к сообщениям
Вы не можете скачивать файлы