Discovery: Смертельные острова / Deadly Islands / 2 эпизода (6) [2014, Документальный, познавательный, природа, HDTV 1080i]

 
Автор Сообщение

TorrentFilm ®

Пол:

Стаж: 2 года

Сообщений: 7741



Награды: Нет

Торрент-статистика

Создавать темы 14-Янв-2015 00:00

[Цитировать]

Смертельные острова / Deadly Islands
-Год выпуска: 2014
Страна: Великобритания
Производство: Silverback Films for Discovery Networks
Жанр: Документальный, познавательный, природа
Продолжительность: 2 x ~00:43:55
В главной роли: Dave Salmoni-Перевод: Студийный (одноголосый закадровый) [Студия АРК ТВ]
Русские субтитры: нет-Описание: Канадский биолог и эксперт по поведению животных - Дэйв Салмони (Dave Salmoni) уже много лет работает с крупными хищниками. На это раз он отправляется к самым отдаленным и негостеприимным островам планеты в роли детектива, чтобы разгадать удивительные загадки и тайны в тех местах. Потому что именно в них животные начали вести себя необъяснимо, и поэтому Дэйв постарается раскрыть их секреты вместе со своей съемочной командой.-Источник записи: HDTV-запись с телеканала Animal Planet HD от san007-Тип релиза: HDTV 1080i
Контейнер: MKV-Видео: AVC H.264, 1920x1080i (16:9), 50i fps, ~8670 kbps, ~0.16,7 bits/pixel
Аудио 1: Russian, AC3, 48KHz, 5.1 (6 channels), 384 kbps
Аудио 2: English, AC3, 48KHz, 5.1 (6 channels), 384 kbps-

Раздача в HDTVRip 720p

Список и описание эпизодов

E01
----------------------------
E02
----------------------------
E03
----------------------------
E04 Volcano Island - Остров-вулкан (Фернандина), [Галапагосы, Эквадор]
Фернандина - самый негостеприимный остров Галапагосского архипелага. Почти весь остров занимает вулкан, который является одним из самых активных на Земле. Здесь почти нет воды и невыносимо жарко. Но живая природа удивительным образом приспособилась выживать на этом острове. Дэйв отправляется на остров, чтобы познакомиться с уникальными животными и узнать секреты их выживания на вулкане.
E05 Devil's Island - Дьявольский остров (Койба), [Панама]
Недалеко от побережья Панамы, тропический остров Койба в Тихом океане обрел очень зловещую репутацию. Это место настолько пугающее, что никто даже близко к нему не подплывает. Местные давно прозвали его "дьявольским островом". По их рассказам, этот остров полон темных секретов, чудовищ и вампиров. Дэйв вынужден вплавь добираться до острова, чтобы разгадать его мрачные тайны.
E06
----------------------------

MediaInfo

Format : Matroska
Format version : Version 4 / Version 2
File size : 2.95 GiB
Duration : 43mn 53s
Overall bit rate mode : Variable
Overall bit rate : 9 619 Kbps
Movie name : Deadly Islands E04 Volcano Island
Encoded date : UTC 2015-01-11 14:16:56
Writing application : mkvmerge v7.5.0 ('Glass Culture') 64bit
Writing library : libebml v1.3.1 + libmatroska v1.4.2
Video
ID : 1
Format : AVC
Format/Info : Advanced Video Codec
Format profile : High@L4.0
Format settings, CABAC : Yes
Format settings, ReFrames : 4 frames
Codec ID : V_MPEG4/ISO/AVC
Duration : 43mn 53s
Bit rate mode : Variable
Bit rate : 8 660 Kbps
Maximum bit rate : 40.0 Mbps
Width : 1 920 pixels
Height : 1 080 pixels
Display aspect ratio : 16:9
Frame rate mode : Constant
Frame rate : 25.000 fps
Color space : YUV
Chroma subsampling : 4:2:0
Bit depth : 8 bits
Scan type : MBAFF
Bits/(Pixel*Frame) : 0.167
Stream size : 2.65 GiB (90%)
Default : Yes
Forced : No
Color primaries : BT.709
Transfer characteristics : BT.709
Matrix coefficients : BT.709
Audio #1
ID : 2
Format : AC-3
Format/Info : Audio Coding 3
Mode extension : CM (complete main)
Format settings, Endianness : Big
Codec ID : A_AC3
Duration : 43mn 53s
Bit rate mode : Constant
Bit rate : 384 Kbps
Channel(s) : 6 channels
Channel positions : Front: L C R, Side: L R, LFE
Sampling rate : 48.0 KHz
Bit depth : 16 bits
Compression mode : Lossy
Stream size : 121 MiB (4%)
Title : Russian
Language : Russian
Default : Yes
Forced : No
Audio #2
ID : 3
Format : AC-3
Format/Info : Audio Coding 3
Mode extension : CM (complete main)
Format settings, Endianness : Big
Codec ID : A_AC3
Duration : 43mn 53s
Bit rate mode : Constant
Bit rate : 384 Kbps
Channel(s) : 6 channels
Channel positions : Front: L C R, Side: L R, LFE
Sampling rate : 48.0 KHz
Bit depth : 16 bits
Compression mode : Lossy
Stream size : 121 MiB (4%)
Title : English
Language : English
Default : No
Forced : No
[Профиль] [ЛС]
Кто просматривает тему:

Форум Тема Автор Размер
Discovery Discovery: Америка: факты и домыслы / America: Facts vs. Fiction [сезон 2 серии 1-12 из 12] [2010 г., Документальный, постановочный, история, SATRip] skorpionN 3.7 GB
Discovery Discovery: Анатомия секса / Discovery: Anatomy Of Sex (Джонатан Группер / Jonathan Grupper) [2005, США, документальный, познавательный, физиология, психология, DVDRip] DVO reversefile 700 MB
Discovery Discovery: Багажные войны (4 сезон: 1-12 серии) / Baggage Battles (2014) SATRip sergej644 2.88 GB
Документальные HD Discovery: Без промаха (1 сезон: 3 серия из 6) / Gunslingers (Кристофер Кассел / Christopher Cassel) [2014, Документальный, вестерн, постановочный, HDTVRip 720p] TorrentFilm 795 MB
Discovery Discovery: Без промаха / Gunslingers [сезон 1 серии 1-6 из 6] (Christopher Cassel) [2014 г., Вестерн, постановочный, SATRip] skorpionN 3.68 GB
Документальные HD Discovery: Гангстеры дикой природы / Gangland Killers / 6 эпизодов (6) [2014, Документальный, познавательный, природа, HDTV 1080i] TorrentFilm 20.62 GB
Документальные HD Discovery: Гангстеры дикой природы / Gangland Killers / 6 эпизодов (6) [2014, Документальный, познавательный, природа, HDTVRip 720p] TorrentFilm 9.71 GB
Документальные HD Discovery: Загадочные животные острова Джао / The Secret Creatures of Jao / 7 серий из 7 [2009, Документальный, познавательный, HDTV 1080i] TorrentFilm 10.05 GB
Показать сообщения:    

Текущее время: Сегодня 03:13

Часовой пояс: GMT



Вы не можете начинать темы
Вы не можете отвечать на сообщения
Вы не можете редактировать свои сообщения
Вы не можете удалять свои сообщения
Вы не можете голосовать в опросах
Вы не можете прикреплять файлы к сообщениям
Вы не можете скачивать файлы