Discovery: Секреты и Заговоры / Codes and Conspiracies [сезон 2 серии 1-6 из 6] (Darryl Rehr) [2015 г., Документальный, исследование, история, SATRip]

 
Автор Сообщение

skorpionN ®

Пол:

Стаж: 1 год 8 месяцев

Сообщений: 591



Награды: 4 (Подробнее)

Mega Seeder 3 (Количество: 1) Mega Seeder 1 (Количество: 1) Top Releaser 2 (Количество: 1)
Торрент-статистика

Создавать темы 01-Июл-2015 18:34

[Цитировать]

Discovery: Секреты и Заговоры / Codes and Conspiracies [сезон 2 серии 1-6 из 6]
Год выпуска: 2014
Страна: США, Discovery, Flight 33 Productions for American Heroes Channel (AHC)
Жанр: Документальный, исследование, история
Продолжительность: 6x~00:44:04
Перевод: Профессиональный (одноголосый), студия "Кирилица", текст читал Павел Кипнис
Режиссер: Darryl Rehr
Описание: Сериал "Секреты и Заговоры" исследует неизвестные и скрытые истории самых знаковых мест и тайных организаций в мире. Раскройте скрытую сторону Америки, открыв потрясающие секреты подпольных заведений, сверхсекретных мест и таинственных символов.
Список серий:
01. Лас-Вегас / Las Vegas
Почему Лас-Вегас был одной из военных целей нацистов, полигоном для испытания атомных бомб и местом встречи террористов 11 сентября? Мы раскроем секреты этого города.
02. Нацисты в Америке / American Nazis
В 30-х годах XX века американские нацисты терроризировали США. На их совести многое, от стычек на Мэдисон-сквер-гарден до попыток выкрасть секретную информацию о военном оружии.
03. Древние астронавты / Did Aliens Visit the Ancients?
Действительно ли инопланетяне помогали строить пирамиды? Или тайна «древних астронавтов» — это лишь вымысел, навеянный книгами швейцарского автора Эриха фон Дэникена?
04. Отцы-основатели / Founding Fathers
В этой серии вы сможете узнать, кто из отцов — основателей Америки использовал секс как инструмент дипломатии, а кто тайком потешался над божественной природой Христа.
05. Опасные секты / Deadly Cults
Адские муки, Армагеддон, пришельцы из других миров. В США есть немало людей, готовых сломя голову броситься в смертельные объятия тоталитарных сект.
06. Экспериментальные солдаты / Experimental Soldiers
В разгар холодной войны США пытались разработать способ создания поколения "суперсолдат", выигрывающих сражения с помощью телепатии.
Качество: SATRip
Формат: AVI
Видео кодек: XviD
Аудио кодек: AC3
Видео: 720x400 25fps 1799kbps
Аудио: AC3 2ch, 48kHz, 192 kbps
Discovery: Секреты и Заговоры / Codes and Conspiracies [сезон 1]
Discovery: Секреты и Заговоры / Codes and Conspiracies [сезон 2]

Скриншоты


MediaInfo:

Format : AVI
Format/Info : Audio Video Interleave
File size : 630 MiB
Duration : 44mn 3s
Overall bit rate : 1 999 Kbps
Writing application : TMPGEnc Video Mastering Works 5 Version. 5.0.6.38
Writing library : TMPGEnc Video Mastering Works 5 Version. 5.0.6.38
Video
ID : 0
Format : MPEG-4 Visual
Format profile : Advanced Simple@L5
Format settings, BVOP : 2
Format settings, QPel : No
Format settings, GMC : No warppoints
Format settings, Matrix : Default (H.263)
Muxing mode : Packed bitstream
Codec ID : XVID
Codec ID/Hint : XviD
Duration : 44mn 3s
Bit rate : 1 800 Kbps
Width : 720 pixels
Height : 400 pixels
Display aspect ratio : 16:9
Frame rate : 25.000 fps
Color space : YUV
Chroma subsampling : 4:2:0
Bit depth : 8 bits
Scan type : Progressive
Compression mode : Lossy
Bits/(Pixel*Frame) : 0.250
Stream size : 567 MiB (90%)
Writing library : XviD 73
Audio
ID : 1
Format : AC-3
Format/Info : Audio Coding 3
Mode extension : CM (complete main)
Format settings, Endianness : Big
Codec ID : 2000
Duration : 44mn 3s
Bit rate mode : Constant
Bit rate : 192 Kbps
Channel(s) : 2 channels
Channel positions : Front: L R
Sampling rate : 48.0 KHz
Compression mode : Lossy
Stream size : 60.5 MiB (10%)
Alignment : Aligned on interleaves
Interleave, duration : 240 ms (6.00 video frames)
Interleave, preload duration : 224 ms

Внимание! Раздача ведётся путём добавления новых выпусков

Внимание! Раздача ведётся путём добавления новых выпусков; при каждом добавлении создаётся новый торрент. Чтобы начать докачку нового выпуска, пользователям необходимо сделать следующее:
(1) остановить скачивание,
(2) удалить старый торрент у себя из клиента (старые серии удалять не надо),
(3) скачать новый торрент и запустить его у себя в клиенте вместо старого, при этом указать клиенту путь в старую папку куда и должно происходить скачивание новых выпусков.
Ваш клиент при этом должен произвести хеширование (проверку) старой папки (если не производит сам - помогите ему сделать это). В результате он будет докачивать только те выпуски, которых у Вас ещё нет. Старые выпуски при этом не удаляются, а продолжают раздаваться!
Eсли Вы уже удалили старые выпуски, то предотвратить их повторную закачку можно, сняв галочки в соответствующих местах при запуске нового торрента. По возможности, желательно не удалять старые выпуски как можно дольше, чтобы релизёр не только продолжал раздавать старые выпуски, но и смог сконцентрироваться на новых.
Добавлена серия 06. Экспериментальные солдаты / Experimental Soldiers


Последний раз редактировалось: skorpionN (2015-07-22 20:46), всего редактировалось 5 раз(а)
[Профиль] [ЛС]

skorpionN ®

Пол:

Стаж: 1 год 8 месяцев

Сообщений: 591



Награды: 4 (Подробнее)

Mega Seeder 1 (Количество: 1) Mega Seeder 2 (Количество: 1) Top Releaser 2 (Количество: 1)
Торрент-статистика

Создавать темы 05-Авг-2015 18:43 (спустя 1 месяц 4 дня)

[Цитировать]

Сезон окончен
[Профиль] [ЛС]
Кто просматривает тему:

Форум Тема Автор Размер
Discovery Discovery: Америка: факты и домыслы / America: Facts vs. Fiction [сезон 2 серии 1-12 из 12] [2010 г., Документальный, постановочный, история, SATRip] skorpionN 3.7 GB
Discovery Discovery: Анатомия секса / Discovery: Anatomy Of Sex (Джонатан Группер / Jonathan Grupper) [2005, США, документальный, познавательный, физиология, психология, DVDRip] DVO reversefile 700 MB
Discovery Discovery: Багажные войны (4 сезон: 1-12 серии) / Baggage Battles (2014) SATRip sergej644 2.88 GB
Документальные HD Discovery: Без промаха (1 сезон: 3 серия из 6) / Gunslingers (Кристофер Кассел / Christopher Cassel) [2014, Документальный, вестерн, постановочный, HDTVRip 720p] TorrentFilm 795 MB
Discovery Discovery: Без промаха / Gunslingers [сезон 1 серии 1-6 из 6] (Christopher Cassel) [2014 г., Вестерн, постановочный, SATRip] skorpionN 3.68 GB
Документальные HD Discovery: Гангстеры дикой природы / Gangland Killers / 6 эпизодов (6) [2014, Документальный, познавательный, природа, HDTV 1080i] TorrentFilm 20.62 GB
Документальные HD Discovery: Гангстеры дикой природы / Gangland Killers / 6 эпизодов (6) [2014, Документальный, познавательный, природа, HDTVRip 720p] TorrentFilm 9.71 GB
Документальные HD Discovery: Загадочные животные острова Джао / The Secret Creatures of Jao / 7 серий из 7 [2009, Документальный, познавательный, HDTV 1080i] TorrentFilm 10.05 GB
Показать сообщения:    

Текущее время: Сегодня 11:54

Часовой пояс: GMT



Вы не можете начинать темы
Вы не можете отвечать на сообщения
Вы не можете редактировать свои сообщения
Вы не можете удалять свои сообщения
Вы не можете голосовать в опросах
Вы не можете прикреплять файлы к сообщениям
Вы не можете скачивать файлы