Discovery: Секреты и Заговоры / Codes and Conspiracies [сезон 1 серии 1-6 из 6] (Tim Evans) [2014 г., Документальный, исследование, история, SATRip]

 
Автор Сообщение

skorpionN ®

Пол:

Стаж: 1 год 8 месяцев

Сообщений: 584



Награды: 4 (Подробнее)

Mega Seeder 1 (Количество: 1) Mega Seeder 2 (Количество: 1) Top Releaser 2 (Количество: 1)
Торрент-статистика

Создавать темы 12-Апр-2015 20:40

[Цитировать]

Discovery: Секреты и Заговоры / Codes and Conspiracies [сезон 1 серии 1-6 из 6]
Год выпуска: 2014
Страна: США, Discovery, Flight 33 Productions for American Heroes Channel (AHC)
Жанр: Документальный, исследование, история
Продолжительность: 6x~00:43:55
Перевод: Профессиональный (одноголосый), студия "Кирилица", текст читал Павел Кипнис
Режиссер: Tim Evans
В ролях: Dan Nachtrab, Adolf Hitler, Dwight D. Eisenhower
Описание:
Сериал "Секреты и Заговоры" исследует неизвестные и скрытые истории самых знаковых мест и тайных организаций в мире. Раскройте скрытую сторону Америки, открыв потрясающие секреты подпольных заведений, сверхсекретных мест и таинственных символов.
Список серий:
01. Алькатрас / Alcatraz
Мы расскажем о том, как в результате заговора удалось бежать трём пленникам Алькатраса, и покажем остатки военного поста, историю которого связывают с Авраамом Линкольном.
02. Байкеры вне закона / Outlaw Bikers
Байкеры часто объединяются в организации. Что это на самом деле? Международные преступные синдикаты или просто клубы нонконформистов?
03. НЛО: совершенно секретно / The UFO Cover-Up
Говорят, что в Нью-Мехико упала нацистская тарелка, а в Зоне 51 живут инопланетяне. Давайте разбираться, где правда, а где вымысел.
04. Бункеры / Bunkers
У нас появилась возможность заглянуть в секретные бункеры США. Они бывают разные: от маленьких убежищ на заднем дворе до небольших городов, выстроенных для правительства Америки.
05. Бордели / Brothels
Мы приоткроем занавес, за которым кроются самые злачные места Америки. В стенах борделей порой раскрывались секреты высших лиц государства и церкви.
06. Франкмасоны (Вольные каменщики) / Freemasons
Большинство "отцов-основателей" и 14 президентов США были франкмасонами. Поговаривают даже, будто округ Вашингтон устроен в соответствии с кодексом масонского ордена
Качество: SATRip
Формат: AVI
Видео кодек: XviD
Аудио кодек: AC3
Видео: 720x400 25fps 1799kbps
Аудио: AC3 2ch, 48kHz, 192 kbps
Discovery: Секреты и Заговоры / Codes and Conspiracies [сезон 1]
Discovery: Секреты и Заговоры / Codes and Conspiracies [сезон 2]

Скриншоты


MediaInfo:

Format : AVI
Format/Info : Audio Video Interleave
File size : 628 MiB
Duration : 43mn 55s
Overall bit rate : 2 000 Kbps
Writing application : TMPGEnc Video Mastering Works 5 Version. 5.0.6.38
Writing library : TMPGEnc Video Mastering Works 5 Version. 5.0.6.38
Video
ID : 0
Format : MPEG-4 Visual
Format profile : Advanced Simple@L5
Format settings, BVOP : 2
Format settings, QPel : No
Format settings, GMC : No warppoints
Format settings, Matrix : Default (H.263)
Muxing mode : Packed bitstream
Codec ID : XVID
Codec ID/Hint : XviD
Duration : 43mn 55s
Bit rate : 1 800 Kbps
Width : 720 pixels
Height : 400 pixels
Display aspect ratio : 16:9
Frame rate : 25.000 fps
Color space : YUV
Chroma subsampling : 4:2:0
Bit depth : 8 bits
Scan type : Progressive
Compression mode : Lossy
Bits/(Pixel*Frame) : 0.250
Stream size : 565 MiB (90%)
Writing library : XviD 73
Audio
ID : 1
Format : AC-3
Format/Info : Audio Coding 3
Mode extension : CM (complete main)
Format settings, Endianness : Big
Codec ID : 2000
Duration : 43mn 55s
Bit rate mode : Constant
Bit rate : 192 Kbps
Channel(s) : 2 channels
Channel positions : Front: L R
Sampling rate : 48.0 KHz
Bit depth : 16 bits
Compression mode : Lossy
Stream size : 60.3 MiB (10%)
Alignment : Aligned on interleaves
Interleave, duration : 240 ms (6.00 video frames)
Interleave, preload duration : 224 ms

Внимание! Раздача ведётся путём добавления новых выпусков

Внимание! Раздача ведётся путём добавления новых выпусков; при каждом добавлении создаётся новый торрент. Чтобы начать докачку нового выпуска, пользователям необходимо сделать следующее:
(1) остановить скачивание,
(2) удалить старый торрент у себя из клиента (старые серии удалять не надо),
(3) скачать новый торрент и запустить его у себя в клиенте вместо старого, при этом указать клиенту путь в старую папку куда и должно происходить скачивание новых выпусков.
Ваш клиент при этом должен произвести хеширование (проверку) старой папки (если не производит сам - помогите ему сделать это). В результате он будет докачивать только те выпуски, которых у Вас ещё нет. Старые выпуски при этом не удаляются, а продолжают раздаваться!
Eсли Вы уже удалили старые выпуски, то предотвратить их повторную закачку можно, сняв галочки в соответствующих местах при запуске нового торрента. По возможности, желательно не удалять старые выпуски как можно дольше, чтобы релизёр не только продолжал раздавать старые выпуски, но и смог сконцентрироваться на новых.
Добавлена серия 02. Байкеры вне закона / Outlaw Bikers


Последний раз редактировалось: skorpionN (2015-07-02 10:43), всего редактировалось 13 раз(а)
[Профиль] [ЛС]

KiruhaDelMar

Стаж: 1 год 8 месяцев

Сообщений: 246



Награды: Нет

Торрент-статистика

Создавать темы 30-Апр-2015 09:04 (спустя 17 дней)

[Цитировать]

Эу , ты де bi
[Профиль] [ЛС]

skorpionN ®

Пол:

Стаж: 1 год 8 месяцев

Сообщений: 584



Награды: 4 (Подробнее)

Mega Seeder 1 (Количество: 1) Mega Seeder 3 (Количество: 1) Mega Seeder 2 (Количество: 1)
Торрент-статистика

Создавать темы 30-Апр-2015 11:28 (спустя 2 часа 23 минуты)

[Цитировать]

В поле. Посевная видать
[Профиль] [ЛС]

skorpionN ®

Пол:

Стаж: 1 год 8 месяцев

Сообщений: 584



Награды: 4 (Подробнее)

Mega Seeder 3 (Количество: 1) Top Releaser 2 (Количество: 1) Mega Seeder 2 (Количество: 1)
Торрент-статистика

Создавать темы 13-Май-2015 18:50 (спустя 13 дней)

[Цитировать]

Сезон окончен hmmm
[Профиль] [ЛС]
Кто просматривает тему:

Форум Тема Автор Размер
Discovery Discovery: Америка: факты и домыслы / America: Facts vs. Fiction [сезон 2 серии 1-12 из 12] [2010 г., Документальный, постановочный, история, SATRip] skorpionN 3.7 GB
Discovery Discovery: Анатомия секса / Discovery: Anatomy Of Sex (Джонатан Группер / Jonathan Grupper) [2005, США, документальный, познавательный, физиология, психология, DVDRip] DVO reversefile 700 MB
Discovery Discovery: Багажные войны (4 сезон: 1-12 серии) / Baggage Battles (2014) SATRip sergej644 2.88 GB
Документальные HD Discovery: Без промаха (1 сезон: 3 серия из 6) / Gunslingers (Кристофер Кассел / Christopher Cassel) [2014, Документальный, вестерн, постановочный, HDTVRip 720p] TorrentFilm 795 MB
Discovery Discovery: Без промаха / Gunslingers [сезон 1 серии 1-6 из 6] (Christopher Cassel) [2014 г., Вестерн, постановочный, SATRip] skorpionN 3.68 GB
Документальные HD Discovery: Гангстеры дикой природы / Gangland Killers / 6 эпизодов (6) [2014, Документальный, познавательный, природа, HDTV 1080i] TorrentFilm 20.62 GB
Документальные HD Discovery: Гангстеры дикой природы / Gangland Killers / 6 эпизодов (6) [2014, Документальный, познавательный, природа, HDTVRip 720p] TorrentFilm 9.71 GB
Документальные HD Discovery: Загадочные животные острова Джао / The Secret Creatures of Jao / 7 серий из 7 [2009, Документальный, познавательный, HDTV 1080i] TorrentFilm 10.05 GB
Показать сообщения:    

Текущее время: Сегодня 08:27

Часовой пояс: GMT



Вы не можете начинать темы
Вы не можете отвечать на сообщения
Вы не можете редактировать свои сообщения
Вы не можете удалять свои сообщения
Вы не можете голосовать в опросах
Вы не можете прикреплять файлы к сообщениям
Вы не можете скачивать файлы