Discovery. Под властью роботов / Discovery. When Robots Rule (Ворнер Барнез) [01.03.2014, документальный, HDTVRip]

 
Автор Сообщение

reversefile ®

Пол:

Стаж: 4 года 5 месяцев

Сообщений: 842

Откуда: ReverseFile.org



Награды: Нет

Торрент-статистика

Создавать темы 24-Июл-2014 17:55

[Цитировать]

Discovery. Под властью роботов
Discovery. When Robots Rule
--Дата/Год выпуска: 01.03.2014
Страна: США
Жанр: документальный
Продолжительность: 00:43:42
Перевод: Студийный (одноголосый закадровый)
Русские субтитры: нет--Оригинальная аудиодорожка: нет
Режиссер: Ворнер Барнез
Телеканал: Discovery--Описание: Мы хозяева планеты. 200 тысяч лет мы царили в этом мире, благодаря нашему разуму. Но кое-кто утверждают, что эти дни скоро минуют. На подходе новая форма разума - искусственный интеллект. Величайшие инженеры скоро создадут машины, способные мыслить самостоятельно. Машины, чей разум может превзойти наш собственный. Это явление называется сингулярностью. Эксперты размышляют над тем, каким будет мир, если власть перейдет к сверхразумным машинам. Будет ли это похожим на рай или на ад. Наступит ли эра бессмертия или вырождения. Одно мы знаем точно - процесс запущен.--Сэмпл
Качество: HDTVRip
Формат: AVI
Видео: Xvid 720x400 25fps 1430Kbps
Аудио: Dolby AC3 48000Hz stereo 192kbps--

MediaInfo

GeneralComplete name : D:\TORRENTS\Discovery. When Robots Rule.aviFormat : AVIFormat/Info : Audio Video InterleaveFile size : 510 MiBDuration : 43mn 42sOverall bit rate : 1 632 KbpsWriting application : VirtualDubMod 1.5.10.3 | www.virtualdub-fr.org || (build 2550/release)Writing library : VirtualDubMod build 2550/release
VideoID : 0Format : MPEG-4 VisualFormat profile : Advanced Simple@L5Format settings, BVOP : YesFormat settings, QPel : NoFormat settings, GMC : No warppointsFormat settings, Matrix : Default (H.263)Codec ID : XVIDCodec ID/Hint : XviDDuration : 43mn 42sBit rate : 1 430 KbpsWidth : 720 pixelsHeight : 400 pixelsDisplay aspect ratio : 16:9Frame rate : 25.000 fpsColor space : YUVChroma subsampling : 4:2:0Bit depth : 8 bitsScan type : ProgressiveCompression mode : LossyBits/(Pixel*Frame) : 0.199Stream size : 447 MiB (88%)Writing library : XviD 73
AudioID : 1Format : AC-3Format/Info : Audio Coding 3Mode extension : CM (complete main)Format settings, Endianness : BigCodec ID : 2000Duration : 43mn 42sBit rate mode : ConstantBit rate : 192 KbpsChannel count : 2 channelsChannel positions : Front: L RSampling rate : 48.0 KHzBit depth : 16 bitsCompression mode : LossyStream size : 60.0 MiB (12%)Alignment : Split accross interleavesInterleave, duration : 40 ms (1.00 video frame)Interleave, preload duration : 500 ms

Скриншоты

-

-
-
[Профиль] [ЛС]
Показать сообщения:    

Текущее время: Сегодня 14:44

Часовой пояс: GMT



Вы не можете начинать темы
Вы не можете отвечать на сообщения
Вы не можете редактировать свои сообщения
Вы не можете удалять свои сообщения
Вы не можете голосовать в опросах
Вы не можете прикреплять файлы к сообщениям
Вы не можете скачивать файлы