Discovery: Наука магии / Discovery: Science magic [2013 г., Документальный., DVB] VO (VoiceOver)

 
Автор Сообщение

reversefile ®

Пол:

Стаж: 5 лет 3 месяца

Сообщений: 842

Откуда: ReverseFile.org



Награды: Нет

Торрент-статистика

Создавать темы 24-Июл-2014 17:55

[Цитировать]

-Discovery: Наука магии / Discovery: Science magic-- Год выпуска: 2013
Страна: США
Жанр: Документальный
Продолжительность: 9 x 00:21:40
Перевод: Профессиональный (Двухголосый закадровый)
Cубтитры: Отсутствуют-Производство: -Описание: Четыре профессиональных иллюзиониста из разных стран используют науку для создания магии. Они расскажут, как физика, математика и химия помогают им ошеломлять людей. Это полностью изменит Ваше представление о мире. Вы увидите волшебство на улицах, фокусы со скрытой камерой и иллюзии. А удивив Вас раскроют научные принципы, благодаря которым получилось волшебство. Кажется чудом, но это наука. Узнайте все их секреты! Программа рождающая вопрос: Это магия? Или наука? Лучше 1 раз увидеть.- -Качество: DVB
Формат: MPEG-PS
Видео: MPEG2 Video, 720x576 (4:3), 25.00fps, ~3200 Kbps avg, 0.307 bit/pixel
Аудио 1: MPEG Audio Layer 2, 48000Hz stereo, ~192kbps avg [RUS]
Аудио 2: MPEG Audio Layer 2, 48000Hz stereo, ~192kbps avg [ENG]
- -

Описание эпизодов + MIСерия 01. Полет из пушки

Описание:
Уэйн оживляет моторное масло. Билли дает урок Восточных единоборств. Бен испытывает волшебный детектор лжи. А Джеймс бросает вызов гравитации.

MediaInfo

Общее
Полное имя                               : Наука Магии [DVB]\01. Полет из пушки [DVB.RUS-ENG].mpg
Формат                                   : MPEG-PS
Размер файла                             : 571 Мбайт
Продолжительность                        : 21 м.
Режим общего битрейта                    : Переменный
Общий поток                              : 3640 Кбит/сек
Видео
Идентификатор                            : 224 (0xE0)
Формат                                   : MPEG Video
Версия формата                           : Version 2
Профиль формата                          : Main@Main
Параметр BVOP формата                    : Да
Параметр матрицы формата                 : Выборочная
Параметр GOP формата                     : Variable
Продолжительность                        : 21 м.
Вид битрейта                             : Переменный
Битрейт                                  : 3183 Кбит/сек
Максимальный битрейт                     : 15,0 Мбит/сек
Ширина                                   : 720 пикселей
Высота                                   : 576 пикселей
Соотношение сторон                       : 4:3
Частота кадров                           : 25,000 кадров/сек
Стандарт вещания                         : PAL
Цветовое пространство                    : YUV
Субдискретизация насыщенности            : 4:2:0
Битовая глубина                          : 8 бит
Тип развёртки                            : Чересстрочная
Порядок развёртки                        : Верхнее поле первое
Метод сжатия                             : С потерями
Бит/(Пиксели*Кадры)                      : 0.307
Временной код первого кадра              : 00:00:00:00
Оригинал временного кода                 : Group of pictures header
Размер потока                            : 500 Мбайт (87%)
Аудио #1
Идентификатор                            : 192 (0xC0)
Формат                                   : MPEG Audio
Версия формата                           : Version 1
Профиль формата                          : Layer 2
Продолжительность                        : 21 м.
Вид битрейта                             : Постоянный
Битрейт                                  : 192 Кбит/сек
Каналы                                   : 2 канала
Частота                                  : 48,0 КГц
Метод сжатия                             : С потерями
Задержка видео                           : 23 мс.
Размер потока                            : 30,1 Мбайт (5%)
Аудио #2
Идентификатор                            : 193 (0xC1)
Формат                                   : MPEG Audio
Версия формата                           : Version 1
Профиль формата                          : Layer 2
Продолжительность                        : 21 м.
Вид битрейта                             : Постоянный
Битрейт                                  : 192 Кбит/сек
Каналы                                   : 2 канала
Частота                                  : 48,0 КГц
Метод сжатия                             : С потерями
Задержка видео                           : 23 мс.
Размер потока                            : 30,1 Мбайт (5%)

Серия 02. Опасное падение

Описание:
Уэйн - человек с золотыми руками. Билли проникает в мысли незнакомца. Бен превращает лучи солнца в снег. А Джеймс падает с большой высоты.

MediaInfo

Общее
Полное имя                               : Наука Магии [DVB]\02. Опасное падение [DVB.RUS-ENG].mpg
Формат                                   : MPEG-PS
Размер файла                             : 576 Мбайт
Продолжительность                        : 22 м.
Режим общего битрейта                    : Переменный
Общий поток                              : 3640 Кбит/сек
Видео
Идентификатор                            : 224 (0xE0)
Формат                                   : MPEG Video
Версия формата                           : Version 2
Профиль формата                          : Main@Main
Параметр BVOP формата                    : Да
Параметр матрицы формата                 : Выборочная
Параметр GOP формата                     : Variable
Продолжительность                        : 22 м.
Вид битрейта                             : Переменный
Битрейт                                  : 3183 Кбит/сек
Максимальный битрейт                     : 15,0 Мбит/сек
Ширина                                   : 720 пикселей
Высота                                   : 576 пикселей
Соотношение сторон                       : 4:3
Частота кадров                           : 25,000 кадров/сек
Стандарт вещания                         : PAL
Цветовое пространство                    : YUV
Субдискретизация насыщенности            : 4:2:0
Битовая глубина                          : 8 бит
Тип развёртки                            : Чересстрочная
Порядок развёртки                        : Верхнее поле первое
Метод сжатия                             : С потерями
Бит/(Пиксели*Кадры)                      : 0.307
Временной код первого кадра              : 00:00:00:00
Оригинал временного кода                 : Group of pictures header
Размер потока                            : 504 Мбайт (87%)
Аудио #1
Идентификатор                            : 192 (0xC0)
Формат                                   : MPEG Audio
Версия формата                           : Version 1
Профиль формата                          : Layer 2
Продолжительность                        : 22 м.
Вид битрейта                             : Постоянный
Битрейт                                  : 192 Кбит/сек
Каналы                                   : 2 канала
Частота                                  : 48,0 КГц
Метод сжатия                             : С потерями
Задержка видео                           : 7 мс.
Размер потока                            : 30,4 Мбайт (5%)
Аудио #2
Идентификатор                            : 193 (0xC1)
Формат                                   : MPEG Audio
Версия формата                           : Version 1
Профиль формата                          : Layer 2
Продолжительность                        : 22 м.
Вид битрейта                             : Постоянный
Битрейт                                  : 192 Кбит/сек
Каналы                                   : 2 канала
Частота                                  : 48,0 КГц
Метод сжатия                             : С потерями
Задержка видео                           : 7 мс.
Размер потока                            : 30,4 Мбайт (5%)

Серия 03. Книжная закладка

Описание:
Сегодня Джеймс продемонстрирует разрушительную силу разума. Билли и Бен создадут научный хаос снимаемый скрытой камерой. А Уейн впервые в жизни займется банджи-джампингом с перерезанным тросом.

MediaInfo

Общее
Полное имя                               : Наука Магии [DVB]\03. Книжная закладка [DVB.RUS-ENG].mpg
Формат                                   : MPEG-PS
Размер файла                             : 571 Мбайт
Продолжительность                        : 21 м.
Режим общего битрейта                    : Переменный
Общий поток                              : 3640 Кбит/сек
Видео
Идентификатор                            : 224 (0xE0)
Формат                                   : MPEG Video
Версия формата                           : Version 2
Профиль формата                          : Main@Main
Параметр BVOP формата                    : Да
Параметр матрицы формата                 : Выборочная
Параметр GOP формата                     : Variable
Продолжительность                        : 21 м.
Вид битрейта                             : Переменный
Битрейт                                  : 3184 Кбит/сек
Максимальный битрейт                     : 15,0 Мбит/сек
Ширина                                   : 720 пикселей
Высота                                   : 576 пикселей
Соотношение сторон                       : 4:3
Частота кадров                           : 25,000 кадров/сек
Стандарт вещания                         : PAL
Цветовое пространство                    : YUV
Субдискретизация насыщенности            : 4:2:0
Битовая глубина                          : 8 бит
Тип развёртки                            : Чересстрочная
Порядок развёртки                        : Верхнее поле первое
Метод сжатия                             : С потерями
Бит/(Пиксели*Кадры)                      : 0.307
Временной код первого кадра              : 00:00:00:00
Оригинал временного кода                 : Group of pictures header
Размер потока                            : 500 Мбайт (87%)
Аудио #1
Идентификатор                            : 192 (0xC0)
Формат                                   : MPEG Audio
Версия формата                           : Version 1
Профиль формата                          : Layer 2
Продолжительность                        : 21 м.
Вид битрейта                             : Постоянный
Битрейт                                  : 192 Кбит/сек
Каналы                                   : 2 канала
Частота                                  : 48,0 КГц
Метод сжатия                             : С потерями
Задержка видео                           : 23 мс.
Размер потока                            : 30,1 Мбайт (5%)
Аудио #2
Идентификатор                            : 193 (0xC1)
Формат                                   : MPEG Audio
Версия формата                           : Version 1
Профиль формата                          : Layer 2
Продолжительность                        : 21 м.
Вид битрейта                             : Постоянный
Битрейт                                  : 192 Кбит/сек
Каналы                                   : 2 канала
Частота                                  : 48,0 КГц
Метод сжатия                             : С потерями
Задержка видео                           : 23 мс.
Размер потока                            : 30,1 Мбайт (5%)

Серия 04. Вихревая пушка

Описание:
Бен получил лицензию на агентский трюк. От Билли у мужчин дрожат коленки. Уейн демонстрирует зажигательную силу разума. А Джеймс перевоплощается в супер-героя.

MediaInfo

Общее
Полное имя                               : Наука Магии [DVB]\04. Вихревая пушка [DVB.RUS-ENG].mpg
Формат                                   : MPEG-PS
Размер файла                             : 567 Мбайт
Продолжительность                        : 21 м.
Режим общего битрейта                    : Переменный
Общий поток                              : 3641 Кбит/сек
Видео
Идентификатор                            : 224 (0xE0)
Формат                                   : MPEG Video
Версия формата                           : Version 2
Профиль формата                          : Main@Main
Параметр BVOP формата                    : Да
Параметр матрицы формата                 : Выборочная
Параметр GOP формата                     : Variable
Продолжительность                        : 21 м.
Вид битрейта                             : Переменный
Битрейт                                  : 3184 Кбит/сек
Максимальный битрейт                     : 15,0 Мбит/сек
Ширина                                   : 720 пикселей
Высота                                   : 576 пикселей
Соотношение сторон                       : 4:3
Частота кадров                           : 25,000 кадров/сек
Стандарт вещания                         : PAL
Цветовое пространство                    : YUV
Субдискретизация насыщенности            : 4:2:0
Битовая глубина                          : 8 бит
Тип развёртки                            : Чересстрочная
Порядок развёртки                        : Верхнее поле первое
Метод сжатия                             : С потерями
Бит/(Пиксели*Кадры)                      : 0.307
Временной код первого кадра              : 00:00:00:00
Оригинал временного кода                 : Group of pictures header
Размер потока                            : 496 Мбайт (87%)
Аудио #1
Идентификатор                            : 192 (0xC0)
Формат                                   : MPEG Audio
Версия формата                           : Version 1
Профиль формата                          : Layer 2
Продолжительность                        : 21 м.
Вид битрейта                             : Постоянный
Битрейт                                  : 192 Кбит/сек
Каналы                                   : 2 канала
Частота                                  : 48,0 КГц
Метод сжатия                             : С потерями
Задержка видео                           : 23 мс.
Размер потока                            : 29,9 Мбайт (5%)
Аудио #2
Идентификатор                            : 193 (0xC1)
Формат                                   : MPEG Audio
Версия формата                           : Version 1
Профиль формата                          : Layer 2
Продолжительность                        : 21 м.
Вид битрейта                             : Постоянный
Битрейт                                  : 192 Кбит/сек
Каналы                                   : 2 канала
Частота                                  : 48,0 КГц
Метод сжатия                             : С потерями
Задержка видео                           : 23 мс.
Размер потока                            : 29,9 Мбайт (5%)

Серия 05. Катушка Теслы

Описание:
В этот раз Бен раскроет секреты вундеркинда. Билли предложит странный капучино. А Уейн пускает молнии с пальцев.

MediaInfo

Общее
Полное имя                               : Наука Магии [DVB]\05. Катушка Теслы [DVB.RUS-ENG].mpg
Формат                                   : MPEG-PS
Размер файла                             : 576 Мбайт
Продолжительность                        : 22 м.
Режим общего битрейта                    : Переменный
Общий поток                              : 3639 Кбит/сек
Видео
Идентификатор                            : 224 (0xE0)
Формат                                   : MPEG Video
Версия формата                           : Version 2
Профиль формата                          : Main@Main
Параметр BVOP формата                    : Да
Параметр матрицы формата                 : Выборочная
Параметр GOP формата                     : Variable
Продолжительность                        : 22 м.
Вид битрейта                             : Переменный
Битрейт                                  : 3183 Кбит/сек
Максимальный битрейт                     : 15,0 Мбит/сек
Ширина                                   : 720 пикселей
Высота                                   : 576 пикселей
Соотношение сторон                       : 4:3
Частота кадров                           : 25,000 кадров/сек
Стандарт вещания                         : PAL
Цветовое пространство                    : YUV
Субдискретизация насыщенности            : 4:2:0
Битовая глубина                          : 8 бит
Тип развёртки                            : Чересстрочная
Порядок развёртки                        : Верхнее поле первое
Метод сжатия                             : С потерями
Бит/(Пиксели*Кадры)                      : 0.307
Временной код первого кадра              : 00:00:00:00
Оригинал временного кода                 : Group of pictures header
Размер потока                            : 503 Мбайт (87%)
Аудио #1
Идентификатор                            : 192 (0xC0)
Формат                                   : MPEG Audio
Версия формата                           : Version 1
Профиль формата                          : Layer 2
Продолжительность                        : 22 м.
Вид битрейта                             : Постоянный
Битрейт                                  : 192 Кбит/сек
Каналы                                   : 2 канала
Частота                                  : 48,0 КГц
Метод сжатия                             : С потерями
Задержка видео                           : 15 мс.
Размер потока                            : 30,4 Мбайт (5%)
Аудио #2
Идентификатор                            : 193 (0xC1)
Формат                                   : MPEG Audio
Версия формата                           : Version 1
Профиль формата                          : Layer 2
Продолжительность                        : 22 м.
Вид битрейта                             : Постоянный
Битрейт                                  : 192 Кбит/сек
Каналы                                   : 2 канала
Частота                                  : 48,0 КГц
Метод сжатия                             : С потерями
Задержка видео                           : 15 мс.
Размер потока                            : 30,4 Мбайт (5%)

Серия 06. Вампир

Описание:
Бен проделывает трюк с исчезающим кораблем. Уейн считывает с автомобиля информацию о ее владельце. Билли разрушает все законы гравитации. А Джеймс решается на совершенно жуткий магический эксперимент.

MediaInfo

Общее
Полное имя                               : Наука Магии [DVB]\06. Вампир [DVB.RUS-ENG].mpg
Формат                                   : MPEG-PS
Размер файла                             : 575 Мбайт
Продолжительность                        : 22 м.
Режим общего битрейта                    : Переменный
Общий поток                              : 3639 Кбит/сек
Видео
Идентификатор                            : 224 (0xE0)
Формат                                   : MPEG Video
Версия формата                           : Version 2
Профиль формата                          : Main@Main
Параметр BVOP формата                    : Да
Параметр матрицы формата                 : Выборочная
Параметр GOP формата                     : Variable
Продолжительность                        : 22 м.
Вид битрейта                             : Переменный
Битрейт                                  : 3183 Кбит/сек
Максимальный битрейт                     : 15,0 Мбит/сек
Ширина                                   : 720 пикселей
Высота                                   : 576 пикселей
Соотношение сторон                       : 4:3
Частота кадров                           : 25,000 кадров/сек
Стандарт вещания                         : PAL
Цветовое пространство                    : YUV
Субдискретизация насыщенности            : 4:2:0
Битовая глубина                          : 8 бит
Тип развёртки                            : Чересстрочная
Порядок развёртки                        : Верхнее поле первое
Метод сжатия                             : С потерями
Бит/(Пиксели*Кадры)                      : 0.307
Временной код первого кадра              : 00:00:00:00
Оригинал временного кода                 : Group of pictures header
Размер потока                            : 503 Мбайт (87%)
Аудио #1
Идентификатор                            : 192 (0xC0)
Формат                                   : MPEG Audio
Версия формата                           : Version 1
Профиль формата                          : Layer 2
Продолжительность                        : 22 м.
Вид битрейта                             : Постоянный
Битрейт                                  : 192 Кбит/сек
Каналы                                   : 2 канала
Частота                                  : 48,0 КГц
Метод сжатия                             : С потерями
Задержка видео                           : 7 мс.
Размер потока                            : 30,3 Мбайт (5%)
Аудио #2
Идентификатор                            : 193 (0xC1)
Формат                                   : MPEG Audio
Версия формата                           : Version 1
Профиль формата                          : Layer 2
Продолжительность                        : 22 м.
Вид битрейта                             : Постоянный
Битрейт                                  : 192 Кбит/сек
Каналы                                   : 2 канала
Частота                                  : 48,0 КГц
Метод сжатия                             : С потерями
Задержка видео                           : 7 мс.
Размер потока                            : 30,3 Мбайт (5%)

Серия 07. Машина вуду

Описание:
Сегодня Уейн будет читать мысли прохожих. Бен заработает себе бесплатный обед в Польше при помощи воздушных шаров. Билли заставит гореть лед. А Джеймс шокирует публику сеансом магии вуду со взрывами.

MediaInfo

Общее
Полное имя                               : Наука Магии [DVB]\07. Машина вуду [DVB.RUS-ENG].mpg
Формат                                   : MPEG-PS
Размер файла                             : 564 Мбайт
Продолжительность                        : 21 м.
Режим общего битрейта                    : Переменный
Общий поток                              : 3640 Кбит/сек
Видео
Идентификатор                            : 224 (0xE0)
Формат                                   : MPEG Video
Версия формата                           : Version 2
Профиль формата                          : Main@Main
Параметр BVOP формата                    : Да
Параметр матрицы формата                 : Выборочная
Параметр GOP формата                     : Variable
Продолжительность                        : 21 м.
Вид битрейта                             : Переменный
Битрейт                                  : 3184 Кбит/сек
Максимальный битрейт                     : 15,0 Мбит/сек
Ширина                                   : 720 пикселей
Высота                                   : 576 пикселей
Соотношение сторон                       : 4:3
Частота кадров                           : 25,000 кадров/сек
Стандарт вещания                         : PAL
Цветовое пространство                    : YUV
Субдискретизация насыщенности            : 4:2:0
Битовая глубина                          : 8 бит
Тип развёртки                            : Чересстрочная
Порядок развёртки                        : Верхнее поле первое
Метод сжатия                             : С потерями
Бит/(Пиксели*Кадры)                      : 0.307
Временной код первого кадра              : 00:00:00:00
Оригинал временного кода                 : Group of pictures header
Размер потока                            : 493 Мбайт (87%)
Аудио #1
Идентификатор                            : 192 (0xC0)
Формат                                   : MPEG Audio
Версия формата                           : Version 1
Профиль формата                          : Layer 2
Продолжительность                        : 21 м.
Вид битрейта                             : Постоянный
Битрейт                                  : 192 Кбит/сек
Каналы                                   : 2 канала
Частота                                  : 48,0 КГц
Метод сжатия                             : С потерями
Задержка видео                           : 15 мс.
Размер потока                            : 29,7 Мбайт (5%)
Аудио #2
Идентификатор                            : 193 (0xC1)
Формат                                   : MPEG Audio
Версия формата                           : Version 1
Профиль формата                          : Layer 2
Продолжительность                        : 21 м.
Вид битрейта                             : Постоянный
Битрейт                                  : 192 Кбит/сек
Каналы                                   : 2 канала
Частота                                  : 48,0 КГц
Метод сжатия                             : С потерями
Задержка видео                           : 15 мс.
Размер потока                            : 29,7 Мбайт (5%)

Серия 08. Бомба из сухого льда

Описание:
На этот раз Уейн демонстрирует телекинетические способности. Билли бросает вызов парням в Польше. Бен сбивает с толку фанатов фитнеса с помощью антигравитационных упражнений.

MediaInfo

Общее
Полное имя                               : Наука Магии [DVB]\08. Бомба из сухого льда [DVB.RUS-ENG].mpg
Формат                                   : MPEG-PS
Размер файла                             : 571 Мбайт
Продолжительность                        : 21 м.
Режим общего битрейта                    : Переменный
Общий поток                              : 3641 Кбит/сек
Видео
Идентификатор                            : 224 (0xE0)
Формат                                   : MPEG Video
Версия формата                           : Version 2
Профиль формата                          : Main@Main
Параметр BVOP формата                    : Да
Параметр матрицы формата                 : Выборочная
Параметр GOP формата                     : Variable
Продолжительность                        : 21 м.
Вид битрейта                             : Переменный
Битрейт                                  : 3184 Кбит/сек
Максимальный битрейт                     : 15,0 Мбит/сек
Ширина                                   : 720 пикселей
Высота                                   : 576 пикселей
Соотношение сторон                       : 4:3
Частота кадров                           : 25,000 кадров/сек
Стандарт вещания                         : PAL
Цветовое пространство                    : YUV
Субдискретизация насыщенности            : 4:2:0
Битовая глубина                          : 8 бит
Тип развёртки                            : Чересстрочная
Порядок развёртки                        : Верхнее поле первое
Метод сжатия                             : С потерями
Бит/(Пиксели*Кадры)                      : 0.307
Временной код первого кадра              : 00:00:00:00
Оригинал временного кода                 : Group of pictures header
Размер потока                            : 500 Мбайт (87%)
Аудио #1
Идентификатор                            : 192 (0xC0)
Формат                                   : MPEG Audio
Версия формата                           : Version 1
Профиль формата                          : Layer 2
Продолжительность                        : 21 м.
Вид битрейта                             : Постоянный
Битрейт                                  : 192 Кбит/сек
Каналы                                   : 2 канала
Частота                                  : 48,0 КГц
Метод сжатия                             : С потерями
Задержка видео                           : 7 мс.
Размер потока                            : 30,1 Мбайт (5%)
Аудио #2
Идентификатор                            : 193 (0xC1)
Формат                                   : MPEG Audio
Версия формата                           : Version 1
Профиль формата                          : Layer 2
Продолжительность                        : 21 м.
Вид битрейта                             : Постоянный
Битрейт                                  : 192 Кбит/сек
Каналы                                   : 2 канала
Частота                                  : 48,0 КГц
Метод сжатия                             : С потерями
Задержка видео                           : 7 мс.
Размер потока                            : 30,1 Мбайт (5%)

Серия 09. Антигравитационное зеркало

Описание:
Сегодня Джеймс и Уейн расскажут о том, как они готовят свои самые опасные трюки. А Билли и Бен с помощью химии превратятся в барменов.

MediaInfo

Общее
Полное имя                               : Наука Магии [DVB]\09. Антигравитационное зеркало [DVB.RUS-ENG].mpg
Формат                                   : MPEG-PS
Размер файла                             : 572 Мбайт
Продолжительность                        : 21 м.
Режим общего битрейта                    : Переменный
Общий поток                              : 3640 Кбит/сек
Видео
Идентификатор                            : 224 (0xE0)
Формат                                   : MPEG Video
Версия формата                           : Version 2
Профиль формата                          : Main@Main
Параметр BVOP формата                    : Да
Параметр матрицы формата                 : Выборочная
Параметр GOP формата                     : Variable
Продолжительность                        : 21 м.
Вид битрейта                             : Переменный
Битрейт                                  : 3184 Кбит/сек
Максимальный битрейт                     : 15,0 Мбит/сек
Ширина                                   : 720 пикселей
Высота                                   : 576 пикселей
Соотношение сторон                       : 4:3
Частота кадров                           : 25,000 кадров/сек
Стандарт вещания                         : PAL
Цветовое пространство                    : YUV
Субдискретизация насыщенности            : 4:2:0
Битовая глубина                          : 8 бит
Тип развёртки                            : Чересстрочная
Порядок развёртки                        : Верхнее поле первое
Метод сжатия                             : С потерями
Бит/(Пиксели*Кадры)                      : 0.307
Временной код первого кадра              : 00:00:00:00
Оригинал временного кода                 : Group of pictures header
Размер потока                            : 500 Мбайт (87%)
Аудио #1
Идентификатор                            : 192 (0xC0)
Формат                                   : MPEG Audio
Версия формата                           : Version 1
Профиль формата                          : Layer 2
Продолжительность                        : 21 м.
Вид битрейта                             : Постоянный
Битрейт                                  : 192 Кбит/сек
Каналы                                   : 2 канала
Частота                                  : 48,0 КГц
Метод сжатия                             : С потерями
Задержка видео                           : 15 мс.
Размер потока                            : 30,2 Мбайт (5%)
Аудио #2
Идентификатор                            : 193 (0xC1)
Формат                                   : MPEG Audio
Версия формата                           : Version 1
Профиль формата                          : Layer 2
Продолжительность                        : 21 м.
Вид битрейта                             : Постоянный
Битрейт                                  : 192 Кбит/сек
Каналы                                   : 2 канала
Частота                                  : 48,0 КГц
Метод сжатия                             : С потерями
Задержка видео                           : 15 мс.
Размер потока                            : 30,2 Мбайт (5%)
-
[Профиль] [ЛС]
Кто просматривает тему:

Форум Тема Автор Размер
Discovery Discovery: Америка: факты и домыслы / America: Facts vs. Fiction [сезон 2 серии 1-12 из 12] [2010 г., Документальный, постановочный, история, SATRip] skorpionN 3.7 GB
Discovery Discovery: Анатомия секса / Discovery: Anatomy Of Sex (Джонатан Группер / Jonathan Grupper) [2005, США, документальный, познавательный, физиология, психология, DVDRip] DVO reversefile 700 MB
Discovery Discovery: Багажные войны (4 сезон: 1-12 серии) / Baggage Battles (2014) SATRip sergej644 2.88 GB
Документальные HD Discovery: Без промаха (1 сезон: 3 серия из 6) / Gunslingers (Кристофер Кассел / Christopher Cassel) [2014, Документальный, вестерн, постановочный, HDTVRip 720p] TorrentFilm 795 MB
Discovery Discovery: Без промаха / Gunslingers [сезон 1 серии 1-6 из 6] (Christopher Cassel) [2014 г., Вестерн, постановочный, SATRip] skorpionN 3.68 GB
Discovery Discovery: Взрывая историю / Blowing up History [сезон 1 серии 1-6 из 6] (Martin Gorst) [2016 г., Документальный, история, археология, HDTVRip-AVC 720p] skorpionN 9.55 GB
Документальные HD Discovery: Гангстеры дикой природы / Gangland Killers / 6 эпизодов (6) [2014, Документальный, познавательный, природа, HDTV 1080i] TorrentFilm 20.62 GB
Документальные HD Discovery: Гангстеры дикой природы / Gangland Killers / 6 эпизодов (6) [2014, Документальный, познавательный, природа, HDTVRip 720p] TorrentFilm 9.71 GB
Показать сообщения:    

Текущее время: Сегодня 06:32

Часовой пояс: GMT



Вы не можете начинать темы
Вы не можете отвечать на сообщения
Вы не можете редактировать свои сообщения
Вы не можете удалять свои сообщения
Вы не можете голосовать в опросах
Вы не можете прикреплять файлы к сообщениям
Вы не можете скачивать файлы