Discovery: Крупнейший в мире корабль (Серии 1-6 из 6) (Бенжамин Стотт) / Discovery: The world\'s biggest ship (Benjamin Stott) (Бенжамин Стотт / Benjamin Stott) [2013, документальный, научно-познавательный, SATRip]

 
Автор Сообщение

reversefile ®

Пол:

Стаж: 4 года 5 месяцев

Сообщений: 842

Откуда: ReverseFile.org



Награды: Нет

Торрент-статистика

Создавать темы 24-Июл-2014 17:55

[Цитировать]

Discovery: Крупнейший в мире корабль (Бенжамин Стотт) / Discovery: The world's biggest ship (Benjamin Stott)
Год выпуска: 2013
Страна: США
Жанр: документальный, научно-познавательный
Продолжительность: 00:43:28
Перевод: Профессиональный (многоголосый закадровый)
Русские субтитры: нет
Режиссер: Бенжамин Стотт / Benjamin Stott
Описание: Крупнейший датский оператор контейнеровозов и судов снабжения в мире - Maersk и канал Discovery объединили свои усилия, чтобы показать нам каждый этап строительства 400-метрового судна «Triple-E». Размеры корпуса ограничены только портами, которые могут принимать этот контейнеровоз.
В этой серии: Корабль сошел со стапелей, проходит морские испытания и загружается в первый рейс.
Это первый контейнеровоз в серии из двадцати заказанных судостроителям гигантов.
Следите за всеми нюансами плавания «Triple-E» и работы его команды.
качество: SATRip
формат: MP4
Видео: 854x480, 1000 kbps, 29 fps, AVC
Аудио: 128.00 kbps avg, 48 kHz, 2 ch, AAC
Сэмпл

Список выпусков/серий

1 cерия (Огромный корпус)
2 cерия (Огромный двигатель)
3 cерия (Капитанский мостик - мозг корабля)
4 cерия (Гигантский трюм)
5 серия (Спуск на воду)
6 cерия (Первое плавание)

MediaInfo

Общее
Полное имя : C:\Users\Администратор\Desktop\The world's biggest ship\The world's biggest ship (1).mp4
Формат : MPEG-4
Профиль формата : Base Media / Version 2
Идентификатор кодека : mp42
Размер файла : 352 Мбайт
Продолжительность : 43 м.
Общий поток : 1133 Кбит/сек
Дата кодирования : UTC 2013-12-22 19:35:06
Дата пометки : UTC 2013-12-22 19:35:06
Видео
Идентификатор : 2
Формат : AVC
Формат/Информация : Advanced Video Codec
Профиль формата : Main@L3.1
Параметр CABAC формата : Да
Параметр ReFrames формата : 2 кадра
Идентификатор кодека : avc1
Идентификатор кодека/Информация : Advanced Video Coding
Продолжительность : 43 м.
Битрейт : 1000 Кбит/сек
Ширина : 854 пикселя
Высота : 480 пикселей
Соотношение сторон : 16:9
Режим частоты кадров : Постоянный
Частота кадров : 29,970 кадров/сек
Стандарт вещания : NTSC
Цветовое пространство : YUV
Субдискретизация насыщенности : 4:2:0
Битовая глубина : 8 бит
Тип развёртки : Прогрессивная
Бит/(Пиксели*Кадры) : 0.081
Размер потока : 311 Мбайт (88%)
Язык : English
Дата кодирования : UTC 2013-12-22 19:35:06
Дата пометки : UTC 2013-12-22 19:35:06
Аудио
Идентификатор : 1
Формат : AAC
Формат/Информация : Advanced Audio Codec
Профиль формата : LC
Идентификатор кодека : 40
Продолжительность : 43 м.
Вид битрейта : Постоянный
Битрейт : 128 Кбит/сек
Каналы : channel0
Original Channel count : 2 канала
Расположение каналов : Front: L R
Частота : 48,0 КГц
Метод сжатия : С потерями
Размер потока : 39,8 Мбайт (11%)
Язык : English
Дата кодирования : UTC 2013-12-22 19:35:06
Дата пометки : UTC 2013-12-22 19:35:06

Скриншоты

[Профиль] [ЛС]
Кто просматривает тему:

Форум Тема Автор Размер
Discovery Discovery: Америка: факты и домыслы / America: Facts vs. Fiction [сезон 2 серии 1-12 из 12] [2010 г., Документальный, постановочный, история, SATRip] skorpionN 3.7 GB
Discovery Discovery: Анатомия секса / Discovery: Anatomy Of Sex (Джонатан Группер / Jonathan Grupper) [2005, США, документальный, познавательный, физиология, психология, DVDRip] DVO reversefile 700 MB
Discovery Discovery: Багажные войны (4 сезон: 1-12 серии) / Baggage Battles (2014) SATRip sergej644 2.88 GB
Документальные HD Discovery: Без промаха (1 сезон: 3 серия из 6) / Gunslingers (Кристофер Кассел / Christopher Cassel) [2014, Документальный, вестерн, постановочный, HDTVRip 720p] TorrentFilm 795 MB
Discovery Discovery: Без промаха / Gunslingers [сезон 1 серии 1-6 из 6] (Christopher Cassel) [2014 г., Вестерн, постановочный, SATRip] skorpionN 3.68 GB
Документальные HD Discovery: Гангстеры дикой природы / Gangland Killers / 6 эпизодов (6) [2014, Документальный, познавательный, природа, HDTV 1080i] TorrentFilm 20.62 GB
Документальные HD Discovery: Гангстеры дикой природы / Gangland Killers / 6 эпизодов (6) [2014, Документальный, познавательный, природа, HDTVRip 720p] TorrentFilm 9.71 GB
Документальные HD Discovery: Загадочные животные острова Джао / The Secret Creatures of Jao / 7 серий из 7 [2009, Документальный, познавательный, HDTV 1080i] TorrentFilm 10.05 GB
Показать сообщения:    

Текущее время: Сегодня 20:24

Часовой пояс: GMT



Вы не можете начинать темы
Вы не можете отвечать на сообщения
Вы не можете редактировать свои сообщения
Вы не можете удалять свои сообщения
Вы не можете голосовать в опросах
Вы не можете прикреплять файлы к сообщениям
Вы не можете скачивать файлы