Discovery. Знакомство с пришельцами / Aliens: Are We Alone? [2013, Документальный, SATRip]

 
Автор Сообщение

reversefile ®

Пол:

Стаж: 4 года 5 месяцев

Сообщений: 842

Откуда: ReverseFile.org



Награды: Нет

Торрент-статистика

Создавать темы 24-Июл-2014 17:55

[Цитировать]

Знакомство с пришельцами / Aliens: Are We Alone?
Год выпуска: 2013
Страна: США, SNI/SI Networks L.L.C.
Жанр: Документальный
Продолжительность: 00:34:51
Перевод: Профессиональный (дублированный)
Русские субтитры: нет
Описание: Посмотрите в ночное небо и Вы увидите миллиарды звезд. И Вам обязательно придет в голову мысль: где-то там, в этой бесконечности, должна существовать жизнь. На сегодняшний день ученые, как никогда, близки к разгадке этой тайны благодаря самому мощному поисковому устройству, из всех когда-либо построенных. Он способен на величайшие открытия. Даже на открытие солнечной системы, подобной нашей. Ученые начали строить теории о том, какая жизнь может существовать на других планетах: в океанах водных миров; на земле, над которой никогда не заходит солнце; или даже на планетах, похожих на нашу Землю. Это фильм о том, как великолепный космический аппарат приближает нас к ответу на извечные вопросы.
качество: SATRip
формат: AVI
Видео: XviD. 720x400 (16:9) 25.00fps : 1385 Кбит/сек
Аудио: Русский, AC3, 48 kHz, 2 ch, 192 Кбит/с
Аудио: Английский AC3, 48 kHz, 2 ch, 192 Кбит/с

Релиз

MediaInfo

Format : AVI
Format/Info : Audio Video Interleave
File size : 445 MiB
Duration : 34mn 51s
Overall bit rate : 1 784 Kbps
Writing application : VirtualDubModRus 1.5.10.2 (build 2542/release)
Writing library : VirtualDubMod build 2542/release
Video
ID : 0
Format : MPEG-4 Visual
Format profile : Advanced Simple@L5
Format settings, BVOP : 2
Format settings, QPel : No
Format settings, GMC : No warppoints
Format settings, Matrix : Default (H.263)
Codec ID : XVID
Codec ID/Hint : XviD
Duration : 34mn 51s
Bit rate : 1 385 Kbps
Width : 720 pixels
Height : 400 pixels
Display aspect ratio : 16:9
Frame rate : 25.000 fps
Color space : YUV
Chroma subsampling : 4:2:0
Bit depth : 8 bits
Scan type : Progressive
Compression mode : Lossy
Bits/(Pixel*Frame) : 0.192
Stream size : 345 MiB (78%)
Writing library : XviD 1.2.1 (UTC 2008-12-04)
Audio #1
ID : 1
Format : AC-3
Format/Info : Audio Coding 3
Mode extension : CM (complete main)
Format settings, Endianness : Big
Codec ID : 2000
Duration : 34mn 51s
Bit rate mode : Constant
Bit rate : 192 Kbps
Channel count : 2 channels
Channel positions : Front: L R
Sampling rate : 48.0 KHz
Bit depth : 16 bits
Compression mode : Lossy
Stream size : 47.9 MiB (11%)
Alignment : Split accross interleaves
Interleave, duration : 40 ms (1.00 video frame)
Interleave, preload duration : 500 ms
Audio #2
ID : 2
Format : AC-3
Format/Info : Audio Coding 3
Mode extension : CM (complete main)
Format settings, Endianness : Big
Codec ID : 2000
Duration : 34mn 51s
Bit rate mode : Constant
Bit rate : 192 Kbps
Channel count : 2 channels
Channel positions : Front: L R
Sampling rate : 48.0 KHz
Bit depth : 16 bits
Compression mode : Lossy
Stream size : 47.9 MiB (11%)
Alignment : Split accross interleaves
Interleave, duration : 40 ms (1.00 video frame)
Interleave, preload duration : 500 ms

Скриншоты

Если вы скачали данный релиз и хотите выложить его на другом ресурсе -
пожалуйста, указывайте первоисточник
dysonegear
[Профиль] [ЛС]
Показать сообщения:    

Текущее время: Сегодня 10:52

Часовой пояс: GMT



Вы не можете начинать темы
Вы не можете отвечать на сообщения
Вы не можете редактировать свои сообщения
Вы не можете удалять свои сообщения
Вы не можете голосовать в опросах
Вы не можете прикреплять файлы к сообщениям
Вы не можете скачивать файлы