Discovery: Загадочные животные острова Джао / The Secret Creatures of Jao / 7 серий из 7 [2009, Документальный, познавательный, HDTV 1080i]

 
Автор Сообщение

TorrentFilm ®

Пол:

Стаж: 2 года

Сообщений: 7741



Награды: Нет

Торрент-статистика

Создавать темы 01-Июл-2015 00:10

[Цитировать]

Загадочные животные острова ДжаоThe Secret Creatures of Jao
-Год выпуска: 2009
Страна: ЮАР
Производство: Aquavision TV Productions
Режиссёр: Peter Lamberti
Жанр: Документальный, познавательный, природа, животный мир
Продолжительность: 7 x ~00:22:05-Перевод: Студийный (одноголосый) [студия АРК-ТВ]
Русские субтитры: нет-Описание: В Ботсване, в самом сердце дельты реки Окаванго, в окружении паводковых вод, лежит райский остров Джао. Смешение суши и трясины, которое питает своих обитателей, при этом удерживая их в заточении. Это волшебное место, где обитают редкие, загадочные и таинственные существа, благодаря которым мы можем заглянуть в их скрытый мир. Каждый день приносит им новые сложности: удержаться в собственном доме или накормить семью из сорока голодных ртов, найти любовь или спастись из когтей свирепых хищников. Эти маленькие, неуловимые зверьки живут замысловатой и загадочной жизнью, полной испытаний и опасностей. Даже в раю загадочные создания острова Джао вынуждены вести ежедневную борьбу за выживание...-Источник записи: HDTV-запись с телеканала Animal Planet HD от san007-Сэмпл видео-Тип релиза: HDTV 1080i
Контейнер: MKV-Видео: AVC H.264, 1920x1080i (16:9), 50i fps, ~8500 kbps, ~0.16,4 bits/pixel
Аудио 1: Russian, AC3, 48KHz, 5.1 (6 channels), 384 kbps
Аудио 2: English, AC3, 48KHz, 5.1 (6 channels), 384 kbps-

Раздача в HDTVRip 720p

Список эпизодов

E01 Home Today, Gone Tomorrow / Сегодня в доме, завтра - без дома
E02 Table Manners / Столовые манеры
E03 Nosy Neighbours / Любопытные соседи
E04 A Family Affair / Семейное дело
E05 Royal Secrets / Царские секреты
E06 Broken Boundaries / Нарушенные границы
E07 A Scaled Attack / Змеиная атака

MediaInfo

General
Format : Matroska
Format version : Version 4 / Version 2
File size : 1.46 GiB
Duration : 22mn 5s
Overall bit rate mode : Variable
Overall bit rate : 9 457 Kbps
Writing application : mkvmerge v7.7.0 ('Six Voices') 64bit
Writing library : libebml v1.3.1 + libmatroska v1.4.2
Video #1
ID : 1
Format : AVC
Format/Info : Advanced Video Codec
Format profile : High@L4.0
Format settings, CABAC : Yes
Format settings, ReFrames : 4 frames
Codec ID : V_MPEG4/ISO/AVC
Duration : 22mn 5s
Bit rate mode : Variable
Bit rate : 8 501 Kbps
Maximum bit rate : 40.0 Mbps
Width : 1 920 pixels
Height : 1 080 pixels
Display aspect ratio : 16:9
Frame rate mode : Constant
Frame rate : 25.000 fps
Color space : YUV
Chroma subsampling : 4:2:0
Bit depth : 8 bits
Scan type : MBAFF
Bits/(Pixel*Frame) : 0.164
Stream size : 1.31 GiB (90%)
Default : Yes
Forced : No
Color primaries : BT.709
Transfer characteristics : BT.709
Matrix coefficients : BT.709
Audio #2
ID : 2
Format : AC-3
Format/Info : Audio Coding 3
Mode extension : CM (complete main)
Format settings, Endianness : Big
Codec ID : A_AC3
Duration : 22mn 5s
Bit rate mode : Constant
Bit rate : 384 Kbps
Channel(s) : 6 channels
Channel positions : Front: L C R, Side: L R, LFE
Sampling rate : 48.0 KHz
Bit depth : 16 bits
Compression mode : Lossy
Stream size : 60.7 MiB (4%)
Title : Russian
Language : Russian
Default : Yes
Forced : No
Audio #3
ID : 3
Format : AC-3
Format/Info : Audio Coding 3
Mode extension : CM (complete main)
Format settings, Endianness : Big
Codec ID : A_AC3
Duration : 22mn 5s
Bit rate mode : Constant
Bit rate : 384 Kbps
Channel(s) : 6 channels
Channel positions : Front: L C R, Side: L R, LFE
Sampling rate : 48.0 KHz
Bit depth : 16 bits
Compression mode : Lossy
Stream size : 60.7 MiB (4%)
Title : English
Language : English
Default : No
Forced : No
[Профиль] [ЛС]
Кто просматривает тему:

Форум Тема Автор Размер
Discovery Discovery: Америка: факты и домыслы / America: Facts vs. Fiction [сезон 2 серии 1-12 из 12] [2010 г., Документальный, постановочный, история, SATRip] skorpionN 3.7 GB
Discovery Discovery: Анатомия секса / Discovery: Anatomy Of Sex (Джонатан Группер / Jonathan Grupper) [2005, США, документальный, познавательный, физиология, психология, DVDRip] DVO reversefile 700 MB
Discovery Discovery: Багажные войны (4 сезон: 1-12 серии) / Baggage Battles (2014) SATRip sergej644 2.88 GB
Документальные HD Discovery: Без промаха (1 сезон: 3 серия из 6) / Gunslingers (Кристофер Кассел / Christopher Cassel) [2014, Документальный, вестерн, постановочный, HDTVRip 720p] TorrentFilm 795 MB
Discovery Discovery: Без промаха / Gunslingers [сезон 1 серии 1-6 из 6] (Christopher Cassel) [2014 г., Вестерн, постановочный, SATRip] skorpionN 3.68 GB
Документальные HD Discovery: Гангстеры дикой природы / Gangland Killers / 6 эпизодов (6) [2014, Документальный, познавательный, природа, HDTV 1080i] TorrentFilm 20.62 GB
Документальные HD Discovery: Гангстеры дикой природы / Gangland Killers / 6 эпизодов (6) [2014, Документальный, познавательный, природа, HDTVRip 720p] TorrentFilm 9.71 GB
Документальные HD Discovery: Загадочные животные острова Джао / The Secret Creatures of Jao / 7 серий из 7 [2009, Документальный, познавательный, HDTVRip 720p] TorrentFilm 4.84 GB
Показать сообщения:    

Текущее время: Сегодня 06:16

Часовой пояс: GMT



Вы не можете начинать темы
Вы не можете отвечать на сообщения
Вы не можете редактировать свои сообщения
Вы не можете удалять свои сообщения
Вы не можете голосовать в опросах
Вы не можете прикреплять файлы к сообщениям
Вы не можете скачивать файлы