Discovery: Без промаха (1 сезон: 3 серия из 6) / Gunslingers (Кристофер Кассел / Christopher Cassel) [2014, Документальный, вестерн, постановочный, HDTVRip 720p]

 
Автор Сообщение

TorrentFilm ®

Пол:

Стаж: 2 года

Сообщений: 7741



Награды: Нет

Торрент-статистика

Создавать темы 05-Июн-2015 00:04

[Цитировать]

Discovery: Без промаха (1 сезон: 3 серия из 6) / Gunslingers
Дата/Год выпуска: 2014
Страна: США, Discovery for American Heroes Channel (AHC)
Жанр: Документальный, вестерн, постановочный
Продолжительность: 1 х ~ 00:42:46
Перевод: Профессиональный (одноголосый)
Режиссер: Кристофер Кассел / Christopher Cassel
Телеканал: Discovery HD немецкого ТВ
Описание: Данный мини-сериал знакомит нас с яркими представителями преступного мира и теми самоотверженными героями, которые защищали закон на просторах Дикого Запада США. Узнаем что побудило их принять решения, от которых зависели не только их жизни но и жизни близких им людей. О жизни и удивительных историях, связанных с жизнью этих незаурядных людей, ставших легендами при жизни, расскажут нам писатели-историки и актёры американского кинематографа
Доп. информация: Авторство релиза - alf62


качество: HDTVRip 720p
формат: MKV
Видео: MPEG-4 AVC, ~ 2356 Кбит/с, 1280x720
Аудио: AC3, 2 ch, 192 Кбит/с

Список выпусков/серий

01. Вендетта в Тумстоуне / The Tombstone Vendetta
Отважный американский солдат столкнулся с бессилием закона в городе Тумстоун. Он решил отомстил тем ковбоям, которые убили его братьев.
02. Билли Кид – призрак округа Линкольн / The Phantom of Lincoln County
Рассказ об одиночке, который объявил войну коррупции. Он решил бороться за справедливость и мстить за бесчестные поступки.
03. Джесси Джеймс – последний мятежник на Юге / The South's Last Rebel
С гражданской войной и конфедератами связана история этого мятежника, который в своё время твёрдо решил разбогатеть. Джесси Джеймса многие считают Робин Гудом нашего времен
04. Дикий Билл. Отличный стрелок и мишень / Marksman... Marked Man
Один человек стал живой легендой американского Запада, и многие задались целью добыть его голову.
05. Том Хорн — угрюмый бандит со Скалистых гор / The Old West's Angel of Death
В те времена, когда жизнь на Диком Западе стала налаживаться, Том Хорн боролся с теми, кто по старинке считал, что прав всегда сильнейший.
06. Джон Уэсли Хардин — тёмное сердце Техаса / The Dark Heart of Texas
Когда отшумела Гражданская война в Америке, один джентльмен удачи устроил крестовый поход против тех, кто осмелился встать между ним и свободой.

MediaInfo

Без.промаха.2014.720p.hdtv.x264.alf62\Без.промаха.(3.серия.из.6).Джесси.Джеймс.2014.720p.hdtv.x264.alf62.mkvФормат : MatroskaВерсия формата : Version 4 / Version 2Размер файла : 795 МбайтПродолжительность : 42 м.Общий поток : 2600 Кбит/секДата кодирования : UTC 2015-05-28 01:14:49Программа кодирования : mkvmerge v6.6.0 ('The Edge Of The In Between') built on Dec 1 2013 17:55:00Библиотека кодирования : libebml v1.3.0 + libmatroska v1.4.1
ВидеоИдентификатор : 1Формат : AVCФормат/Информация : Advanced Video CodecПрофиль формата : High@L4.1Параметр CABAC формата : ДаПараметр ReFrames формата : 5 кадровИдентификатор кодека : V_MPEG4/ISO/AVCПродолжительность : 42 м.Битрейт : 2356 Кбит/секШирина : 1280 пикселейВысота : 720 пикселейСоотношение сторон : 16:9Режим частоты кадров : ПостоянныйЧастота кадров : 25,000 кадров/секЦветовое пространство : YUVСубдискретизация насыщенности : 4:2:0Битовая глубина : 8 битТип развёртки : ПрогрессивнаяБит/(Пиксели*Кадры) : 0.102Размер потока : 721 Мбайт (91%)Библиотека кодирования : x264 core 144 r2525 40bb568Настройки программы : cabac=1 / ref=5 / deblock=1:-3:-3 / analyse=0x3:0x113 / me=umh / subme=7 / psy=1 / psy_rd=1.00:0.00 / mixed_ref=1 / me_range=16 / chroma_me=1 / trellis=1 / 8x8dct=1 / cqm=0 / deadzone=21,11 / fast_pskip=0 / chroma_qp_offset=-2 / threads=12 / lookahead_threads=2 / sliced_threads=0 / nr=0 / decimate=1 / interlaced=0 / bluray_compat=0 / constrained_intra=0 / bframes=3 / b_pyramid=2 / b_adapt=2 / b_bias=0 / direct=3 / weightb=1 / open_gop=0 / weightp=2 / keyint=250 / keyint_min=25 / scenecut=40 / intra_refresh=0 / rc_lookahead=50 / rc=crf / mbtree=1 / crf=20.0 / qcomp=0.60 / qpmin=0 / qpmax=69 / qpstep=4 / vbv_maxrate=62500 / vbv_bufsize=78125 / crf_max=0.0 / nal_hrd=none / filler=0 / ip_ratio=1.40 / aq=1:1.00Язык : EnglishDefault : НетForced : Нет
АудиоИдентификатор : 2Формат : AC-3Формат/Информация : Audio Coding 3Расширение режима : CM (complete main)Параметр Endianness формата : BigИдентификатор кодека : A_AC3Продолжительность : 42 м.Вид битрейта : ПостоянныйБитрейт : 192 Кбит/секКаналы : 2 каналаРасположение каналов : Front: L RЧастота : 48,0 КГцБитовая глубина : 16 битМетод сжатия : С потерямиРазмер потока : 58,7 Мбайт (7%)Язык : EnglishDefault : НетForced : Нет
Внимание! Раздача ведётся путём добавления новых серий

скрытый текст

Внимание! Раздача ведётся путём добавления новых серий; при каждом добавлении создаётся новый торрент. Чтобы начать докачку новой серии, пользователям необходимо сделать следующее:
• Остановить скачивание.
• Удалить старый торрент у себя из клиента (старые серии удалять не надо).
• Скачать новый торрент и запустить его у себя в клиенте вместо старого, при этом указать клиенту путь в старую папку куда и должно происходить скачивание новых серий.
Ваш клиент при этом должен произвести хеширование (проверку) старой папки (если не производит сам - помогите ему сделать это), и будет докачивать только те серии которых у вас ещё нет. Старые серии при этом не удаляются, а продолжают раздаваться!
Eсли вы уже удалили старые серии, то предотвратить повторную закачку старых серий можно, отжав галочку в соответсвующих местах при запуске нового торрента. По возможности, желательно не удалять старые серии как можно дольше чтобы релизёр не столько продолжал раздавать старые серии, а смог сконцентрироваться на новых.

Скриншоты


[Профиль] [ЛС]
Кто просматривает тему:

Форум Тема Автор Размер
Discovery Discovery: Америка: факты и домыслы / America: Facts vs. Fiction [сезон 2 серии 1-12 из 12] [2010 г., Документальный, постановочный, история, SATRip] skorpionN 3.7 GB
Discovery Discovery: Анатомия секса / Discovery: Anatomy Of Sex (Джонатан Группер / Jonathan Grupper) [2005, США, документальный, познавательный, физиология, психология, DVDRip] DVO reversefile 700 MB
Discovery Discovery: Багажные войны (4 сезон: 1-12 серии) / Baggage Battles (2014) SATRip sergej644 2.88 GB
Discovery Discovery: Без промаха / Gunslingers [сезон 1 серии 1-6 из 6] (Christopher Cassel) [2014 г., Вестерн, постановочный, SATRip] skorpionN 3.68 GB
Документальные HD Discovery: Гангстеры дикой природы / Gangland Killers / 6 эпизодов (6) [2014, Документальный, познавательный, природа, HDTV 1080i] TorrentFilm 20.62 GB
Документальные HD Discovery: Гангстеры дикой природы / Gangland Killers / 6 эпизодов (6) [2014, Документальный, познавательный, природа, HDTVRip 720p] TorrentFilm 9.71 GB
Документальные HD Discovery: Загадочные животные острова Джао / The Secret Creatures of Jao / 7 серий из 7 [2009, Документальный, познавательный, HDTV 1080i] TorrentFilm 10.05 GB
Документальные HD Discovery: Загадочные животные острова Джао / The Secret Creatures of Jao / 7 серий из 7 [2009, Документальный, познавательный, HDTVRip 720p] TorrentFilm 4.84 GB
Показать сообщения:    

Текущее время: Сегодня 14:28

Часовой пояс: GMT



Вы не можете начинать темы
Вы не можете отвечать на сообщения
Вы не можете редактировать свои сообщения
Вы не можете удалять свои сообщения
Вы не можете голосовать в опросах
Вы не можете прикреплять файлы к сообщениям
Вы не можете скачивать файлы