Discovery: Багажные войны (4 сезон: 1-12 серии) / Baggage Battles (2014) SATRip

 
Автор Сообщение

sergej644 ®

Пол:

Стаж: 4 года 11 месяцев

Сообщений: 6041

Откуда: Soviet Union



Награды: Нет

Торрент-статистика

Создавать темы 06-Ноя-2014 10:15

[Цитировать]

-Discovery: Багажные войны / Baggage Battles (2014) SATRip- Режиссер / Телекомпания: Рик Гаррабрант /
Год выпуска: 2014
Жанр: Документальный, научно-познавательный, история, бизнес
Описание:Почти полмиллиона чемоданов теряется в лондонских аэропортах каждый год. Через шесть месяцев чемодан продают на аукционе. Смогут ли Марк, Билли, Лоренс и Салли заработать на купленных вещах?

Содержание серий

01. Тайны будущего (02.10.2014г.)
Скупщики вновь в пути и в этот раз они надеются получить выгоду на аукционе в Техасе. В Остине их ждут уникальные товары высшего качества.
02. Раздутое самолюбие (02.10.2014г.)
Скупщики возвращаются в Джорджию, но в этот раз их ждет битва в Атланте. В наличии редкие артефакты и легендарные рекламные лоты.
03. Межгалактическая добыча (09.10.2014г.)
Большой выбор разномастных товаров приводит скупщиков в Нэшвилл. Здесь, среди прочего, их ждет ящик номерных знаков.
04. Барабан-легенда (09.10.2014г.)
Скупщики снова с Нэшвилле, штат Теннесси. Билли, Марк, Лоуренс и Салли вернулись на аукцион Music City ради уникальных лотов, которые регулярно здесь появляются.
05. Чудовищная прибыль (16.10.2014г.)
Скупщики оказываются в Голливуде на распродаже киночудовищ. Здесь их ждут артефакты из таких фильмов как Франкенштейн и Человек-волк.
06. Жадный свин (16.10.2014г.)
Скупщики направляются на юг, в богатый пригород Атланты в поисках ценностей на гаражном аукционе. Кому же улыбнется удача?
07. Рисковая прогулка (23.10.2014г.)
Компания "Супераукцион" собирает самые культовые артефакты в Орландо и продает их тем, кто предлагает лучшие деньги. Улыбнется ли нашим скупщикам удача?
08. Нелегкие деньги (23.10.2014г.)
Скупщики отправляются в Аллентаун в надежде заполучить артефакты из лучших домов прошлого. Сегодня на продажу выставлены лоты из Геттисберга времен Гражданской войны.
09. Динозавр и саботаж (30.10.2014г.)
Скупщики сталкиваются лбами в надежде заполучить винтажные рекламные материалы, и Салли тратит целое состояние на динозавра. Тем временем Билли случайно наказывает себя самого.
10. Взрослые деньги (30.10.2014г.)
Скупщики рискуют купив винтажное оборудование казино и рекламные материалы, включая полноразмерную статую. Тем временем редкая запись Элвиса может принести серьезную сумму.
11. Стволы за деньги (06.11.2014г.)
На этот раз багажная война на аукционе в Лас-Вегасе разразится вокруг гигантского орудия Гатлинга и редкого рекламного плаката.
12. Волшебник страны старья (06.11.2014г.)
На аукционе потерянного имущества нашелся старый добрый кассетник из 80-х, еще один покупатель на седьмом небе от редкого издания "Волшебника страны Оз" из запечатанного сундука.
-Участники: Лоуренс Мартин, Сэлли Мартин, Уильям Лерой, Марк Майер, Джекки Каплан, Трейси Ломбардо, Алайн Лерой, Аллан Байтчер, Шерил Косенса, Ава Фабиан,
Продолжительность: 12 x ~ 00:20:30
Качество видео: SATRip
Перевод: Одноголосый закадровый, профессиональный

Видеокодек: Xvid
Битрейт видео: ~1530 кб/с
Размер кадра: 720x400
Аудиокодек: MP3, 2ch
Битрейт аудио: 128 кб/с

Mtdiainfo

Общее
Полное имя : F:\видео\фильмы\Багажные войны 4 сезон\01. Багажные войны. Тайны будущего.avi
Формат : AVI
Формат/Информация : Audio Video Interleave
Размер файла : 244 Мбайт
Продолжительность : 20 м.
Режим общего битрейта : Переменный
Общий поток : 1656 Кбит/сек
Программа кодирования : VirtualDubMod 1.5.10.3 | [url=http://www.virtualdub-fr.org]www.virtualdub-fr.org[/url] || (build 2550/release)
Библиотека кодирования : VirtualDubMod build 2550/release
Видео
Идентификатор : 0
Формат : MPEG-4 Visual
Профиль формата : Advanced Simple@L5
Параметр BVOP формата : 1
Параметр QPel формата : Нет
Параметр GMC формата : Без точки перехода
Параметр матрицы формата : Default (H.263)
Идентификатор кодека : XVID
Идентификатор кодека/Подсказка : XviD
Продолжительность : 20 м.
Битрейт : 1533 Кбит/сек
Ширина : 720 пикселей
Высота : 400 пикселей
Соотношение сторон : 16:9
Частота кадров : 25,000 кадров/сек
Цветовое пространство : YUV
Субдискретизация насыщенности : 4:2:0
Битовая глубина : 8 бит
Тип развёртки : Прогрессивная
Метод сжатия : С потерями
Бит/(Пиксели*Кадры) : 0.213
Размер потока : 226 Мбайт (93%)
Библиотека кодирования : XviD 1.2.1 (UTC 2008-12-04)
Аудио
Идентификатор : 1
Формат : MPEG Audio
Версия формата : Version 1
Профиль формата : Layer 3
Режим : Joint stereo
Расширение режима : MS Stereo
Идентификатор кодека : 55
Идентификатор кодека/Подсказка : MP3
Продолжительность : 20 м.
Вид битрейта : Переменный
Битрейт : 110 Кбит/сек
Номинальный битрейт : 128 Кбит/сек
Каналы : 2 канала
Частота : 48,0 КГц
Метод сжатия : С потерями
Размер потока : 16,2 Мбайт (7%)
Выравнивание : Соединение по промежуткам
Продолжительность промежутка : 24 мс. (0,60 видеокадр)
Время предзагрузки промежутка : 499 мс.
Библиотека кодирования : LAME3.98r
Настройки программы : -m j -V 4 -q 2 -lowpass 17 --abr 128
Скриншоты:
Время раздачи: 24/7
[Профиль] [ЛС]
Кто просматривает тему:

Форум Тема Автор Размер
Discovery Discovery: Америка: факты и домыслы / America: Facts vs. Fiction [сезон 2 серии 1-12 из 12] [2010 г., Документальный, постановочный, история, SATRip] skorpionN 3.7 GB
Discovery Discovery: Анатомия секса / Discovery: Anatomy Of Sex (Джонатан Группер / Jonathan Grupper) [2005, США, документальный, познавательный, физиология, психология, DVDRip] DVO reversefile 700 MB
Документальные HD Discovery: Без промаха (1 сезон: 3 серия из 6) / Gunslingers (Кристофер Кассел / Christopher Cassel) [2014, Документальный, вестерн, постановочный, HDTVRip 720p] TorrentFilm 795 MB
Discovery Discovery: Без промаха / Gunslingers [сезон 1 серии 1-6 из 6] (Christopher Cassel) [2014 г., Вестерн, постановочный, SATRip] skorpionN 3.68 GB
Документальные HD Discovery: Гангстеры дикой природы / Gangland Killers / 6 эпизодов (6) [2014, Документальный, познавательный, природа, HDTV 1080i] TorrentFilm 20.62 GB
Документальные HD Discovery: Гангстеры дикой природы / Gangland Killers / 6 эпизодов (6) [2014, Документальный, познавательный, природа, HDTVRip 720p] TorrentFilm 9.71 GB
Документальные HD Discovery: Загадочные животные острова Джао / The Secret Creatures of Jao / 7 серий из 7 [2009, Документальный, познавательный, HDTV 1080i] TorrentFilm 10.05 GB
Документальные HD Discovery: Загадочные животные острова Джао / The Secret Creatures of Jao / 7 серий из 7 [2009, Документальный, познавательный, HDTVRip 720p] TorrentFilm 4.84 GB
Показать сообщения:    

Текущее время: Сегодня 18:54

Часовой пояс: GMT



Вы не можете начинать темы
Вы не можете отвечать на сообщения
Вы не можете редактировать свои сообщения
Вы не можете удалять свои сообщения
Вы не можете голосовать в опросах
Вы не можете прикреплять файлы к сообщениям
Вы не можете скачивать файлы