Discovery: Америка: факты и домыслы / America: Facts vs. Fiction [сезон 2 серии 1-12 из 12] [2010 г., Документальный, постановочный, история, SATRip]

 
Автор Сообщение

skorpionN ®

Пол:

Стаж: 1 год 8 месяцев

Сообщений: 585



Награды: 4 (Подробнее)

Mega Seeder 2 (Количество: 1) Top Releaser 2 (Количество: 1) Mega Seeder 1 (Количество: 1)
Торрент-статистика

Создавать темы 20-Май-2015 20:01

[Цитировать]

Discovery: Америка: факты и домыслы / America: Facts vs. Fiction [сезон 2 серии 1-12 из 12]
Год выпуска: 2010
Страна: США, Workaholic Productions for American Heroes Channel (AHC)
Жанр: Документальный, постановочный, история
Продолжительность: 12x~00:22:10
Перевод: Профессиональный (одноголосый)
Режиссер: Kevin R. Hershberger
В ролях: ведущий - Джейми Келер, участвуют: Eláyne Paola Coba, Randy Jay Burrell |
Описание: Возможно, вы думаете, что знаете историю Америки. Но зачастую помнят только легенды, а не правду. Реальная жизнь сложна - домыслы гораздо проще. С ведущим Джейми Келером попробуем промыть песок истории и узнаем где правда, а где вымысел в удивительных историях США.
Список серий:
01. Не всё то золото, что блестит / Fool's Gold
Что на самом деле стояло за величайшим экономическим бумом Америки? Какую роль сыграла в истории этой страны золотая лихорадка и крах рынка ценных бумаг 1929 года?
02. Последний человеческий оплот / Last Man Standing
Подлинная история Аламо и "Последнего оплота Кастера" заметно отличается от официальной версии. Как же на самом деле погиб Дэви Крокетт?
03. Затерянные в море / Lost at Sea
Что делали пираты со своими сокровищами? Ведь не закапывали в землю? И что стоит за таинственными исчезновениями судов в Бермудском треугольнике?
04. Стволы и алкоголь / Booze and Bullets
Подлинная история Америки окружена легендами и тайнами. Что на самом деле стало причиной введения сухого закона? Кем в реальности были известные преступники Бонни и Клайд?
05. Паттон и Грант / Patton and Grant
Имена величайших генералов Америки окружены мифами. Знаете ли вы, откуда пошло прозвище Джорджа Паттона «Кровь и кишки»?
06. Вся правда о звёздно-полосатом / Red, White and True?
Немало мифов связано с патриотическими символами Америки. Правда ли, что Статую свободы изначально собирались поставить в Египте? И кто на самом деле придумал флаг США?
07. Героини военного времени / Wartime Rosies
Во время Второй мировой отважные женщины не только шли трудиться на заводы. В Америке был целый женский отряд пилотов ВВС. Из них 38 погибли при исполнении обязанностей.
08. Мастера иллюзий / Masters of Illusion
Действительно ли Гарри Гудини погиб, пытаясь выбраться из своей легендарной камеры пыток? Правда ли Финеас Барнум удвоил доходы, фабрикуя мифы о своих экспонатах?
09. Увидеть не значит поверить / Seeing Isn't Believing
Фотоискусство — важный инструмент в руках истории, но и оно не безупречно. Какой секрет скрывает один из наиболее известных портретов президента Линкольна?
10. Что было в Вегасе… / What Happens in Vegas...
Отнюдь не игорный бизнес принёс первые миллиарды в экономику Невады. Тогда как всё началось на самом деле? Какие секреты скрывают строители плотины Гувера?
11. Покорители небес / Conquering the Sky
Истории о первых авиаторах давно уже обросли выдумками. А как на самом деле создавался самолёт братьев Райт?
12. Чудеса инженерной мысли / Engineering the Impossible
Как мало мы знаем о самых известных инженерных проектах! Куда на самом деле ведёт Панамский канал? А кто завершил строительство трансконтинентальной железной дороги?
Качество: SATRip
Формат: AVI
Видео кодек: XviD
Аудио кодек: AC3
Видео: 720x400 25fps ~1800 Kbps
Аудио: AC3 2ch, 48kHz, 192 kbps

Скриншоты


MediaInfo:

Format : AVI
Format/Info : Audio Video Interleave
File size : 317 MiB
Duration : 22mn 12s
Overall bit rate : 1 995 Kbps
Writing application : TMPGEnc Video Mastering Works 5 Version. 5.0.6.38
Writing library : TMPGEnc Video Mastering Works 5 Version. 5.0.6.38
Video
ID : 0
Format : MPEG-4 Visual
Format profile : Advanced Simple@L5
Format settings, BVOP : 2
Format settings, QPel : No
Format settings, GMC : No warppoints
Format settings, Matrix : Default (H.263)
Muxing mode : Packed bitstream
Codec ID : XVID
Codec ID/Hint : XviD
Duration : 22mn 12s
Bit rate : 1 796 Kbps
Width : 720 pixels
Height : 400 pixels
Display aspect ratio : 16:9
Frame rate : 25.000 fps
Color space : YUV
Chroma subsampling : 4:2:0
Bit depth : 8 bits
Scan type : Progressive
Compression mode : Lossy
Bits/(Pixel*Frame) : 0.249
Stream size : 285 MiB (90%)
Writing library : XviD 73
Audio
ID : 1
Format : AC-3
Format/Info : Audio Coding 3
Mode extension : CM (complete main)
Format settings, Endianness : Big
Codec ID : 2000
Duration : 22mn 12s
Bit rate mode : Constant
Bit rate : 192 Kbps
Channel(s) : 2 channels
Channel positions : Front: L R
Sampling rate : 48.0 KHz
Compression mode : Lossy
Stream size : 30.5 MiB (10%)
Alignment : Aligned on interleaves
Interleave, duration : 480 ms (12.00 video frames)

Внимание:

Раздача ведётся путём добавления новых серий; при каждом добавлении создаётся новый торрент. Чтобы начать докачку новой серии, пользователям необходимо сделать следующее:
- Остановить скачивание.
- Удалить старый торрент у себя из клиента (старые серии удалять не надо).
- Скачать новый торрент и запустить его у себя в клиенте вместо старого, при этом указать клиенту путь в старую папку куда и должно происходить скачивание новых серий.
Добавлено
07. Героини военного времени / Wartime Rosies
09. Увидеть не значит поверить / Seeing Isn't Believing


Последний раз редактировалось: skorpionN (2015-06-25 15:25), всего редактировалось 1 раз
[Профиль] [ЛС]

skorpionN ®

Пол:

Стаж: 1 год 8 месяцев

Сообщений: 585



Награды: 4 (Подробнее)

Mega Seeder 1 (Количество: 1) Mega Seeder 2 (Количество: 1) Mega Seeder 3 (Количество: 1)
Торрент-статистика

Создавать темы 24-Июн-2015 18:08 (спустя 1 месяц 3 дня)

[Цитировать]

Сезон окончен
[Профиль] [ЛС]
Кто просматривает тему:

Форум Тема Автор Размер
Discovery Discovery: Анатомия секса / Discovery: Anatomy Of Sex (Джонатан Группер / Jonathan Grupper) [2005, США, документальный, познавательный, физиология, психология, DVDRip] DVO reversefile 700 MB
Discovery Discovery: Багажные войны (4 сезон: 1-12 серии) / Baggage Battles (2014) SATRip sergej644 2.88 GB
Документальные HD Discovery: Без промаха (1 сезон: 3 серия из 6) / Gunslingers (Кристофер Кассел / Christopher Cassel) [2014, Документальный, вестерн, постановочный, HDTVRip 720p] TorrentFilm 795 MB
Discovery Discovery: Без промаха / Gunslingers [сезон 1 серии 1-6 из 6] (Christopher Cassel) [2014 г., Вестерн, постановочный, SATRip] skorpionN 3.68 GB
Документальные HD Discovery: Гангстеры дикой природы / Gangland Killers / 6 эпизодов (6) [2014, Документальный, познавательный, природа, HDTV 1080i] TorrentFilm 20.62 GB
Документальные HD Discovery: Гангстеры дикой природы / Gangland Killers / 6 эпизодов (6) [2014, Документальный, познавательный, природа, HDTVRip 720p] TorrentFilm 9.71 GB
Документальные HD Discovery: Загадочные животные острова Джао / The Secret Creatures of Jao / 7 серий из 7 [2009, Документальный, познавательный, HDTV 1080i] TorrentFilm 10.05 GB
Документальные HD Discovery: Загадочные животные острова Джао / The Secret Creatures of Jao / 7 серий из 7 [2009, Документальный, познавательный, HDTVRip 720p] TorrentFilm 4.84 GB
Показать сообщения:    

Текущее время: Сегодня 10:51

Часовой пояс: GMT



Вы не можете начинать темы
Вы не можете отвечать на сообщения
Вы не можете редактировать свои сообщения
Вы не можете удалять свои сообщения
Вы не можете голосовать в опросах
Вы не можете прикреплять файлы к сообщениям
Вы не можете скачивать файлы