(Disco / Pop) Stars On 45 - The Greatest Stars On 45 (Japan) (2CD) - 1996, APE (image+.cue), lossless

 
Автор Сообщение

sergej644 ®

Пол:

Стаж: 4 года 11 месяцев

Сообщений: 6040

Откуда: Soviet Union



Награды: Нет

Торрент-статистика

Создавать темы 10-Дек-2014 14:28

[Цитировать]

--Stars On 45 - The Greatest Stars On 45, 2CD
Жанр: Disco / Pop
Год выпуска диска: 1996
Производитель диска: Japan
Аудио кодек: APE
Тип рипа: image+.cue
Битрейт аудио: lossless
Продолжительность: 62.05 + 66.29

CD1

Трэклист:

01. Beatles Medley [0:16:12.58]
02. Abba Medley [0:11:38.45]
03. Stevie Wonder Medley [0:07:49.37]
04. The Greatest Rock 'N' Roll Band In The World [0:05:16.38]
05. Supreme Medley [0:07:07.67]
06. Star Wars And Other Hits [0:05:17.58]
07. Beatles Medley (Single Version) [0:04:49.02]
08. Abba Medley (Single Version) [0:03:53.25]

Log EAC

Exact Audio Copy V0.99 prebeta 4 from 23. January 2008
Отчёт EAC об извлечении, выполненном 15. мая 2009, 1:19
Stars On 45 / The Greatest Stars On 45
Дисковод: PIONEER DVD-RW DVR-112 Adapter: 0 ID: 0
Режим чтения : Достоверность
Использование точного потока : Да
Отключение кэша аудио : Да
Использование указателей C2 : Нет
Коррекция смещения при чтении : 48
Способность читать области Lead-in и Lead-out : Нет
Заполнение пропущенных сэмплов тишиной : Да
Удаление блоков с тишиной в начале и конце : Нет
При вычислениях CRC использовались нулевые сэмплы : Да
Интерфейс : Установленный внешний ASPI-интерфейс
Выходной формат : Внутренние WAV-операции
Формат сэмплов : 44.100 Гц; 16 бит; стерео
TOC извлечённого CD
Трек | Старт | Длительность | Начальный сектор | Конечный сектор
---------------------------------------------------------------------
1 | 0:00.37 | 16:12.58 | 37 | 72994
2 | 16:13.20 | 11:38.45 | 72995 | 125389
3 | 27:51.65 | 7:49.37 | 125390 | 160601
4 | 35:41.27 | 5:16.38 | 160602 | 184339
5 | 40:57.65 | 7:07.67 | 184340 | 216431
6 | 48:05.57 | 5:17.58 | 216432 | 240264
7 | 53:23.40 | 4:49.02 | 240265 | 261941
8 | 58:12.42 | 3:53.25 | 261942 | 279441
Характеристики диапазона извлечения и сообщения об ошибках
Выбранный диапазон
Имя файла C:\Documents and Settings\Serg\Рабочий стол\dfsfsfsd\1\Stars On 45 - The Greatest Stars On 45.wav
Пиковый уровень 100.0 %
Качество диапазона 100.0 %
CRC копии 7BA637DC
Копирование... OK
Ошибок не произошло
Конец отчёта

Отчет Tau Analyzer

CD2

Трэклист:

01. Long Tall Ernie & The Shakers / Golden Years Of Rock & Roll Medley [0:04:32.58]
02. Nathalie / Carpenters Medley [0:07:28.60]
03. Star Sisters / Bad Girls Medley [0:07:55.35]
04. Tee Set / The Spencer Davis Group Medley [0:05:26.15]
05. Dance 'N' Sweet / Love Songs Are Forever Medley [0:10:02.30]
06. Star Sisters / Swing Medley [0:16:57.22]
07. Stars On 45 Featuring Nathalie / Carpenters Medley (Single Mix) [0:04:19.10]
08. Stars On 45 / Beatles Medley (Original 12 Inch Version) [0:09:47.23]

Log EAC

Exact Audio Copy V0.99 prebeta 4 from 23. January 2008
Отчёт EAC об извлечении, выполненном 15. мая 2009, 2:12
Stars On 45 / Greatest Vol.2
Дисковод: PIONEER DVD-RW DVR-112 Adapter: 0 ID: 0
Режим чтения : Достоверность
Использование точного потока : Да
Отключение кэша аудио : Да
Использование указателей C2 : Нет
Коррекция смещения при чтении : 48
Способность читать области Lead-in и Lead-out : Нет
Заполнение пропущенных сэмплов тишиной : Да
Удаление блоков с тишиной в начале и конце : Нет
При вычислениях CRC использовались нулевые сэмплы : Да
Интерфейс : Установленный внешний ASPI-интерфейс
Выходной формат : Внутренние WAV-операции
Формат сэмплов : 44.100 Гц; 16 бит; стерео
TOC извлечённого CD
Трек | Старт | Длительность | Начальный сектор | Конечный сектор
---------------------------------------------------------------------
1 | 0:00.37 | 4:32.58 | 37 | 20494
2 | 4:33.20 | 7:28.60 | 20495 | 54154
3 | 12:02.05 | 7:55.35 | 54155 | 89814
4 | 19:57.40 | 5:26.15 | 89815 | 114279
5 | 25:23.55 | 10:02.30 | 114280 | 159459
6 | 35:26.10 | 16:57.22 | 159460 | 235756
7 | 52:23.32 | 4:19.10 | 235757 | 255191
8 | 56:42.42 | 9:47.23 | 255192 | 299239
Характеристики диапазона извлечения и сообщения об ошибках
Выбранный диапазон
Имя файла C:\Documents and Settings\Serg\Рабочий стол\Stars On 45 - The Greatest Stars On 45\CD2\Stars On 45 - Greatest Vol.2.wav
Пиковый уровень 100.0 %
Качество диапазона 99.9 %
CRC копии 1AF70A9F
Копирование... OK
Ошибок не произошло
Конец отчёта

Отчет Tau Analyzer

[Профиль] [ЛС]

Создавать темы 13-Авг-2015 10:44 (спустя 8 месяцев 2 дня)

Топик был перенесен из форума Зарубежная в форум Technopop, Eurodance, Disco
sergej644
 
Кто просматривает тему:

Показать сообщения:    

Текущее время: Сегодня 10:48

Часовой пояс: GMT



Вы не можете начинать темы
Вы не можете отвечать на сообщения
Вы не можете редактировать свои сообщения
Вы не можете удалять свои сообщения
Вы не можете голосовать в опросах
Вы не можете прикреплять файлы к сообщениям
Вы не можете скачивать файлы